  0
SECTION
  2
HEADER
  9
$ACADVER
  1
AC1024
  9
$ACADMAINTVER
 70
   155
  9
$DWGCODEPAGE
  3
ANSI_932
  9
$LASTSAVEDBY
  1
user
  9
$INSBASE
 10
0.0
 20
0.0
 30
0.0
  9
$EXTMIN
 10
-0.5663960999008851
 20
-0.45311687739013
 30
-0.000000000000013
  9
$EXTMAX
 10
4200.09390067957
 20
5940.000027663654
 30
0.0000000000000023
  9
$LIMMIN
 10
0.0
 20
0.0
  9
$LIMMAX
 10
7425.0
 20
5250.0
  9
$ORTHOMODE
 70
     1
  9
$REGENMODE
 70
     1
  9
$FILLMODE
 70
     1
  9
$QTEXTMODE
 70
     0
  9
$MIRRTEXT
 70
     0
  9
$LTSCALE
 40
1.0
  9
$ATTMODE
 70
     1
  9
$TEXTSIZE
 40
2.5
  9
$TRACEWID
 40
1.0
  9
$TEXTSTYLE
  7
Annotative
  9
$CLAYER
  8
文字
  9
$CELTYPE
  6
ByLayer
  9
$CECOLOR
 62
   256
  9
$CELTSCALE
 40
1.0
  9
$DISPSILH
 70
     0
  9
$DIMSCALE
 40
0.0
  9
$DIMASZ
 40
1.25
  9
$DIMEXO
 40
0.625
  9
$DIMDLI
 40
3.75
  9
$DIMRND
 40
0.0
  9
$DIMDLE
 40
0.0
  9
$DIMEXE
 40
1.25
  9
$DIMTP
 40
0.0
  9
$DIMTM
 40
0.0
  9
$DIMTXT
 40
2.5
  9
$DIMCEN
 40
2.5
  9
$DIMTSZ
 40
0.0
  9
$DIMTOL
 70
     0
  9
$DIMLIM
 70
     0
  9
$DIMTIH
 70
     0
  9
$DIMTOH
 70
     0
  9
$DIMSE1
 70
     0
  9
$DIMSE2
 70
     0
  9
$DIMTAD
 70
     1
  9
$DIMZIN
 70
     8
  9
$DIMBLK
  1
Open30
  9
$DIMASO
 70
     1
  9
$DIMSHO
 70
     1
  9
$DIMPOST
  1

  9
$DIMAPOST
  1

  9
$DIMALT
 70
     0
  9
$DIMALTD
 70
     3
  9
$DIMALTF
 40
0.03937007874016
  9
$DIMLFAC
 40
1.0
  9
$DIMTOFL
 70
     1
  9
$DIMTVP
 40
0.0
  9
$DIMTIX
 70
     0
  9
$DIMSOXD
 70
     0
  9
$DIMSAH
 70
     0
  9
$DIMBLK1
  1

  9
$DIMBLK2
  1

  9
$DIMSTYLE
  2
Annotative
  9
$DIMCLRD
 70
     0
  9
$DIMCLRE
 70
     0
  9
$DIMCLRT
 70
     0
  9
$DIMTFAC
 40
1.0
  9
$DIMGAP
 40
0.625
  9
$DIMJUST
 70
     0
  9
$DIMSD1
 70
     0
  9
$DIMSD2
 70
     0
  9
$DIMTOLJ
 70
     0
  9
$DIMTZIN
 70
     8
  9
$DIMALTZ
 70
     0
  9
$DIMALTTZ
 70
     0
  9
$DIMUPT
 70
     0
  9
$DIMDEC
 70
     2
  9
$DIMTDEC
 70
     2
  9
$DIMALTU
 70
     2
  9
$DIMALTTD
 70
     3
  9
$DIMTXSTY
  7
Standard
  9
$DIMAUNIT
 70
     0
  9
$DIMADEC
 70
     0
  9
$DIMALTRND
 40
0.0
  9
$DIMAZIN
 70
     0
  9
$DIMDSEP
 70
    44
  9
$DIMATFIT
 70
     3
  9
$DIMFRAC
 70
     0
  9
$DIMLDRBLK
  1
Open30
  9
$DIMLUNIT
 70
     2
  9
$DIMLWD
 70
    -2
  9
$DIMLWE
 70
    -2
  9
$DIMTMOVE
 70
     0
  9
$DIMFXL
 40
1.0
  9
$DIMFXLON
 70
     0
  9
$DIMJOGANG
 40
0.7853981633974483
  9
$DIMTFILL
 70
     0
  9
$DIMTFILLCLR
 70
     0
  9
$DIMARCSYM
 70
     0
  9
$DIMLTYPE
  6

  9
$DIMLTEX1
  6

  9
$DIMLTEX2
  6

  9
$DIMTXTDIRECTION
 70
     0
  9
$LUNITS
 70
     2
  9
$LUPREC
 70
     4
  9
$SKETCHINC
 40
1.0
  9
$FILLETRAD
 40
50.0
  9
$AUNITS
 70
     0
  9
$AUPREC
 70
     0
  9
$MENU
  1
.
  9
$ELEVATION
 40
0.0
  9
$PELEVATION
 40
0.0
  9
$THICKNESS
 40
0.0
  9
$LIMCHECK
 70
     0
  9
$CHAMFERA
 40
15.0
  9
$CHAMFERB
 40
15.0
  9
$CHAMFERC
 40
0.0
  9
$CHAMFERD
 40
0.0
  9
$SKPOLY
 70
     0
  9
$TDCREATE
 40
2456734.557862442
  9
$TDUCREATE
 40
2456734.182862442
  9
$TDUPDATE
 40
2457278.409945278
  9
$TDUUPDATE
 40
2457278.034945278
  9
$TDINDWG
 40
0.5442756829
  9
$TDUSRTIMER
 40
0.5442751968
  9
$USRTIMER
 70
     1
  9
$ANGBASE
 50
0.0
  9
$ANGDIR
 70
     0
  9
$PDMODE
 70
     0
  9
$PDSIZE
 40
0.0
  9
$PLINEWID
 40
0.0
  9
$SPLFRAME
 70
     0
  9
$SPLINETYPE
 70
     6
  9
$SPLINESEGS
 70
     8
  9
$HANDSEED
  5
308B
  9
$SURFTAB1
 70
     6
  9
$SURFTAB2
 70
     6
  9
$SURFTYPE
 70
     6
  9
$SURFU
 70
     6
  9
$SURFV
 70
     6
  9
$UCSBASE
  2

  9
$UCSNAME
  2

  9
$UCSORG
 10
0.0
 20
0.0
 30
0.0
  9
$UCSXDIR
 10
1.0
 20
0.0
 30
0.0
  9
$UCSYDIR
 10
0.0
 20
1.0
 30
0.0
  9
$UCSORTHOREF
  2

  9
$UCSORTHOVIEW
 70
     0
  9
$UCSORGTOP
 10
0.0
 20
0.0
 30
0.0
  9
$UCSORGBOTTOM
 10
0.0
 20
0.0
 30
0.0
  9
$UCSORGLEFT
 10
0.0
 20
0.0
 30
0.0
  9
$UCSORGRIGHT
 10
0.0
 20
0.0
 30
0.0
  9
$UCSORGFRONT
 10
0.0
 20
0.0
 30
0.0
  9
$UCSORGBACK
 10
0.0
 20
0.0
 30
0.0
  9
$PUCSBASE
  2

  9
$PUCSNAME
  2

  9
$PUCSORG
 10
0.0
 20
0.0
 30
0.0
  9
$PUCSXDIR
 10
1.0
 20
0.0
 30
0.0
  9
$PUCSYDIR
 10
0.0
 20
1.0
 30
0.0
  9
$PUCSORTHOREF
  2

  9
$PUCSORTHOVIEW
 70
     0
  9
$PUCSORGTOP
 10
0.0
 20
0.0
 30
0.0
  9
$PUCSORGBOTTOM
 10
0.0
 20
0.0
 30
0.0
  9
$PUCSORGLEFT
 10
0.0
 20
0.0
 30
0.0
  9
$PUCSORGRIGHT
 10
0.0
 20
0.0
 30
0.0
  9
$PUCSORGFRONT
 10
0.0
 20
0.0
 30
0.0
  9
$PUCSORGBACK
 10
0.0
 20
0.0
 30
0.0
  9
$USERI1
 70
     0
  9
$USERI2
 70
     0
  9
$USERI3
 70
     0
  9
$USERI4
 70
     0
  9
$USERI5
 70
     0
  9
$USERR1
 40
0.0
  9
$USERR2
 40
0.0
  9
$USERR3
 40
0.0
  9
$USERR4
 40
0.0
  9
$USERR5
 40
0.0
  9
$WORLDVIEW
 70
     1
  9
$SHADEDGE
 70
     3
  9
$SHADEDIF
 70
    70
  9
$TILEMODE
 70
     1
  9
$MAXACTVP
 70
    64
  9
$PINSBASE
 10
0.0
 20
0.0
 30
0.0
  9
$PLIMCHECK
 70
     0
  9
$PEXTMIN
 10
-5.0
 20
-5.0
 30
0.0
  9
$PEXTMAX
 10
205.0
 20
292.0
 30
0.0
  9
$PLIMMIN
 10
-5.027082920074462
 20
-5.027085781097412
  9
$PLIMMAX
 10
204.9462447166443
 20
291.8989090919495
  9
$UNITMODE
 70
     0
  9
$VISRETAIN
 70
     1
  9
$PLINEGEN
 70
     0
  9
$PSLTSCALE
 70
     1
  9
$TREEDEPTH
 70
  3020
  9
$CMLSTYLE
  2
Standard
  9
$CMLJUST
 70
     0
  9
$CMLSCALE
 40
20.0
  9
$PROXYGRAPHICS
 70
     1
  9
$MEASUREMENT
 70
     1
  9
$CELWEIGHT
370
    -1
  9
$ENDCAPS
280
     0
  9
$JOINSTYLE
280
     0
  9
$LWDISPLAY
290
     0
  9
$INSUNITS
 70
     4
  9
$HYPERLINKBASE
  1

  9
$STYLESHEET
  1

  9
$XEDIT
290
     1
  9
$CEPSNTYPE
380
     0
  9
$PSTYLEMODE
290
     1
  9
$FINGERPRINTGUID
  2
{77D3B34D-BAAD-4AB4-B8CA-8BF0EA2465DC}
  9
$VERSIONGUID
  2
{6755772B-1BE5-40DF-964E-C92EAAD65D2B}
  9
$EXTNAMES
290
     1
  9
$PSVPSCALE
 40
0.0
  9
$OLESTARTUP
290
     0
  9
$SORTENTS
280
   127
  9
$INDEXCTL
280
     0
  9
$HIDETEXT
280
     1
  9
$XCLIPFRAME
280
     2
  9
$HALOGAP
280
     0
  9
$OBSCOLOR
 70
   257
  9
$OBSLTYPE
280
     0
  9
$INTERSECTIONDISPLAY
280
     0
  9
$INTERSECTIONCOLOR
 70
   257
  9
$DIMASSOC
280
     2
  9
$PROJECTNAME
  1

  9
$CAMERADISPLAY
290
     0
  9
$LENSLENGTH
 40
50.0
  9
$CAMERAHEIGHT
 40
0.0
  9
$STEPSPERSEC
 40
2.0
  9
$STEPSIZE
 40
6.0
  9
$3DDWFPREC
 40
2.0
  9
$PSOLWIDTH
 40
5.0
  9
$PSOLHEIGHT
 40
80.0
  9
$LOFTANG1
 40
1.570796326794896
  9
$LOFTANG2
 40
1.570796326794896
  9
$LOFTMAG1
 40
0.0
  9
$LOFTMAG2
 40
0.0
  9
$LOFTPARAM
 70
     7
  9
$LOFTNORMALS
280
     1
  9
$LATITUDE
 40
37.795
  9
$LONGITUDE
 40
-122.394
  9
$NORTHDIRECTION
 40
0.0
  9
$TIMEZONE
 70
 -8000
  9
$LIGHTGLYPHDISPLAY
280
     1
  9
$TILEMODELIGHTSYNCH
280
     1
  9
$CMATERIAL
347
EC
  9
$SOLIDHIST
280
     0
  9
$SHOWHIST
280
     1
  9
$DWFFRAME
280
     2
  9
$DGNFRAME
280
     0
  9
$REALWORLDSCALE
290
     1
  9
$INTERFERECOLOR
 62
     1
  9
$INTERFEREOBJVS
345
F9
  9
$INTERFEREVPVS
346
F6
  9
$CSHADOW
280
     0
  9
$SHADOWPLANELOCATION
 40
0.0
  0
ENDSEC
  0
SECTION
  2
CLASSES
  0
CLASS
  1
ACDBDICTIONARYWDFLT
  2
AcDbDictionaryWithDefault
  3
ObjectDBX Classes
 90
        0
 91
        1
280
     0
281
     0
  0
CLASS
  1
DICTIONARYVAR
  2
AcDbDictionaryVar
  3
ObjectDBX Classes
 90
        0
 91
       10
280
     0
281
     0
  0
CLASS
  1
TABLESTYLE
  2
AcDbTableStyle
  3
ObjectDBX Classes
 90
     4095
 91
        1
280
     0
281
     0
  0
CLASS
  1
MATERIAL
  2
AcDbMaterial
  3
ObjectDBX Classes
 90
     1153
 91
        3
280
     0
281
     0
  0
CLASS
  1
VISUALSTYLE
  2
AcDbVisualStyle
  3
ObjectDBX Classes
 90
     4095
 91
       24
280
     0
281
     0
  0
CLASS
  1
SCALE
  2
AcDbScale
  3
ObjectDBX Classes
 90
     1153
 91
       19
280
     0
281
     0
  0
CLASS
  1
MLEADERSTYLE
  2
AcDbMLeaderStyle
  3
ACDB_MLEADERSTYLE_CLASS
 90
     4095
 91
        2
280
     0
281
     0
  0
CLASS
  1
CELLSTYLEMAP
  2
AcDbCellStyleMap
  3
ObjectDBX Classes
 90
     1152
 91
        2
280
     0
281
     0
  0
CLASS
  1
EXACXREFPANELOBJECT
  2
ExAcXREFPanelObject
  3
EXAC_ESW
 90
     1025
 91
        0
280
     0
281
     0
  0
CLASS
  1
NPOCOLLECTION
  2
AcDbImpNonPersistentObjectsCollection
  3
ObjectDBX Classes
 90
     1153
 91
        0
280
     0
281
     0
  0
CLASS
  1
LAYER_INDEX
  2
AcDbLayerIndex
  3
ObjectDBX Classes
 90
        0
 91
        0
280
     0
281
     0
  0
CLASS
  1
SPATIAL_INDEX
  2
AcDbSpatialIndex
  3
ObjectDBX Classes
 90
        0
 91
        0
280
     0
281
     0
  0
CLASS
  1
IDBUFFER
  2
AcDbIdBuffer
  3
ObjectDBX Classes
 90
        0
 91
        0
280
     0
281
     0
  0
CLASS
  1
ACDBSECTIONVIEWSTYLE
  2
AcDbSectionViewStyle
  3
ObjectDBX Classes
 90
     1025
 91
        1
280
     0
281
     0
  0
CLASS
  1
ACDBDETAILVIEWSTYLE
  2
AcDbDetailViewStyle
  3
ObjectDBX Classes
 90
     1025
 91
        1
280
     0
281
     0
  0
CLASS
  1
SORTENTSTABLE
  2
AcDbSortentsTable
  3
ObjectDBX Classes
 90
        0
 91
        1
280
     0
281
     0
  0
CLASS
  1
ACDB_ALDIMOBJECTCONTEXTDATA_CLASS
  2
AcDbAlignedDimensionObjectContextData
  3
ObjectDBX Classes
 90
     1153
 91
       20
280
     0
281
     0
  0
CLASS
  1
DIMASSOC
  2
AcDbDimAssoc
  3
"AcDbDimAssoc|Product Desc:     AcDim ARX App For Dimension|Company:          Autodesk, Inc.|WEB Address:      www.autodesk.com"
 90
        0
 91
       12
280
     0
281
     0
  0
CLASS
  1
ACDB_TEXTOBJECTCONTEXTDATA_CLASS
  2
AcDbTextObjectContextData
  3
ObjectDBX Classes
 90
     1153
 91
       16
280
     0
281
     0
  0
CLASS
  1
ACDB_LEADEROBJECTCONTEXTDATA_CLASS
  2
AcDbLeaderObjectContextData
  3
ObjectDBX Classes
 90
     1153
 91
        1
280
     0
281
     0
  0
ENDSEC
  0
SECTION
  2
TABLES
  0
TABLE
  2
VPORT
  5
8
330
0
100
AcDbSymbolTable
 70
     1
  0
VPORT
  5
EA
330
8
100
AcDbSymbolTableRecord
100
AcDbViewportTableRecord
  2
*Active
 70
     0
 10
0.0
 20
0.0
 11
1.0
 21
1.0
 12
2099.763752289835
 22
2969.773455393132
 13
0.0
 23
0.0
 14
10.0
 24
10.0
 15
10.0
 25
10.0
 16
0.0
 26
0.0
 36
1.0
 17
0.0
 27
0.0
 37
0.0
 40
5986.862934732772
 41
1.195567144719687
 42
50.0
 43
0.0
 44
0.0
 50
0.0
 51
0.0
 71
     0
 72
  1000
 73
     1
 74
     3
 75
     0
 76
     1
 77
     0
 78
     0
281
     0
 65
     1
110
0.0
120
0.0
130
0.0
111
1.0
121
0.0
131
0.0
112
0.0
122
1.0
132
0.0
 79
     0
146
0.0
348
F5
 60
     3
 61
     5
292
     1
282
     1
141
0.0
142
0.0
 63
   250
421
  3355443
1001
ACAD_NAV_VCDISPLAY
1070
     3
  0
ENDTAB
  0
TABLE
  2
LTYPE
  5
5
330
0
100
AcDbSymbolTable
 70
     6
  0
LTYPE
  5
14
330
5
100
AcDbSymbolTableRecord
100
AcDbLinetypeTableRecord
  2
ByBlock
 70
     0
  3

 72
    65
 73
     0
 40
0.0
  0
LTYPE
  5
15
330
5
100
AcDbSymbolTableRecord
100
AcDbLinetypeTableRecord
  2
ByLayer
 70
     0
  3

 72
    65
 73
     0
 40
0.0
  0
LTYPE
  5
16
330
5
100
AcDbSymbolTableRecord
100
AcDbLinetypeTableRecord
  2
Continuous
 70
     0
  3
Solid line
 72
    65
 73
     0
 40
0.0
  0
LTYPE
  5
2C7
330
5
100
AcDbSymbolTableRecord
100
AcDbLinetypeTableRecord
  2
JIS_02_0.7
 70
     0
  3
HIDDEN0.75 _ _ _ _ _ _ _ _ _ _ _ _ _ _ _ _ _
 72
    65
 73
     2
 40
1.35
 49
0.75
 74
     0
 49
-0.6
 74
     0
  0
LTYPE
  5
2C8
330
5
100
AcDbSymbolTableRecord
100
AcDbLinetypeTableRecord
  2
JIS_02_2.0
 70
     0
  3
HIDDEN02 __ __ __ __ __ __ __ __ __ __ __
 72
    65
 73
     2
 40
3.0
 49
2.0
 74
     0
 49
-1.0
 74
     0
  0
LTYPE
  5
2C9
330
5
100
AcDbSymbolTableRecord
100
AcDbLinetypeTableRecord
  2
JIS_02_4.0
 70
     0
  3
HIDDEN04 ____ ____ ____ ____ ____ ____ ____
 72
    65
 73
     2
 40
5.5
 49
4.0
 74
     0
 49
-1.5
 74
     0
  0
LTYPE
  5
730
330
5
100
AcDbSymbolTableRecord
100
AcDbLinetypeTableRecord
  2
JIS_08_11
 70
     0
  3
1SASEN11 ___ _ ___ _ ___ _ ___ _ ___ _ ___
 72
    65
 73
     4
 40
12.8
 49
11.0
 74
     0
 49
-0.6
 74
     0
 49
0.6
 74
     0
 49
-0.6
 74
     0
  0
ENDTAB
  0
TABLE
  2
LAYER
  5
2
102
{ACAD_XDICTIONARY
360
1FF
102
}
330
0
100
AcDbSymbolTable
 70
    11
  0
LAYER
  5
10
102
{ACAD_XDICTIONARY
360
13C
102
}
330
2
100
AcDbSymbolTableRecord
100
AcDbLayerTableRecord
  2
0
 70
     0
 62
     7
  6
Continuous
370
    -3
390
F
347
EE
  0
LAYER
  5
242
330
2
100
AcDbSymbolTableRecord
100
AcDbLayerTableRecord
  2
図面枠
 70
     0
 62
     2
  6
Continuous
370
    -3
390
F
347
EE
1001
AcAecLayerStandard
1000

1000

1001
AcCmTransparency
1071
        0
  0
LAYER
  5
245
330
2
100
AcDbSymbolTableRecord
100
AcDbLayerTableRecord
  2
タイトル枠
 70
     0
 62
     2
  6
Continuous
370
    -3
390
F
347
EE
1001
AcAecLayerStandard
1000

1000

1001
AcCmTransparency
1071
        0
  0
LAYER
  5
246
330
2
100
AcDbSymbolTableRecord
100
AcDbLayerTableRecord
  2
タイトル
 70
     0
 62
     7
  6
Continuous
370
    -3
390
F
347
EE
1001
AcAecLayerStandard
1000

1000

1001
AcCmTransparency
1071
        0
  0
LAYER
  5
247
330
2
100
AcDbSymbolTableRecord
100
AcDbLayerTableRecord
  2
外形線
 70
     0
 62
     7
  6
Continuous
370
    -3
390
F
347
EE
1001
AcAecLayerStandard
1000

1000

1001
AcCmTransparency
1071
        0
  0
LAYER
  5
248
330
2
100
AcDbSymbolTableRecord
100
AcDbLayerTableRecord
  2
寸法線
 70
     0
 62
     5
  6
Continuous
370
    13
390
F
347
EE
1001
AcAecLayerStandard
1000

1000

1001
AcCmTransparency
1071
        0
  0
LAYER
  5
2B4
330
2
100
AcDbSymbolTableRecord
100
AcDbLayerTableRecord
  2
隠れ線
 70
     0
 62
     4
  6
JIS_02_0.7
370
    18
390
F
347
EE
1001
AcAecLayerStandard
1000

1000

1001
AcCmTransparency
1071
        0
  0
LAYER
  5
2E3
330
2
100
AcDbSymbolTableRecord
100
AcDbLayerTableRecord
  2
Defpoints
 70
     0
 62
     7
  6
Continuous
290
     0
370
    -3
390
F
347
EE
  0
LAYER
  5
31D
330
2
100
AcDbSymbolTableRecord
100
AcDbLayerTableRecord
  2
文字
 70
     0
 62
     7
  6
Continuous
370
    13
390
F
347
EE
1001
AcAecLayerStandard
1000

1000

1001
AcCmTransparency
1071
        0
  0
LAYER
  5
72F
330
2
100
AcDbSymbolTableRecord
100
AcDbLayerTableRecord
  2
中心線
 70
     0
 62
     2
  6
JIS_08_11
370
    -3
390
F
347
EE
1001
AcAecLayerStandard
1000

1000

1001
AcCmTransparency
1071
        0
  0
LAYER
  5
10BF
330
2
100
AcDbSymbolTableRecord
100
AcDbLayerTableRecord
  2
鉄筋
 70
     0
 62
     1
  6
Continuous
370
    -3
390
F
347
EE
1001
AcAecLayerStandard
1000

1000

1001
AcCmTransparency
1071
        0
  0
ENDTAB
  0
TABLE
  2
STYLE
  5
3
330
0
100
AcDbSymbolTable
 70
     3
  0
STYLE
  5
11
330
3
100
AcDbSymbolTableRecord
100
AcDbTextStyleTableRecord
  2
Standard
 70
     0
 40
0.0
 41
1.0
 50
0.0
 71
     0
 42
2.5
  3
arial.ttf
  4

1001
ACAD
1000
Arial
1071
       34
  0
STYLE
  5
132
330
3
100
AcDbSymbolTableRecord
100
AcDbTextStyleTableRecord
  2
Annotative
 70
     0
 40
0.0
 41
1.0
 50
0.0
 71
     0
 42
2.5
  3
arial.ttf
  4

1001
AcadAnnotative
1000
AnnotativeData
1002
{
1070
     1
1070
     1
1002
}
1001
ACAD
1000
Arial
1071
       34
  0
STYLE
  5
2C6
330
3
100
AcDbSymbolTableRecord
100
AcDbTextStyleTableRecord
  2

 70
     1
 40
0.0
 41
1.0
 50
0.0
 71
     0
 42
2.5
  3
ltypeshp.shx
  4

  0
ENDTAB
  0
TABLE
  2
VIEW
  5
6
330
0
100
AcDbSymbolTable
 70
     0
  0
ENDTAB
  0
TABLE
  2
UCS
  5
7
330
0
100
AcDbSymbolTable
 70
     0
  0
ENDTAB
  0
TABLE
  2
APPID
  5
9
330
0
100
AcDbSymbolTable
 70
    12
  0
APPID
  5
12
330
9
100
AcDbSymbolTableRecord
100
AcDbRegAppTableRecord
  2
ACAD
 70
     0
  0
APPID
  5
9E
330
9
100
AcDbSymbolTableRecord
100
AcDbRegAppTableRecord
  2
ACAD_PSEXT
 70
     0
  0
APPID
  5
133
330
9
100
AcDbSymbolTableRecord
100
AcDbRegAppTableRecord
  2
AcadAnnoPO
 70
     0
  0
APPID
  5
134
330
9
100
AcDbSymbolTableRecord
100
AcDbRegAppTableRecord
  2
AcadAnnotative
 70
     0
  0
APPID
  5
135
330
9
100
AcDbSymbolTableRecord
100
AcDbRegAppTableRecord
  2
ACAD_DSTYLE_DIMJAG
 70
     0
  0
APPID
  5
136
330
9
100
AcDbSymbolTableRecord
100
AcDbRegAppTableRecord
  2
ACAD_DSTYLE_DIMTALN
 70
     0
  0
APPID
  5
165
330
9
100
AcDbSymbolTableRecord
100
AcDbRegAppTableRecord
  2
ACAD_MLEADERVER
 70
     0
  0
APPID
  5
217
330
9
100
AcDbSymbolTableRecord
100
AcDbRegAppTableRecord
  2
ACAD_NAV_VCDISPLAY
 70
     0
  0
APPID
  5
243
330
9
100
AcDbSymbolTableRecord
100
AcDbRegAppTableRecord
  2
AcAecLayerStandard
 70
     0
  0
APPID
  5
244
330
9
100
AcDbSymbolTableRecord
100
AcDbRegAppTableRecord
  2
AcCmTransparency
 70
     0
  0
APPID
  5
249
330
9
100
AcDbSymbolTableRecord
100
AcDbRegAppTableRecord
  2
ACAD_EXEMPT_FROM_CAD_STANDARDS
 70
     0
  0
APPID
  5
65C
330
9
100
AcDbSymbolTableRecord
100
AcDbRegAppTableRecord
  2
AcadAnnoMonitorAlertIconDisabled
 70
     0
  0
ENDTAB
  0
TABLE
  2
DIMSTYLE
  5
A
330
0
100
AcDbSymbolTable
 70
     3
100
AcDbDimStyleTable
 71
     2
340
137
340
27
  0
DIMSTYLE
105
1B0
330
A
100
AcDbSymbolTableRecord
100
AcDbDimStyleTableRecord
  2
Standard
 70
     0
340
11
  0
DIMSTYLE
105
137
102
{ACAD_REACTORS
330
25C4
330
25D9
330
25EB
330
25FD
330
2635
330
2647
330
2659
330
266B
330
28E4
330
28F6
330
2908
330
291A
102
}
330
A
100
AcDbSymbolTableRecord
100
AcDbDimStyleTableRecord
  2
Annotative
 70
     0
 40
0.0
 41
1.25
 42
0.625
 43
3.75
 44
1.25
 73
     0
 74
     0
 77
     1
 78
     8
140
2.5
141
2.5
143
0.03937007874016
147
0.625
171
     3
172
     1
271
     2
272
     2
274
     3
278
    44
283
     0
284
     8
340
11
341
D79
342
D79
1001
AcadAnnotative
1000
AnnotativeData
1002
{
1070
     1
1070
     1
1002
}
1001
ACAD_DSTYLE_DIMJAG
1070
   388
1040
1.5
1001
ACAD_DSTYLE_DIMTALN
1070
   392
1070
     0
  0
DIMSTYLE
105
27
330
A
100
AcDbSymbolTableRecord
100
AcDbDimStyleTableRecord
  2
ISO-25
 70
     0
 41
2.5
 42
0.625
 43
3.75
 44
1.25
 73
     0
 74
     0
 77
     1
 78
     8
140
2.5
141
2.5
143
0.03937007874016
147
0.625
171
     3
172
     1
271
     2
272
     2
274
     3
278
    44
283
     0
284
     8
340
11
  0
ENDTAB
  0
TABLE
  2
BLOCK_RECORD
  5
1
330
0
100
AcDbSymbolTable
 70
    81
  0
BLOCK_RECORD
  5
1F
102
{ACAD_XDICTIONARY
360
1CE
102
}
330
1
100
AcDbSymbolTableRecord
100
AcDbBlockTableRecord
  2
*Model_Space
340
22
 70
     0
280
     1
281
     0
  0
BLOCK_RECORD
  5
29FE
330
1
100
AcDbSymbolTableRecord
100
AcDbBlockTableRecord
  2
*Paper_Space
340
29FF
 70
     0
280
     1
281
     0
  0
BLOCK_RECORD
  5
D79
330
1
100
AcDbSymbolTableRecord
100
AcDbBlockTableRecord
  2
_Open30
340
0
102
{BLKREFS
331
2DC6
331
2DC7
331
2DCF
331
2DD0
331
2DD8
331
2DD9
331
2DE1
331
2DE2
331
3018
331
3019
331
3021
331
3022
331
302A
331
302B
331
3033
331
3034
331
303C
331
303D
331
3045
331
3046
331
304E
331
304F
331
2D51
331
2D52
331
2D5A
331
2D5B
331
2D63
331
2D64
331
2D6C
331
2D6D
331
2D75
331
2D76
331
2D7E
331
2D7F
331
2D87
331
2D88
331
2DA2
331
2DA3
331
2DAB
331
2DAC
331
2DB4
331
2DB5
331
2DBD
331
2DBE
331
3006
331
3007
331
300F
331
3010
331
29C0
331
29C8
331
29C9
331
29D1
331
29D2
331
29DA
331
29DB
331
2B39
331
2B3A
331
2B45
331
2B46
331
2B51
331
2B52
331
2B5D
331
2B5E
331
2B69
331
2B6A
331
2B75
331
2B76
331
2AD9
331
2ADA
331
2AE5
331
2AE6
331
2AF1
331
2AF2
331
2AFD
331
2AFE
331
2B09
331
2B0A
331
2B15
331
2B16
331
2B21
331
2B22
331
2B2D
331
2B2E
331
2D09
331
2D0A
331
2D12
331
2D13
331
2D1B
331
2D1C
331
2D48
331
2D49
331
2FD9
331
2FDA
331
2FE2
331
2FE3
331
2FEB
331
2FEC
331
2FF4
331
2FF5
331
2FFD
331
2FFE
331
2930
331
2938
331
2939
331
2941
331
2942
331
294A
331
294B
331
2953
331
2954
331
295C
331
295D
331
2965
331
2966
331
296E
331
296F
331
2977
331
2978
331
2980
331
2981
331
2989
331
298A
331
2992
331
2993
331
299B
331
299C
331
29A4
331
29A5
331
29AD
331
29AE
331
29B6
331
29B7
331
29BF
331
292F
331
2AA0
331
2AB5
331
2AB6
331
2AC1
331
2AC2
331
2ACD
331
2ACE
331
2CBE
331
2CBF
331
2F80
331
2F88
331
2F89
331
2FB5
331
2FB6
331
2FBE
331
2FBF
331
2A87
331
2A88
331
2A93
331
2A94
331
2A9F
331
2F76
331
2F77
331
2F7F
331
2ED7
331
2ED8
102
}
 70
     0
280
     1
281
     0
  0
BLOCK_RECORD
  5
25C9
330
1
100
AcDbSymbolTableRecord
100
AcDbBlockTableRecord
  2
*D1
340
0
 70
     0
280
     1
281
     0
  0
BLOCK_RECORD
  5
25DE
330
1
100
AcDbSymbolTableRecord
100
AcDbBlockTableRecord
  2
*D2
340
0
 70
     0
280
     1
281
     0
  0
BLOCK_RECORD
  5
25F0
330
1
100
AcDbSymbolTableRecord
100
AcDbBlockTableRecord
  2
*D3
340
0
 70
     0
280
     1
281
     0
  0
BLOCK_RECORD
  5
2602
330
1
100
AcDbSymbolTableRecord
100
AcDbBlockTableRecord
  2
*D4
340
0
 70
     0
280
     1
281
     0
  0
BLOCK_RECORD
  5
263A
330
1
100
AcDbSymbolTableRecord
100
AcDbBlockTableRecord
  2
*D5
340
0
 70
     0
280
     1
281
     0
  0
BLOCK_RECORD
  5
264C
330
1
100
AcDbSymbolTableRecord
100
AcDbBlockTableRecord
  2
*D6
340
0
 70
     0
280
     1
281
     0
  0
BLOCK_RECORD
  5
265E
330
1
100
AcDbSymbolTableRecord
100
AcDbBlockTableRecord
  2
*D7
340
0
 70
     0
280
     1
281
     0
  0
BLOCK_RECORD
  5
2670
330
1
100
AcDbSymbolTableRecord
100
AcDbBlockTableRecord
  2
*D8
340
0
 70
     0
280
     1
281
     0
  0
BLOCK_RECORD
  5
268D
330
1
100
AcDbSymbolTableRecord
100
AcDbBlockTableRecord
  2
*D9
340
0
 70
     0
280
     1
281
     0
  0
BLOCK_RECORD
  5
26A3
330
1
100
AcDbSymbolTableRecord
100
AcDbBlockTableRecord
  2
*D10
340
0
 70
     0
280
     1
281
     0
  0
BLOCK_RECORD
  5
26B9
330
1
100
AcDbSymbolTableRecord
100
AcDbBlockTableRecord
  2
*D11
340
0
 70
     0
280
     1
281
     0
  0
BLOCK_RECORD
  5
26CF
330
1
100
AcDbSymbolTableRecord
100
AcDbBlockTableRecord
  2
*D12
340
0
 70
     0
280
     1
281
     0
  0
BLOCK_RECORD
  5
26E5
330
1
100
AcDbSymbolTableRecord
100
AcDbBlockTableRecord
  2
*D13
340
0
 70
     0
280
     1
281
     0
  0
BLOCK_RECORD
  5
26FB
330
1
100
AcDbSymbolTableRecord
100
AcDbBlockTableRecord
  2
*D14
340
0
 70
     0
280
     1
281
     0
  0
BLOCK_RECORD
  5
2711
330
1
100
AcDbSymbolTableRecord
100
AcDbBlockTableRecord
  2
*D15
340
0
 70
     0
280
     1
281
     0
  0
BLOCK_RECORD
  5
2727
330
1
100
AcDbSymbolTableRecord
100
AcDbBlockTableRecord
  2
*D16
340
0
 70
     0
280
     1
281
     0
  0
BLOCK_RECORD
  5
28E9
330
1
100
AcDbSymbolTableRecord
100
AcDbBlockTableRecord
  2
*D17
340
0
 70
     0
280
     1
281
     0
  0
BLOCK_RECORD
  5
28FB
330
1
100
AcDbSymbolTableRecord
100
AcDbBlockTableRecord
  2
*D18
340
0
 70
     0
280
     1
281
     0
  0
BLOCK_RECORD
  5
290D
330
1
100
AcDbSymbolTableRecord
100
AcDbBlockTableRecord
  2
*D19
340
0
 70
     0
280
     1
281
     0
  0
BLOCK_RECORD
  5
291F
330
1
100
AcDbSymbolTableRecord
100
AcDbBlockTableRecord
  2
*D20
340
0
 70
     0
280
     1
281
     0
  0
BLOCK_RECORD
  5
2A81
330
1
100
AcDbSymbolTableRecord
100
AcDbBlockTableRecord
  2
*D21
340
0
 70
     0
280
     1
281
     0
  0
BLOCK_RECORD
  5
2A8D
330
1
100
AcDbSymbolTableRecord
100
AcDbBlockTableRecord
  2
*D22
340
0
 70
     0
280
     1
281
     0
  0
BLOCK_RECORD
  5
2A99
330
1
100
AcDbSymbolTableRecord
100
AcDbBlockTableRecord
  2
*D23
340
0
 70
     0
280
     1
281
     0
  0
BLOCK_RECORD
  5
2AA5
330
1
100
AcDbSymbolTableRecord
100
AcDbBlockTableRecord
  2
*D24
340
0
 70
     0
280
     1
281
     0
  0
BLOCK_RECORD
  5
2ABB
330
1
100
AcDbSymbolTableRecord
100
AcDbBlockTableRecord
  2
*D25
340
0
 70
     0
280
     1
281
     0
  0
BLOCK_RECORD
  5
2AC7
330
1
100
AcDbSymbolTableRecord
100
AcDbBlockTableRecord
  2
*D26
340
0
 70
     0
280
     1
281
     0
  0
BLOCK_RECORD
  5
2AD3
330
1
100
AcDbSymbolTableRecord
100
AcDbBlockTableRecord
  2
*D27
340
0
 70
     0
280
     1
281
     0
  0
BLOCK_RECORD
  5
2ADF
330
1
100
AcDbSymbolTableRecord
100
AcDbBlockTableRecord
  2
*D28
340
0
 70
     0
280
     1
281
     0
  0
BLOCK_RECORD
  5
2AEB
330
1
100
AcDbSymbolTableRecord
100
AcDbBlockTableRecord
  2
*D29
340
0
 70
     0
280
     1
281
     0
  0
BLOCK_RECORD
  5
2AF7
330
1
100
AcDbSymbolTableRecord
100
AcDbBlockTableRecord
  2
*D30
340
0
 70
     0
280
     1
281
     0
  0
BLOCK_RECORD
  5
2B03
330
1
100
AcDbSymbolTableRecord
100
AcDbBlockTableRecord
  2
*D31
340
0
 70
     0
280
     1
281
     0
  0
BLOCK_RECORD
  5
2B0F
330
1
100
AcDbSymbolTableRecord
100
AcDbBlockTableRecord
  2
*D32
340
0
 70
     0
280
     1
281
     0
  0
BLOCK_RECORD
  5
2B1B
330
1
100
AcDbSymbolTableRecord
100
AcDbBlockTableRecord
  2
*D33
340
0
 70
     0
280
     1
281
     0
  0
BLOCK_RECORD
  5
2B27
330
1
100
AcDbSymbolTableRecord
100
AcDbBlockTableRecord
  2
*D34
340
0
 70
     0
280
     1
281
     0
  0
BLOCK_RECORD
  5
2B33
330
1
100
AcDbSymbolTableRecord
100
AcDbBlockTableRecord
  2
*D35
340
0
 70
     0
280
     1
281
     0
  0
BLOCK_RECORD
  5
2B3F
330
1
100
AcDbSymbolTableRecord
100
AcDbBlockTableRecord
  2
*D36
340
0
 70
     0
280
     1
281
     0
  0
BLOCK_RECORD
  5
2B4B
330
1
100
AcDbSymbolTableRecord
100
AcDbBlockTableRecord
  2
*D37
340
0
 70
     0
280
     1
281
     0
  0
BLOCK_RECORD
  5
2B57
330
1
100
AcDbSymbolTableRecord
100
AcDbBlockTableRecord
  2
*D38
340
0
 70
     0
280
     1
281
     0
  0
BLOCK_RECORD
  5
2B63
330
1
100
AcDbSymbolTableRecord
100
AcDbBlockTableRecord
  2
*D39
340
0
 70
     0
280
     1
281
     0
  0
BLOCK_RECORD
  5
2B6F
330
1
100
AcDbSymbolTableRecord
100
AcDbBlockTableRecord
  2
*D40
340
0
 70
     0
280
     1
281
     0
  0
BLOCK_RECORD
  5
2BBB
330
1
100
AcDbSymbolTableRecord
100
AcDbBlockTableRecord
  2
*D41
340
0
 70
     0
280
     1
281
     0
  0
BLOCK_RECORD
  5
2BC7
330
1
100
AcDbSymbolTableRecord
100
AcDbBlockTableRecord
  2
*D42
340
0
 70
     0
280
     1
281
     0
  0
BLOCK_RECORD
  5
2BD3
330
1
100
AcDbSymbolTableRecord
100
AcDbBlockTableRecord
  2
*D43
340
0
 70
     0
280
     1
281
     0
  0
BLOCK_RECORD
  5
2BDF
330
1
100
AcDbSymbolTableRecord
100
AcDbBlockTableRecord
  2
*D44
340
0
 70
     0
280
     1
281
     0
  0
BLOCK_RECORD
  5
2BEB
330
1
100
AcDbSymbolTableRecord
100
AcDbBlockTableRecord
  2
*D45
340
0
 70
     0
280
     1
281
     0
  0
BLOCK_RECORD
  5
2BF7
330
1
100
AcDbSymbolTableRecord
100
AcDbBlockTableRecord
  2
*D46
340
0
 70
     0
280
     1
281
     0
  0
BLOCK_RECORD
  5
2C03
330
1
100
AcDbSymbolTableRecord
100
AcDbBlockTableRecord
  2
*D47
340
0
 70
     0
280
     1
281
     0
  0
BLOCK_RECORD
  5
2C0F
330
1
100
AcDbSymbolTableRecord
100
AcDbBlockTableRecord
  2
*D48
340
0
 70
     0
280
     1
281
     0
  0
BLOCK_RECORD
  5
2C1B
330
1
100
AcDbSymbolTableRecord
100
AcDbBlockTableRecord
  2
*D49
340
0
 70
     0
280
     1
281
     0
  0
BLOCK_RECORD
  5
2C27
330
1
100
AcDbSymbolTableRecord
100
AcDbBlockTableRecord
  2
*D50
340
0
 70
     0
280
     1
281
     0
  0
BLOCK_RECORD
  5
2C46
330
1
100
AcDbSymbolTableRecord
100
AcDbBlockTableRecord
  2
*D51
340
0
 70
     0
280
     1
281
     0
  0
BLOCK_RECORD
  5
2C52
330
1
100
AcDbSymbolTableRecord
100
AcDbBlockTableRecord
  2
*D52
340
0
 70
     0
280
     1
281
     0
  0
BLOCK_RECORD
  5
2C5E
330
1
100
AcDbSymbolTableRecord
100
AcDbBlockTableRecord
  2
*D53
340
0
 70
     0
280
     1
281
     0
  0
BLOCK_RECORD
  5
2C6A
330
1
100
AcDbSymbolTableRecord
100
AcDbBlockTableRecord
  2
*D54
340
0
 70
     0
280
     1
281
     0
  0
BLOCK_RECORD
  5
2C76
330
1
100
AcDbSymbolTableRecord
100
AcDbBlockTableRecord
  2
*D55
340
0
 70
     0
280
     1
281
     0
  0
BLOCK_RECORD
  5
2C82
330
1
100
AcDbSymbolTableRecord
100
AcDbBlockTableRecord
  2
*D56
340
0
 70
     0
280
     1
281
     0
  0
BLOCK_RECORD
  5
2CA0
330
1
100
AcDbSymbolTableRecord
100
AcDbBlockTableRecord
  2
*D57
340
0
 70
     0
280
     1
281
     0
  0
BLOCK_RECORD
  5
2CAC
330
1
100
AcDbSymbolTableRecord
100
AcDbBlockTableRecord
  2
*D58
340
0
 70
     0
280
     1
281
     0
  0
BLOCK_RECORD
  5
2CB8
330
1
100
AcDbSymbolTableRecord
100
AcDbBlockTableRecord
  2
*D59
340
0
 70
     0
280
     1
281
     0
  0
BLOCK_RECORD
  5
2CC4
330
1
100
AcDbSymbolTableRecord
100
AcDbBlockTableRecord
  2
*D60
340
0
 70
     0
280
     1
281
     0
  0
BLOCK_RECORD
  5
2E28
330
1
100
AcDbSymbolTableRecord
100
AcDbBlockTableRecord
  2
*D61
340
0
 70
     0
280
     1
281
     0
  0
BLOCK_RECORD
  5
2E34
330
1
100
AcDbSymbolTableRecord
100
AcDbBlockTableRecord
  2
*D62
340
0
 70
     0
280
     1
281
     0
  0
BLOCK_RECORD
  5
2E41
330
1
100
AcDbSymbolTableRecord
100
AcDbBlockTableRecord
  2
*D63
340
0
 70
     0
280
     1
281
     0
  0
BLOCK_RECORD
  5
2E4D
330
1
100
AcDbSymbolTableRecord
100
AcDbBlockTableRecord
  2
*D64
340
0
 70
     0
280
     1
281
     0
  0
BLOCK_RECORD
  5
2E59
330
1
100
AcDbSymbolTableRecord
100
AcDbBlockTableRecord
  2
*D65
340
0
 70
     0
280
     1
281
     0
  0
BLOCK_RECORD
  5
2E65
330
1
100
AcDbSymbolTableRecord
100
AcDbBlockTableRecord
  2
*D66
340
0
 70
     0
280
     1
281
     0
  0
BLOCK_RECORD
  5
2E71
330
1
100
AcDbSymbolTableRecord
100
AcDbBlockTableRecord
  2
*D67
340
0
 70
     0
280
     1
281
     0
  0
BLOCK_RECORD
  5
2E7D
330
1
100
AcDbSymbolTableRecord
100
AcDbBlockTableRecord
  2
*D68
340
0
 70
     0
280
     1
281
     0
  0
BLOCK_RECORD
  5
2E89
330
1
100
AcDbSymbolTableRecord
100
AcDbBlockTableRecord
  2
*D69
340
0
 70
     0
280
     1
281
     0
  0
BLOCK_RECORD
  5
2E95
330
1
100
AcDbSymbolTableRecord
100
AcDbBlockTableRecord
  2
*D70
340
0
 70
     0
280
     1
281
     0
  0
BLOCK_RECORD
  5
2EA1
330
1
100
AcDbSymbolTableRecord
100
AcDbBlockTableRecord
  2
*D71
340
0
 70
     0
280
     1
281
     0
  0
BLOCK_RECORD
  5
2EAD
330
1
100
AcDbSymbolTableRecord
100
AcDbBlockTableRecord
  2
*D72
340
0
 70
     0
280
     1
281
     0
  0
BLOCK_RECORD
  5
2EB9
330
1
100
AcDbSymbolTableRecord
100
AcDbBlockTableRecord
  2
*D73
340
0
 70
     0
280
     1
281
     0
  0
BLOCK_RECORD
  5
2EC5
330
1
100
AcDbSymbolTableRecord
100
AcDbBlockTableRecord
  2
*D74
340
0
 70
     0
280
     1
281
     0
  0
BLOCK_RECORD
  5
2ED1
330
1
100
AcDbSymbolTableRecord
100
AcDbBlockTableRecord
  2
*D75
340
0
 70
     0
280
     1
281
     0
  0
BLOCK_RECORD
  5
2EDD
330
1
100
AcDbSymbolTableRecord
100
AcDbBlockTableRecord
  2
*D76
340
0
 70
     0
280
     1
281
     0
  0
BLOCK_RECORD
  5
2EE9
330
1
100
AcDbSymbolTableRecord
100
AcDbBlockTableRecord
  2
*D77
340
0
 70
     0
280
     1
281
     0
  0
BLOCK_RECORD
  5
2EF5
330
1
100
AcDbSymbolTableRecord
100
AcDbBlockTableRecord
  2
*D78
340
0
 70
     0
280
     1
281
     0
  0
BLOCK_RECORD
  5
2F01
330
1
100
AcDbSymbolTableRecord
100
AcDbBlockTableRecord
  2
*D79
340
0
 70
     0
280
     1
281
     0
  0
BLOCK_RECORD
  5
2F3A
330
1
100
AcDbSymbolTableRecord
100
AcDbBlockTableRecord
  2
*D80
340
0
 70
     0
280
     1
281
     0
  0
ENDTAB
  0
ENDSEC
  0
SECTION
  2
BLOCKS
  0
BLOCK
  5
20
330
1F
100
AcDbEntity
  8
0
100
AcDbBlockBegin
  2
*Model_Space
 70
     0
 10
0.0
 20
0.0
 30
0.0
  3
*Model_Space
  1

  0
ENDBLK
  5
21
330
1F
100
AcDbEntity
  8
0
100
AcDbBlockEnd
  0
BLOCK
  5
2A00
330
29FE
100
AcDbEntity
 67
     1
  8
0
100
AcDbBlockBegin
  2
*Paper_Space
 70
     0
 10
0.0
 20
0.0
 30
0.0
  3
*Paper_Space
  1

  0
ENDBLK
  5
2A01
330
29FE
100
AcDbEntity
 67
     1
  8
0
100
AcDbBlockEnd
  0
BLOCK
  5
D7D
330
D79
100
AcDbEntity
  8
0
100
AcDbBlockBegin
  2
_Open30
 70
     0
 10
0.0
 20
0.0
 30
0.0
  3
_Open30
  1

  0
LINE
  5
D7A
330
D79
100
AcDbEntity
  8
0
  6
ByBlock
 62
     0
370
    -2
100
AcDbLine
 10
-1.0
 20
0.26794919
 30
0.0
 11
0.0
 21
0.0
 31
0.0
  0
LINE
  5
D7B
330
D79
100
AcDbEntity
  8
0
  6
ByBlock
 62
     0
370
    -2
100
AcDbLine
 10
0.0
 20
0.0
 30
0.0
 11
-1.0
 21
-0.26794919
 31
0.0
  0
LINE
  5
D7C
330
D79
100
AcDbEntity
  8
0
  6
ByBlock
 62
     0
370
    -2
100
AcDbLine
 10
0.0
 20
0.0
 30
0.0
 11
-1.0
 21
0.0
 31
0.0
  0
ENDBLK
  5
D7E
330
D79
100
AcDbEntity
  8
0
100
AcDbBlockEnd
  0
BLOCK
  5
25CA
330
25C9
100
AcDbEntity
  8
0
100
AcDbBlockBegin
  2
*D1
 70
     1
 10
0.0
 20
0.0
 30
0.0
  3
*D1
  1

  0
LINE
  5
292C
330
25C9
100
AcDbEntity
  8
寸法線
 62
     0
370
    -2
100
AcDbLine
 10
1800.0
 20
4336.875000000001
 30
0.0
 11
1800.0
 21
4721.250000000001
 31
0.0
  0
LINE
  5
292D
330
25C9
100
AcDbEntity
  8
寸法線
 62
     0
370
    -2
100
AcDbLine
 10
1650.0
 20
4486.875000000001
 30
0.0
 11
1650.0
 21
4721.250000000001
 31
0.0
  0
LINE
  5
292E
330
25C9
100
AcDbEntity
  8
寸法線
 62
     0
370
    -2
100
AcDbLine
 10
1781.25
 20
4702.500000000001
 30
0.0
 11
1668.75
 21
4702.500000000001
 31
0.0
  0
INSERT
  5
292F
330
25C9
100
AcDbEntity
  8
寸法線
 62
     0
370
    -2
100
AcDbBlockReference
  2
_Open30
 10
1800.0
 20
4702.500000000001
 30
0.0
 41
18.75
 42
18.75
 43
18.75
  0
INSERT
  5
2930
330
25C9
100
AcDbEntity
  8
寸法線
 62
     0
370
    -2
100
AcDbBlockReference
  2
_Open30
 10
1650.0
 20
4702.500000000001
 30
0.0
 41
18.75
 42
18.75
 43
18.75
 50
180.0
  0
MTEXT
  5
2931
330
25C9
100
AcDbEntity
  8
寸法線
 62
     0
100
AcDbMText
 10
1725.0
 20
4731.021487039564
 30
0.0
 40
37.5
 41
0.0
 46
0.0
 71
     5
 72
     1
  1
150
 73
     1
 44
1.0
  0
POINT
  5
2932
330
25C9
100
AcDbEntity
  8
Defpoints
 62
     0
100
AcDbPoint
 10
1800.0
 20
4327.500000000001
 30
0.0
  0
POINT
  5
2933
330
25C9
100
AcDbEntity
  8
Defpoints
 62
     0
100
AcDbPoint
 10
1650.0
 20
4477.500000000001
 30
0.0
  0
POINT
  5
2934
330
25C9
100
AcDbEntity
  8
Defpoints
 62
     0
100
AcDbPoint
 10
1650.0
 20
4702.500000000001
 30
0.0
  0
ENDBLK
  5
25CB
330
25C9
100
AcDbEntity
  8
0
100
AcDbBlockEnd
  0
BLOCK
  5
25DF
330
25DE
100
AcDbEntity
  8
0
100
AcDbBlockBegin
  2
*D2
 70
     1
 10
0.0
 20
0.0
 30
0.0
  3
*D2
  1

  0
LINE
  5
293E
330
25DE
100
AcDbEntity
  8
寸法線
 62
     0
370
    -2
100
AcDbLine
 10
1800.0
 20
4336.875000000001
 30
0.0
 11
1800.0
 21
4721.250000000001
 31
0.0
  0
LINE
  5
293F
330
25DE
100
AcDbEntity
  8
寸法線
 62
     0
370
    -2
100
AcDbLine
 10
2400.0
 20
4336.875000000001
 30
0.0
 11
2400.0
 21
4721.250000000001
 31
0.0
  0
LINE
  5
2940
330
25DE
100
AcDbEntity
  8
寸法線
 62
     0
370
    -2
100
AcDbLine
 10
1818.75
 20
4702.500000000001
 30
0.0
 11
2381.25
 21
4702.500000000001
 31
0.0
  0
INSERT
  5
2941
330
25DE
100
AcDbEntity
  8
寸法線
 62
     0
370
    -2
100
AcDbBlockReference
  2
_Open30
 10
1800.0
 20
4702.500000000001
 30
0.0
 41
18.75
 42
18.75
 43
18.75
 50
180.0
  0
INSERT
  5
2942
330
25DE
100
AcDbEntity
  8
寸法線
 62
     0
370
    -2
100
AcDbBlockReference
  2
_Open30
 10
2400.0
 20
4702.500000000001
 30
0.0
 41
18.75
 42
18.75
 43
18.75
  0
MTEXT
  5
2943
330
25DE
100
AcDbEntity
  8
寸法線
 62
     0
100
AcDbMText
 10
2100.0
 20
4731.021487039564
 30
0.0
 40
37.5
 41
0.0
 46
0.0
 71
     5
 72
     1
  1
600
 73
     1
 44
1.0
  0
POINT
  5
2944
330
25DE
100
AcDbEntity
  8
Defpoints
 62
     0
100
AcDbPoint
 10
1800.0
 20
4327.500000000001
 30
0.0
  0
POINT
  5
2945
330
25DE
100
AcDbEntity
  8
Defpoints
 62
     0
100
AcDbPoint
 10
2400.0
 20
4327.500000000001
 30
0.0
  0
POINT
  5
2946
330
25DE
100
AcDbEntity
  8
Defpoints
 62
     0
100
AcDbPoint
 10
2400.0
 20
4702.500000000001
 30
0.0
  0
ENDBLK
  5
25E0
330
25DE
100
AcDbEntity
  8
0
100
AcDbBlockEnd
  0
BLOCK
  5
25F1
330
25F0
100
AcDbEntity
  8
0
100
AcDbBlockBegin
  2
*D3
 70
     1
 10
0.0
 20
0.0
 30
0.0
  3
*D3
  1

  0
LINE
  5
2950
330
25F0
100
AcDbEntity
  8
寸法線
 62
     0
370
    -2
100
AcDbLine
 10
2400.0
 20
4336.875000000001
 30
0.0
 11
2400.0
 21
4721.250000000001
 31
0.0
  0
LINE
  5
2951
330
25F0
100
AcDbEntity
  8
寸法線
 62
     0
370
    -2
100
AcDbLine
 10
2550.0
 20
4486.875000000001
 30
0.0
 11
2550.0
 21
4721.250000000001
 31
0.0
  0
LINE
  5
2952
330
25F0
100
AcDbEntity
  8
寸法線
 62
     0
370
    -2
100
AcDbLine
 10
2418.75
 20
4702.500000000001
 30
0.0
 11
2531.25
 21
4702.500000000001
 31
0.0
  0
INSERT
  5
2953
330
25F0
100
AcDbEntity
  8
寸法線
 62
     0
370
    -2
100
AcDbBlockReference
  2
_Open30
 10
2400.0
 20
4702.500000000001
 30
0.0
 41
18.75
 42
18.75
 43
18.75
 50
180.0
  0
INSERT
  5
2954
330
25F0
100
AcDbEntity
  8
寸法線
 62
     0
370
    -2
100
AcDbBlockReference
  2
_Open30
 10
2550.0
 20
4702.500000000001
 30
0.0
 41
18.75
 42
18.75
 43
18.75
  0
MTEXT
  5
2955
330
25F0
100
AcDbEntity
  8
寸法線
 62
     0
100
AcDbMText
 10
2475.0
 20
4731.021487039564
 30
0.0
 40
37.5
 41
0.0
 46
0.0
 71
     5
 72
     1
  1
150
 73
     1
 44
1.0
  0
POINT
  5
2956
330
25F0
100
AcDbEntity
  8
Defpoints
 62
     0
100
AcDbPoint
 10
2400.0
 20
4327.500000000001
 30
0.0
  0
POINT
  5
2957
330
25F0
100
AcDbEntity
  8
Defpoints
 62
     0
100
AcDbPoint
 10
2550.0
 20
4477.500000000001
 30
0.0
  0
POINT
  5
2958
330
25F0
100
AcDbEntity
  8
Defpoints
 62
     0
100
AcDbPoint
 10
2550.0
 20
4702.500000000001
 30
0.0
  0
ENDBLK
  5
25F2
330
25F0
100
AcDbEntity
  8
0
100
AcDbBlockEnd
  0
BLOCK
  5
2603
330
2602
100
AcDbEntity
  8
0
100
AcDbBlockBegin
  2
*D4
 70
     1
 10
0.0
 20
0.0
 30
0.0
  3
*D4
  1

  0
LINE
  5
2962
330
2602
100
AcDbEntity
  8
寸法線
 62
     0
370
    -2
100
AcDbLine
 10
2550.0
 20
4486.875000000001
 30
0.0
 11
2550.0
 21
4946.250000000001
 31
0.0
  0
LINE
  5
2963
330
2602
100
AcDbEntity
  8
寸法線
 62
     0
370
    -2
100
AcDbLine
 10
1650.0
 20
4486.875000000001
 30
0.0
 11
1650.0
 21
4946.250000000001
 31
0.0
  0
LINE
  5
2964
330
2602
100
AcDbEntity
  8
寸法線
 62
     0
370
    -2
100
AcDbLine
 10
2531.25
 20
4927.500000000001
 30
0.0
 11
1668.75
 21
4927.500000000001
 31
0.0
  0
INSERT
  5
2965
330
2602
100
AcDbEntity
  8
寸法線
 62
     0
370
    -2
100
AcDbBlockReference
  2
_Open30
 10
2550.0
 20
4927.500000000001
 30
0.0
 41
18.75
 42
18.75
 43
18.75
  0
INSERT
  5
2966
330
2602
100
AcDbEntity
  8
寸法線
 62
     0
370
    -2
100
AcDbBlockReference
  2
_Open30
 10
1650.0
 20
4927.500000000001
 30
0.0
 41
18.75
 42
18.75
 43
18.75
 50
180.0
  0
MTEXT
  5
2967
330
2602
100
AcDbEntity
  8
寸法線
 62
     0
100
AcDbMText
 10
2100.0
 20
4956.021487039564
 30
0.0
 40
37.5
 41
0.0
 46
0.0
 71
     5
 72
     1
  1
900
 73
     1
 44
1.0
  0
POINT
  5
2968
330
2602
100
AcDbEntity
  8
Defpoints
 62
     0
100
AcDbPoint
 10
2550.0
 20
4477.500000000001
 30
0.0
  0
POINT
  5
2969
330
2602
100
AcDbEntity
  8
Defpoints
 62
     0
100
AcDbPoint
 10
1650.0
 20
4477.500000000001
 30
0.0
  0
POINT
  5
296A
330
2602
100
AcDbEntity
  8
Defpoints
 62
     0
100
AcDbPoint
 10
1650.0
 20
4927.500000000001
 30
0.0
  0
ENDBLK
  5
2604
330
2602
100
AcDbEntity
  8
0
100
AcDbBlockEnd
  0
BLOCK
  5
263B
330
263A
100
AcDbEntity
  8
0
100
AcDbBlockBegin
  2
*D5
 70
     1
 10
0.0
 20
0.0
 30
0.0
  3
*D5
  1

  0
LINE
  5
2974
330
263A
100
AcDbEntity
  8
寸法線
 62
     0
370
    -2
100
AcDbLine
 10
1790.625
 20
4327.500000000001
 30
0.0
 11
1406.25
 21
4327.500000000001
 31
0.0
  0
LINE
  5
2975
330
263A
100
AcDbEntity
  8
寸法線
 62
     0
370
    -2
100
AcDbLine
 10
1640.625
 20
4477.500000000001
 30
0.0
 11
1406.25
 21
4477.500000000001
 31
0.0
  0
LINE
  5
2976
330
263A
100
AcDbEntity
  8
寸法線
 62
     0
370
    -2
100
AcDbLine
 10
1425.0
 20
4346.250000000001
 30
0.0
 11
1425.0
 21
4458.750000000001
 31
0.0
  0
INSERT
  5
2977
330
263A
100
AcDbEntity
  8
寸法線
 62
     0
370
    -2
100
AcDbBlockReference
  2
_Open30
 10
1425.0
 20
4327.500000000001
 30
0.0
 41
18.75
 42
18.75
 43
18.75
 50
270.0
  0
INSERT
  5
2978
330
263A
100
AcDbEntity
  8
寸法線
 62
     0
370
    -2
100
AcDbBlockReference
  2
_Open30
 10
1425.0
 20
4477.500000000001
 30
0.0
 41
18.75
 42
18.75
 43
18.75
 50
90.0
  0
MTEXT
  5
2979
330
263A
100
AcDbEntity
  8
寸法線
 62
     0
100
AcDbMText
 10
1396.478512960436
 20
4402.500000000001
 30
0.0
 40
37.5
 41
0.0
 46
0.0
 71
     5
 72
     1
  1
150
 11
0.0000000000000001
 21
1.0
 31
0.0
 73
     1
 44
1.0
  0
POINT
  5
297A
330
263A
100
AcDbEntity
  8
Defpoints
 62
     0
100
AcDbPoint
 10
1800.0
 20
4327.500000000001
 30
0.0
  0
POINT
  5
297B
330
263A
100
AcDbEntity
  8
Defpoints
 62
     0
100
AcDbPoint
 10
1650.0
 20
4477.500000000001
 30
0.0
  0
POINT
  5
297C
330
263A
100
AcDbEntity
  8
Defpoints
 62
     0
100
AcDbPoint
 10
1425.0
 20
4477.500000000001
 30
0.0
  0
ENDBLK
  5
263C
330
263A
100
AcDbEntity
  8
0
100
AcDbBlockEnd
  0
BLOCK
  5
264D
330
264C
100
AcDbEntity
  8
0
100
AcDbBlockBegin
  2
*D6
 70
     1
 10
0.0
 20
0.0
 30
0.0
  3
*D6
  1

  0
LINE
  5
2986
330
264C
100
AcDbEntity
  8
寸法線
 62
     0
370
    -2
100
AcDbLine
 10
1790.625
 20
4327.500000000001
 30
0.0
 11
1406.25
 21
4327.500000000001
 31
0.0
  0
LINE
  5
2987
330
264C
100
AcDbEntity
  8
寸法線
 62
     0
370
    -2
100
AcDbLine
 10
1790.625
 20
3727.500000000001
 30
0.0
 11
1406.25
 21
3727.500000000001
 31
0.0
  0
LINE
  5
2988
330
264C
100
AcDbEntity
  8
寸法線
 62
     0
370
    -2
100
AcDbLine
 10
1425.0
 20
4308.750000000001
 30
0.0
 11
1425.0
 21
3746.250000000002
 31
0.0
  0
INSERT
  5
2989
330
264C
100
AcDbEntity
  8
寸法線
 62
     0
370
    -2
100
AcDbBlockReference
  2
_Open30
 10
1425.0
 20
4327.500000000001
 30
0.0
 41
18.75
 42
18.75
 43
18.75
 50
90.0
  0
INSERT
  5
298A
330
264C
100
AcDbEntity
  8
寸法線
 62
     0
370
    -2
100
AcDbBlockReference
  2
_Open30
 10
1425.0
 20
3727.500000000001
 30
0.0
 41
18.75
 42
18.75
 43
18.75
 50
270.0
  0
MTEXT
  5
298B
330
264C
100
AcDbEntity
  8
寸法線
 62
     0
100
AcDbMText
 10
1396.478512960436
 20
4027.500000000001
 30
0.0
 40
37.5
 41
0.0
 46
0.0
 71
     5
 72
     1
  1
600
 11
0.0000000000000001
 21
1.0
 31
0.0
 73
     1
 44
1.0
  0
POINT
  5
298C
330
264C
100
AcDbEntity
  8
Defpoints
 62
     0
100
AcDbPoint
 10
1800.0
 20
4327.500000000001
 30
0.0
  0
POINT
  5
298D
330
264C
100
AcDbEntity
  8
Defpoints
 62
     0
100
AcDbPoint
 10
1800.0
 20
3727.500000000001
 30
0.0
  0
POINT
  5
298E
330
264C
100
AcDbEntity
  8
Defpoints
 62
     0
100
AcDbPoint
 10
1425.0
 20
3727.500000000001
 30
0.0
  0
ENDBLK
  5
264E
330
264C
100
AcDbEntity
  8
0
100
AcDbBlockEnd
  0
BLOCK
  5
265F
330
265E
100
AcDbEntity
  8
0
100
AcDbBlockBegin
  2
*D7
 70
     1
 10
0.0
 20
0.0
 30
0.0
  3
*D7
  1

  0
LINE
  5
2998
330
265E
100
AcDbEntity
  8
寸法線
 62
     0
370
    -2
100
AcDbLine
 10
1790.625
 20
3727.500000000001
 30
0.0
 11
1406.25
 21
3727.500000000001
 31
0.0
  0
LINE
  5
2999
330
265E
100
AcDbEntity
  8
寸法線
 62
     0
370
    -2
100
AcDbLine
 10
1640.625
 20
3577.500000000001
 30
0.0
 11
1406.25
 21
3577.500000000001
 31
0.0
  0
LINE
  5
299A
330
265E
100
AcDbEntity
  8
寸法線
 62
     0
370
    -2
100
AcDbLine
 10
1425.0
 20
3708.750000000001
 30
0.0
 11
1425.0
 21
3596.250000000001
 31
0.0
  0
INSERT
  5
299B
330
265E
100
AcDbEntity
  8
寸法線
 62
     0
370
    -2
100
AcDbBlockReference
  2
_Open30
 10
1425.0
 20
3727.500000000001
 30
0.0
 41
18.75
 42
18.75
 43
18.75
 50
90.0
  0
INSERT
  5
299C
330
265E
100
AcDbEntity
  8
寸法線
 62
     0
370
    -2
100
AcDbBlockReference
  2
_Open30
 10
1425.0
 20
3577.500000000001
 30
0.0
 41
18.75
 42
18.75
 43
18.75
 50
270.0
  0
MTEXT
  5
299D
330
265E
100
AcDbEntity
  8
寸法線
 62
     0
100
AcDbMText
 10
1396.478512960436
 20
3652.500000000002
 30
0.0
 40
37.5
 41
0.0
 46
0.0
 71
     5
 72
     1
  1
150
 11
0.0000000000000001
 21
1.0
 31
0.0
 73
     1
 44
1.0
  0
POINT
  5
299E
330
265E
100
AcDbEntity
  8
Defpoints
 62
     0
100
AcDbPoint
 10
1800.0
 20
3727.500000000001
 30
0.0
  0
POINT
  5
299F
330
265E
100
AcDbEntity
  8
Defpoints
 62
     0
100
AcDbPoint
 10
1650.0
 20
3577.500000000001
 30
0.0
  0
POINT
  5
29A0
330
265E
100
AcDbEntity
  8
Defpoints
 62
     0
100
AcDbPoint
 10
1425.0
 20
3577.500000000001
 30
0.0
  0
ENDBLK
  5
2660
330
265E
100
AcDbEntity
  8
0
100
AcDbBlockEnd
  0
BLOCK
  5
2671
330
2670
100
AcDbEntity
  8
0
100
AcDbBlockBegin
  2
*D8
 70
     1
 10
0.0
 20
0.0
 30
0.0
  3
*D8
  1

  0
LINE
  5
29AA
330
2670
100
AcDbEntity
  8
寸法線
 62
     0
370
    -2
100
AcDbLine
 10
1640.625
 20
3577.500000000001
 30
0.0
 11
1181.25
 21
3577.500000000001
 31
0.0
  0
LINE
  5
29AB
330
2670
100
AcDbEntity
  8
寸法線
 62
     0
370
    -2
100
AcDbLine
 10
1640.625
 20
4477.500000000001
 30
0.0
 11
1181.25
 21
4477.500000000001
 31
0.0
  0
LINE
  5
29AC
330
2670
100
AcDbEntity
  8
寸法線
 62
     0
370
    -2
100
AcDbLine
 10
1200.0
 20
3596.250000000001
 30
0.0
 11
1200.0
 21
4458.750000000001
 31
0.0
  0
INSERT
  5
29AD
330
2670
100
AcDbEntity
  8
寸法線
 62
     0
370
    -2
100
AcDbBlockReference
  2
_Open30
 10
1200.0
 20
3577.500000000001
 30
0.0
 41
18.75
 42
18.75
 43
18.75
 50
270.0
  0
INSERT
  5
29AE
330
2670
100
AcDbEntity
  8
寸法線
 62
     0
370
    -2
100
AcDbBlockReference
  2
_Open30
 10
1200.0
 20
4477.500000000001
 30
0.0
 41
18.75
 42
18.75
 43
18.75
 50
90.0
  0
MTEXT
  5
29AF
330
2670
100
AcDbEntity
  8
寸法線
 62
     0
100
AcDbMText
 10
1171.478512960436
 20
4027.500000000001
 30
0.0
 40
37.5
 41
0.0
 46
0.0
 71
     5
 72
     1
  1
900
 11
0.0000000000000001
 21
1.0
 31
0.0
 73
     1
 44
1.0
  0
POINT
  5
29B0
330
2670
100
AcDbEntity
  8
Defpoints
 62
     0
100
AcDbPoint
 10
1650.0
 20
3577.500000000001
 30
0.0
  0
POINT
  5
29B1
330
2670
100
AcDbEntity
  8
Defpoints
 62
     0
100
AcDbPoint
 10
1650.0
 20
4477.500000000001
 30
0.0
  0
POINT
  5
29B2
330
2670
100
AcDbEntity
  8
Defpoints
 62
     0
100
AcDbPoint
 10
1200.0
 20
4477.500000000001
 30
0.0
  0
ENDBLK
  5
2672
330
2670
100
AcDbEntity
  8
0
100
AcDbBlockEnd
  0
BLOCK
  5
268E
330
268D
100
AcDbEntity
  8
0
100
AcDbBlockBegin
  2
*D9
 70
     1
 10
0.0
 20
0.0
 30
0.0
  3
*D9
  1

  0
LINE
  5
2935
330
268D
100
AcDbEntity
  8
寸法線
 62
     0
440
 16777216
370
    -2
100
AcDbLine
 10
1800.0
 20
4340.000000000001
 30
0.0
 11
1800.0
 21
4752.500000000001
 31
0.0
  0
LINE
  5
2936
330
268D
100
AcDbEntity
  8
寸法線
 62
     0
440
 16777216
370
    -2
100
AcDbLine
 10
1650.0
 20
4490.000000000001
 30
0.0
 11
1650.0
 21
4752.500000000001
 31
0.0
  0
LINE
  5
2937
330
268D
100
AcDbEntity
  8
寸法線
 62
     0
440
 16777216
370
    -2
100
AcDbLine
 10
1775.0
 20
4727.500000000001
 30
0.0
 11
1675.0
 21
4727.500000000001
 31
0.0
  0
INSERT
  5
2938
330
268D
100
AcDbEntity
  8
寸法線
 62
     0
440
 16777216
370
    -2
100
AcDbBlockReference
  2
_Open30
 10
1800.0
 20
4727.500000000001
 30
0.0
 41
25.0
 42
25.0
 43
25.0
  0
INSERT
  5
2939
330
268D
100
AcDbEntity
  8
寸法線
 62
     0
440
 16777216
370
    -2
100
AcDbBlockReference
  2
_Open30
 10
1650.0
 20
4727.500000000001
 30
0.0
 41
25.0
 42
25.0
 43
25.0
 50
180.0
  0
MTEXT
  5
293A
330
268D
100
AcDbEntity
  8
寸法線
 62
     0
440
 16777216
100
AcDbMText
 10
1725.0
 20
4765.528649386086
 30
0.0
 40
50.0
 41
0.0
 46
0.0
 71
     5
 72
     1
  1
150
 73
     1
 44
1.0
  0
POINT
  5
293B
330
268D
100
AcDbEntity
  8
Defpoints
 62
     0
440
 16777216
100
AcDbPoint
 10
1800.0
 20
4327.500000000001
 30
0.0
  0
POINT
  5
293C
330
268D
100
AcDbEntity
  8
Defpoints
 62
     0
440
 16777216
100
AcDbPoint
 10
1650.0
 20
4477.500000000001
 30
0.0
  0
POINT
  5
293D
330
268D
100
AcDbEntity
  8
Defpoints
 62
     0
440
 16777216
100
AcDbPoint
 10
1650.0
 20
4727.500000000001
 30
0.0
  0
ENDBLK
  5
268F
330
268D
100
AcDbEntity
  8
0
100
AcDbBlockEnd
  0
BLOCK
  5
26A4
330
26A3
100
AcDbEntity
  8
0
100
AcDbBlockBegin
  2
*D10
 70
     1
 10
0.0
 20
0.0
 30
0.0
  3
*D10
  1

  0
LINE
  5
2947
330
26A3
100
AcDbEntity
  8
寸法線
 62
     0
440
 16777216
370
    -2
100
AcDbLine
 10
1800.0
 20
4340.000000000001
 30
0.0
 11
1800.0
 21
4752.500000000001
 31
0.0
  0
LINE
  5
2948
330
26A3
100
AcDbEntity
  8
寸法線
 62
     0
440
 16777216
370
    -2
100
AcDbLine
 10
2400.0
 20
4340.000000000001
 30
0.0
 11
2400.0
 21
4752.500000000001
 31
0.0
  0
LINE
  5
2949
330
26A3
100
AcDbEntity
  8
寸法線
 62
     0
440
 16777216
370
    -2
100
AcDbLine
 10
1825.0
 20
4727.500000000001
 30
0.0
 11
2375.0
 21
4727.500000000001
 31
0.0
  0
INSERT
  5
294A
330
26A3
100
AcDbEntity
  8
寸法線
 62
     0
440
 16777216
370
    -2
100
AcDbBlockReference
  2
_Open30
 10
1800.0
 20
4727.500000000001
 30
0.0
 41
25.0
 42
25.0
 43
25.0
 50
180.0
  0
INSERT
  5
294B
330
26A3
100
AcDbEntity
  8
寸法線
 62
     0
440
 16777216
370
    -2
100
AcDbBlockReference
  2
_Open30
 10
2400.0
 20
4727.500000000001
 30
0.0
 41
25.0
 42
25.0
 43
25.0
  0
MTEXT
  5
294C
330
26A3
100
AcDbEntity
  8
寸法線
 62
     0
440
 16777216
100
AcDbMText
 10
2100.0
 20
4765.528649386086
 30
0.0
 40
50.0
 41
0.0
 46
0.0
 71
     5
 72
     1
  1
600
 73
     1
 44
1.0
  0
POINT
  5
294D
330
26A3
100
AcDbEntity
  8
Defpoints
 62
     0
440
 16777216
100
AcDbPoint
 10
1800.0
 20
4327.500000000001
 30
0.0
  0
POINT
  5
294E
330
26A3
100
AcDbEntity
  8
Defpoints
 62
     0
440
 16777216
100
AcDbPoint
 10
2400.0
 20
4327.500000000001
 30
0.0
  0
POINT
  5
294F
330
26A3
100
AcDbEntity
  8
Defpoints
 62
     0
440
 16777216
100
AcDbPoint
 10
2400.0
 20
4727.500000000001
 30
0.0
  0
ENDBLK
  5
26A5
330
26A3
100
AcDbEntity
  8
0
100
AcDbBlockEnd
  0
BLOCK
  5
26BA
330
26B9
100
AcDbEntity
  8
0
100
AcDbBlockBegin
  2
*D11
 70
     1
 10
0.0
 20
0.0
 30
0.0
  3
*D11
  1

  0
LINE
  5
2959
330
26B9
100
AcDbEntity
  8
寸法線
 62
     0
440
 16777216
370
    -2
100
AcDbLine
 10
2400.0
 20
4340.000000000001
 30
0.0
 11
2400.0
 21
4752.500000000001
 31
0.0
  0
LINE
  5
295A
330
26B9
100
AcDbEntity
  8
寸法線
 62
     0
440
 16777216
370
    -2
100
AcDbLine
 10
2550.0
 20
4490.000000000001
 30
0.0
 11
2550.0
 21
4752.500000000001
 31
0.0
  0
LINE
  5
295B
330
26B9
100
AcDbEntity
  8
寸法線
 62
     0
440
 16777216
370
    -2
100
AcDbLine
 10
2425.0
 20
4727.500000000001
 30
0.0
 11
2525.0
 21
4727.500000000001
 31
0.0
  0
INSERT
  5
295C
330
26B9
100
AcDbEntity
  8
寸法線
 62
     0
440
 16777216
370
    -2
100
AcDbBlockReference
  2
_Open30
 10
2400.0
 20
4727.500000000001
 30
0.0
 41
25.0
 42
25.0
 43
25.0
 50
180.0
  0
INSERT
  5
295D
330
26B9
100
AcDbEntity
  8
寸法線
 62
     0
440
 16777216
370
    -2
100
AcDbBlockReference
  2
_Open30
 10
2550.0
 20
4727.500000000001
 30
0.0
 41
25.0
 42
25.0
 43
25.0
  0
MTEXT
  5
295E
330
26B9
100
AcDbEntity
  8
寸法線
 62
     0
440
 16777216
100
AcDbMText
 10
2475.0
 20
4765.528649386086
 30
0.0
 40
50.0
 41
0.0
 46
0.0
 71
     5
 72
     1
  1
150
 73
     1
 44
1.0
  0
POINT
  5
295F
330
26B9
100
AcDbEntity
  8
Defpoints
 62
     0
440
 16777216
100
AcDbPoint
 10
2400.0
 20
4327.500000000001
 30
0.0
  0
POINT
  5
2960
330
26B9
100
AcDbEntity
  8
Defpoints
 62
     0
440
 16777216
100
AcDbPoint
 10
2550.0
 20
4477.500000000001
 30
0.0
  0
POINT
  5
2961
330
26B9
100
AcDbEntity
  8
Defpoints
 62
     0
440
 16777216
100
AcDbPoint
 10
2550.0
 20
4727.500000000001
 30
0.0
  0
ENDBLK
  5
26BB
330
26B9
100
AcDbEntity
  8
0
100
AcDbBlockEnd
  0
BLOCK
  5
26D0
330
26CF
100
AcDbEntity
  8
0
100
AcDbBlockBegin
  2
*D12
 70
     1
 10
0.0
 20
0.0
 30
0.0
  3
*D12
  1

  0
LINE
  5
296B
330
26CF
100
AcDbEntity
  8
寸法線
 62
     0
440
 16777216
370
    -2
100
AcDbLine
 10
2550.0
 20
4490.000000000001
 30
0.0
 11
2550.0
 21
4977.500000000001
 31
0.0
  0
LINE
  5
296C
330
26CF
100
AcDbEntity
  8
寸法線
 62
     0
440
 16777216
370
    -2
100
AcDbLine
 10
1650.0
 20
4490.000000000001
 30
0.0
 11
1650.0
 21
4977.500000000001
 31
0.0
  0
LINE
  5
296D
330
26CF
100
AcDbEntity
  8
寸法線
 62
     0
440
 16777216
370
    -2
100
AcDbLine
 10
2525.0
 20
4952.500000000001
 30
0.0
 11
1675.0
 21
4952.500000000001
 31
0.0
  0
INSERT
  5
296E
330
26CF
100
AcDbEntity
  8
寸法線
 62
     0
440
 16777216
370
    -2
100
AcDbBlockReference
  2
_Open30
 10
2550.0
 20
4952.500000000001
 30
0.0
 41
25.0
 42
25.0
 43
25.0
  0
INSERT
  5
296F
330
26CF
100
AcDbEntity
  8
寸法線
 62
     0
440
 16777216
370
    -2
100
AcDbBlockReference
  2
_Open30
 10
1650.0
 20
4952.500000000001
 30
0.0
 41
25.0
 42
25.0
 43
25.0
 50
180.0
  0
MTEXT
  5
2970
330
26CF
100
AcDbEntity
  8
寸法線
 62
     0
440
 16777216
100
AcDbMText
 10
2100.0
 20
4990.528649386085
 30
0.0
 40
50.0
 41
0.0
 46
0.0
 71
     5
 72
     1
  1
900
 73
     1
 44
1.0
  0
POINT
  5
2971
330
26CF
100
AcDbEntity
  8
Defpoints
 62
     0
440
 16777216
100
AcDbPoint
 10
2550.0
 20
4477.500000000001
 30
0.0
  0
POINT
  5
2972
330
26CF
100
AcDbEntity
  8
Defpoints
 62
     0
440
 16777216
100
AcDbPoint
 10
1650.0
 20
4477.500000000001
 30
0.0
  0
POINT
  5
2973
330
26CF
100
AcDbEntity
  8
Defpoints
 62
     0
440
 16777216
100
AcDbPoint
 10
1650.0
 20
4952.500000000001
 30
0.0
  0
ENDBLK
  5
26D1
330
26CF
100
AcDbEntity
  8
0
100
AcDbBlockEnd
  0
BLOCK
  5
26E6
330
26E5
100
AcDbEntity
  8
0
100
AcDbBlockBegin
  2
*D13
 70
     1
 10
0.0
 20
0.0
 30
0.0
  3
*D13
  1

  0
LINE
  5
297D
330
26E5
100
AcDbEntity
  8
寸法線
 62
     0
440
 16777216
370
    -2
100
AcDbLine
 10
1787.5
 20
4327.500000000001
 30
0.0
 11
1375.0
 21
4327.500000000001
 31
0.0
  0
LINE
  5
297E
330
26E5
100
AcDbEntity
  8
寸法線
 62
     0
440
 16777216
370
    -2
100
AcDbLine
 10
1637.5
 20
4477.500000000001
 30
0.0
 11
1375.0
 21
4477.500000000001
 31
0.0
  0
LINE
  5
297F
330
26E5
100
AcDbEntity
  8
寸法線
 62
     0
440
 16777216
370
    -2
100
AcDbLine
 10
1400.0
 20
4352.500000000001
 30
0.0
 11
1400.0
 21
4452.500000000001
 31
0.0
  0
INSERT
  5
2980
330
26E5
100
AcDbEntity
  8
寸法線
 62
     0
440
 16777216
370
    -2
100
AcDbBlockReference
  2
_Open30
 10
1400.0
 20
4327.500000000001
 30
0.0
 41
25.0
 42
25.0
 43
25.0
 50
270.0
  0
INSERT
  5
2981
330
26E5
100
AcDbEntity
  8
寸法線
 62
     0
440
 16777216
370
    -2
100
AcDbBlockReference
  2
_Open30
 10
1400.0
 20
4477.500000000001
 30
0.0
 41
25.0
 42
25.0
 43
25.0
 50
90.0
  0
MTEXT
  5
2982
330
26E5
100
AcDbEntity
  8
寸法線
 62
     0
440
 16777216
100
AcDbMText
 10
1361.971350613915
 20
4402.500000000001
 30
0.0
 40
50.0
 41
0.0
 46
0.0
 71
     5
 72
     1
  1
150
 11
0.0000000000000001
 21
1.0
 31
0.0
 73
     1
 44
1.0
  0
POINT
  5
2983
330
26E5
100
AcDbEntity
  8
Defpoints
 62
     0
440
 16777216
100
AcDbPoint
 10
1800.0
 20
4327.500000000001
 30
0.0
  0
POINT
  5
2984
330
26E5
100
AcDbEntity
  8
Defpoints
 62
     0
440
 16777216
100
AcDbPoint
 10
1650.0
 20
4477.500000000001
 30
0.0
  0
POINT
  5
2985
330
26E5
100
AcDbEntity
  8
Defpoints
 62
     0
440
 16777216
100
AcDbPoint
 10
1400.0
 20
4477.500000000001
 30
0.0
  0
ENDBLK
  5
26E7
330
26E5
100
AcDbEntity
  8
0
100
AcDbBlockEnd
  0
BLOCK
  5
26FC
330
26FB
100
AcDbEntity
  8
0
100
AcDbBlockBegin
  2
*D14
 70
     1
 10
0.0
 20
0.0
 30
0.0
  3
*D14
  1

  0
LINE
  5
298F
330
26FB
100
AcDbEntity
  8
寸法線
 62
     0
440
 16777216
370
    -2
100
AcDbLine
 10
1787.5
 20
4327.500000000001
 30
0.0
 11
1375.0
 21
4327.500000000001
 31
0.0
  0
LINE
  5
2990
330
26FB
100
AcDbEntity
  8
寸法線
 62
     0
440
 16777216
370
    -2
100
AcDbLine
 10
1787.5
 20
3727.500000000001
 30
0.0
 11
1375.0
 21
3727.500000000001
 31
0.0
  0
LINE
  5
2991
330
26FB
100
AcDbEntity
  8
寸法線
 62
     0
440
 16777216
370
    -2
100
AcDbLine
 10
1400.0
 20
4302.500000000001
 30
0.0
 11
1400.0
 21
3752.500000000001
 31
0.0
  0
INSERT
  5
2992
330
26FB
100
AcDbEntity
  8
寸法線
 62
     0
440
 16777216
370
    -2
100
AcDbBlockReference
  2
_Open30
 10
1400.0
 20
4327.500000000001
 30
0.0
 41
25.0
 42
25.0
 43
25.0
 50
90.0
  0
INSERT
  5
2993
330
26FB
100
AcDbEntity
  8
寸法線
 62
     0
440
 16777216
370
    -2
100
AcDbBlockReference
  2
_Open30
 10
1400.0
 20
3727.500000000001
 30
0.0
 41
25.0
 42
25.0
 43
25.0
 50
270.0
  0
MTEXT
  5
2994
330
26FB
100
AcDbEntity
  8
寸法線
 62
     0
440
 16777216
100
AcDbMText
 10
1361.971350613914
 20
4027.500000000001
 30
0.0
 40
50.0
 41
0.0
 46
0.0
 71
     5
 72
     1
  1
600
 11
0.0000000000000001
 21
1.0
 31
0.0
 73
     1
 44
1.0
  0
POINT
  5
2995
330
26FB
100
AcDbEntity
  8
Defpoints
 62
     0
440
 16777216
100
AcDbPoint
 10
1800.0
 20
4327.500000000001
 30
0.0
  0
POINT
  5
2996
330
26FB
100
AcDbEntity
  8
Defpoints
 62
     0
440
 16777216
100
AcDbPoint
 10
1800.0
 20
3727.500000000001
 30
0.0
  0
POINT
  5
2997
330
26FB
100
AcDbEntity
  8
Defpoints
 62
     0
440
 16777216
100
AcDbPoint
 10
1400.0
 20
3727.500000000001
 30
0.0
  0
ENDBLK
  5
26FD
330
26FB
100
AcDbEntity
  8
0
100
AcDbBlockEnd
  0
BLOCK
  5
2712
330
2711
100
AcDbEntity
  8
0
100
AcDbBlockBegin
  2
*D15
 70
     1
 10
0.0
 20
0.0
 30
0.0
  3
*D15
  1

  0
LINE
  5
29A1
330
2711
100
AcDbEntity
  8
寸法線
 62
     0
440
 16777216
370
    -2
100
AcDbLine
 10
1787.5
 20
3727.500000000001
 30
0.0
 11
1375.0
 21
3727.500000000001
 31
0.0
  0
LINE
  5
29A2
330
2711
100
AcDbEntity
  8
寸法線
 62
     0
440
 16777216
370
    -2
100
AcDbLine
 10
1637.5
 20
3577.500000000001
 30
0.0
 11
1375.0
 21
3577.500000000001
 31
0.0
  0
LINE
  5
29A3
330
2711
100
AcDbEntity
  8
寸法線
 62
     0
440
 16777216
370
    -2
100
AcDbLine
 10
1400.0
 20
3702.500000000001
 30
0.0
 11
1400.0
 21
3602.500000000001
 31
0.0
  0
INSERT
  5
29A4
330
2711
100
AcDbEntity
  8
寸法線
 62
     0
440
 16777216
370
    -2
100
AcDbBlockReference
  2
_Open30
 10
1400.0
 20
3727.500000000001
 30
0.0
 41
25.0
 42
25.0
 43
25.0
 50
90.0
  0
INSERT
  5
29A5
330
2711
100
AcDbEntity
  8
寸法線
 62
     0
440
 16777216
370
    -2
100
AcDbBlockReference
  2
_Open30
 10
1400.0
 20
3577.500000000001
 30
0.0
 41
25.0
 42
25.0
 43
25.0
 50
270.0
  0
MTEXT
  5
29A6
330
2711
100
AcDbEntity
  8
寸法線
 62
     0
440
 16777216
100
AcDbMText
 10
1361.971350613915
 20
3652.500000000002
 30
0.0
 40
50.0
 41
0.0
 46
0.0
 71
     5
 72
     1
  1
150
 11
0.0000000000000001
 21
1.0
 31
0.0
 73
     1
 44
1.0
  0
POINT
  5
29A7
330
2711
100
AcDbEntity
  8
Defpoints
 62
     0
440
 16777216
100
AcDbPoint
 10
1800.0
 20
3727.500000000001
 30
0.0
  0
POINT
  5
29A8
330
2711
100
AcDbEntity
  8
Defpoints
 62
     0
440
 16777216
100
AcDbPoint
 10
1650.0
 20
3577.500000000001
 30
0.0
  0
POINT
  5
29A9
330
2711
100
AcDbEntity
  8
Defpoints
 62
     0
440
 16777216
100
AcDbPoint
 10
1400.0
 20
3577.500000000001
 30
0.0
  0
ENDBLK
  5
2713
330
2711
100
AcDbEntity
  8
0
100
AcDbBlockEnd
  0
BLOCK
  5
2728
330
2727
100
AcDbEntity
  8
0
100
AcDbBlockBegin
  2
*D16
 70
     1
 10
0.0
 20
0.0
 30
0.0
  3
*D16
  1

  0
LINE
  5
29B3
330
2727
100
AcDbEntity
  8
寸法線
 62
     0
440
 16777216
370
    -2
100
AcDbLine
 10
1637.5
 20
3577.500000000001
 30
0.0
 11
1125.0
 21
3577.500000000001
 31
0.0
  0
LINE
  5
29B4
330
2727
100
AcDbEntity
  8
寸法線
 62
     0
440
 16777216
370
    -2
100
AcDbLine
 10
1637.5
 20
4477.500000000001
 30
0.0
 11
1125.0
 21
4477.500000000001
 31
0.0
  0
LINE
  5
29B5
330
2727
100
AcDbEntity
  8
寸法線
 62
     0
440
 16777216
370
    -2
100
AcDbLine
 10
1150.0
 20
3602.500000000001
 30
0.0
 11
1150.0
 21
4452.500000000001
 31
0.0
  0
INSERT
  5
29B6
330
2727
100
AcDbEntity
  8
寸法線
 62
     0
440
 16777216
370
    -2
100
AcDbBlockReference
  2
_Open30
 10
1150.0
 20
3577.500000000001
 30
0.0
 41
25.0
 42
25.0
 43
25.0
 50
270.0
  0
INSERT
  5
29B7
330
2727
100
AcDbEntity
  8
寸法線
 62
     0
440
 16777216
370
    -2
100
AcDbBlockReference
  2
_Open30
 10
1150.0
 20
4477.500000000001
 30
0.0
 41
25.0
 42
25.0
 43
25.0
 50
90.0
  0
MTEXT
  5
29B8
330
2727
100
AcDbEntity
  8
寸法線
 62
     0
440
 16777216
100
AcDbMText
 10
1111.971350613915
 20
4027.500000000001
 30
0.0
 40
50.0
 41
0.0
 46
0.0
 71
     5
 72
     1
  1
900
 11
0.0000000000000001
 21
1.0
 31
0.0
 73
     1
 44
1.0
  0
POINT
  5
29B9
330
2727
100
AcDbEntity
  8
Defpoints
 62
     0
440
 16777216
100
AcDbPoint
 10
1650.0
 20
3577.500000000001
 30
0.0
  0
POINT
  5
29BA
330
2727
100
AcDbEntity
  8
Defpoints
 62
     0
440
 16777216
100
AcDbPoint
 10
1650.0
 20
4477.500000000001
 30
0.0
  0
POINT
  5
29BB
330
2727
100
AcDbEntity
  8
Defpoints
 62
     0
440
 16777216
100
AcDbPoint
 10
1150.0
 20
4477.500000000001
 30
0.0
  0
ENDBLK
  5
2729
330
2727
100
AcDbEntity
  8
0
100
AcDbBlockEnd
  0
BLOCK
  5
28EA
330
28E9
100
AcDbEntity
  8
0
100
AcDbBlockBegin
  2
*D17
 70
     1
 10
0.0
 20
0.0
 30
0.0
  3
*D17
  1

  0
LINE
  5
29BC
330
28E9
100
AcDbEntity
  8
寸法線
 62
     0
440
 16777216
370
    -2
100
AcDbLine
 10
1800.0
 20
1697.499999999999
 30
0.0
 11
1800.0
 21
1435.0
 31
0.0
  0
LINE
  5
29BD
330
28E9
100
AcDbEntity
  8
寸法線
 62
     0
440
 16777216
370
    -2
100
AcDbLine
 10
1650.0
 20
1697.499999999999
 30
0.0
 11
1650.0
 21
1435.0
 31
0.0
  0
LINE
  5
29BE
330
28E9
100
AcDbEntity
  8
寸法線
 62
     0
440
 16777216
370
    -2
100
AcDbLine
 10
1775.0
 20
1460.0
 30
0.0
 11
1675.0
 21
1460.0
 31
0.0
  0
INSERT
  5
29BF
330
28E9
100
AcDbEntity
  8
寸法線
 62
     0
440
 16777216
370
    -2
100
AcDbBlockReference
  2
_Open30
 10
1800.0
 20
1460.0
 30
0.0
 41
25.0
 42
25.0
 43
25.0
  0
INSERT
  5
29C0
330
28E9
100
AcDbEntity
  8
寸法線
 62
     0
440
 16777216
370
    -2
100
AcDbBlockReference
  2
_Open30
 10
1650.0
 20
1460.0
 30
0.0
 41
25.0
 42
25.0
 43
25.0
 50
180.0
  0
MTEXT
  5
29C1
330
28E9
100
AcDbEntity
  8
寸法線
 62
     0
440
 16777216
100
AcDbMText
 10
1725.0
 20
1498.028649386084
 30
0.0
 40
50.0
 41
0.0
 46
0.0
 71
     5
 72
     1
  1
150
 73
     1
 44
1.0
  0
POINT
  5
29C2
330
28E9
100
AcDbEntity
  8
Defpoints
 62
     0
440
 16777216
100
AcDbPoint
 10
1800.0
 20
1709.999999999999
 30
0.0
  0
POINT
  5
29C3
330
28E9
100
AcDbEntity
  8
Defpoints
 62
     0
440
 16777216
100
AcDbPoint
 10
1650.0
 20
1709.999999999999
 30
0.0
  0
POINT
  5
29C4
330
28E9
100
AcDbEntity
  8
Defpoints
 62
     0
440
 16777216
100
AcDbPoint
 10
1650.0
 20
1460.0
 30
0.0
  0
ENDBLK
  5
28EB
330
28E9
100
AcDbEntity
  8
0
100
AcDbBlockEnd
  0
BLOCK
  5
28FC
330
28FB
100
AcDbEntity
  8
0
100
AcDbBlockBegin
  2
*D18
 70
     1
 10
0.0
 20
0.0
 30
0.0
  3
*D18
  1

  0
LINE
  5
29C5
330
28FB
100
AcDbEntity
  8
寸法線
 62
     0
440
 16777216
370
    -2
100
AcDbLine
 10
1800.0
 20
1697.499999999999
 30
0.0
 11
1800.0
 21
1435.0
 31
0.0
  0
LINE
  5
29C6
330
28FB
100
AcDbEntity
  8
寸法線
 62
     0
440
 16777216
370
    -2
100
AcDbLine
 10
2400.0
 20
1697.499999999999
 30
0.0
 11
2400.0
 21
1435.0
 31
0.0
  0
LINE
  5
29C7
330
28FB
100
AcDbEntity
  8
寸法線
 62
     0
440
 16777216
370
    -2
100
AcDbLine
 10
1825.0
 20
1460.0
 30
0.0
 11
2375.0
 21
1460.0
 31
0.0
  0
INSERT
  5
29C8
330
28FB
100
AcDbEntity
  8
寸法線
 62
     0
440
 16777216
370
    -2
100
AcDbBlockReference
  2
_Open30
 10
1800.0
 20
1460.0
 30
0.0
 41
25.0
 42
25.0
 43
25.0
 50
180.0
  0
INSERT
  5
29C9
330
28FB
100
AcDbEntity
  8
寸法線
 62
     0
440
 16777216
370
    -2
100
AcDbBlockReference
  2
_Open30
 10
2400.0
 20
1460.0
 30
0.0
 41
25.0
 42
25.0
 43
25.0
  0
MTEXT
  5
29CA
330
28FB
100
AcDbEntity
  8
寸法線
 62
     0
440
 16777216
100
AcDbMText
 10
2100.0
 20
1498.028649386084
 30
0.0
 40
50.0
 41
0.0
 46
0.0
 71
     5
 72
     1
  1
600
 73
     1
 44
1.0
  0
POINT
  5
29CB
330
28FB
100
AcDbEntity
  8
Defpoints
 62
     0
440
 16777216
100
AcDbPoint
 10
1800.0
 20
1709.999999999999
 30
0.0
  0
POINT
  5
29CC
330
28FB
100
AcDbEntity
  8
Defpoints
 62
     0
440
 16777216
100
AcDbPoint
 10
2400.0
 20
1710.0
 30
0.0
  0
POINT
  5
29CD
330
28FB
100
AcDbEntity
  8
Defpoints
 62
     0
440
 16777216
100
AcDbPoint
 10
2400.0
 20
1460.0
 30
0.0
  0
ENDBLK
  5
28FD
330
28FB
100
AcDbEntity
  8
0
100
AcDbBlockEnd
  0
BLOCK
  5
290E
330
290D
100
AcDbEntity
  8
0
100
AcDbBlockBegin
  2
*D19
 70
     1
 10
0.0
 20
0.0
 30
0.0
  3
*D19
  1

  0
LINE
  5
29CE
330
290D
100
AcDbEntity
  8
寸法線
 62
     0
440
 16777216
370
    -2
100
AcDbLine
 10
2400.0
 20
1697.499999999999
 30
0.0
 11
2400.0
 21
1435.0
 31
0.0
  0
LINE
  5
29CF
330
290D
100
AcDbEntity
  8
寸法線
 62
     0
440
 16777216
370
    -2
100
AcDbLine
 10
2550.0
 20
1697.499999999999
 30
0.0
 11
2550.0
 21
1435.0
 31
0.0
  0
LINE
  5
29D0
330
290D
100
AcDbEntity
  8
寸法線
 62
     0
440
 16777216
370
    -2
100
AcDbLine
 10
2425.0
 20
1460.0
 30
0.0
 11
2525.0
 21
1460.0
 31
0.0
  0
INSERT
  5
29D1
330
290D
100
AcDbEntity
  8
寸法線
 62
     0
440
 16777216
370
    -2
100
AcDbBlockReference
  2
_Open30
 10
2400.0
 20
1460.0
 30
0.0
 41
25.0
 42
25.0
 43
25.0
 50
180.0
  0
INSERT
  5
29D2
330
290D
100
AcDbEntity
  8
寸法線
 62
     0
440
 16777216
370
    -2
100
AcDbBlockReference
  2
_Open30
 10
2550.0
 20
1460.0
 30
0.0
 41
25.0
 42
25.0
 43
25.0
  0
MTEXT
  5
29D3
330
290D
100
AcDbEntity
  8
寸法線
 62
     0
440
 16777216
100
AcDbMText
 10
2475.0
 20
1498.028649386084
 30
0.0
 40
50.0
 41
0.0
 46
0.0
 71
     5
 72
     1
  1
150
 73
     1
 44
1.0
  0
POINT
  5
29D4
330
290D
100
AcDbEntity
  8
Defpoints
 62
     0
440
 16777216
100
AcDbPoint
 10
2400.0
 20
1710.0
 30
0.0
  0
POINT
  5
29D5
330
290D
100
AcDbEntity
  8
Defpoints
 62
     0
440
 16777216
100
AcDbPoint
 10
2550.0
 20
1710.0
 30
0.0
  0
POINT
  5
29D6
330
290D
100
AcDbEntity
  8
Defpoints
 62
     0
440
 16777216
100
AcDbPoint
 10
2550.0
 20
1460.0
 30
0.0
  0
ENDBLK
  5
290F
330
290D
100
AcDbEntity
  8
0
100
AcDbBlockEnd
  0
BLOCK
  5
2920
330
291F
100
AcDbEntity
  8
0
100
AcDbBlockBegin
  2
*D20
 70
     1
 10
0.0
 20
0.0
 30
0.0
  3
*D20
  1

  0
LINE
  5
29D7
330
291F
100
AcDbEntity
  8
寸法線
 62
     0
440
 16777216
370
    -2
100
AcDbLine
 10
1637.5
 20
1709.999999999999
 30
0.0
 11
1124.999999999999
 21
1710.0
 31
0.0
  0
LINE
  5
29D8
330
291F
100
AcDbEntity
  8
寸法線
 62
     0
440
 16777216
370
    -2
100
AcDbLine
 10
1637.5
 20
2559.999999999999
 30
0.0
 11
1124.999999999999
 21
2559.999999999999
 31
0.0
  0
LINE
  5
29D9
330
291F
100
AcDbEntity
  8
寸法線
 62
     0
440
 16777216
370
    -2
100
AcDbLine
 10
1149.999999999999
 20
1735.0
 30
0.0
 11
1149.999999999999
 21
2534.999999999999
 31
0.0
  0
INSERT
  5
29DA
330
291F
100
AcDbEntity
  8
寸法線
 62
     0
440
 16777216
370
    -2
100
AcDbBlockReference
  2
_Open30
 10
1149.999999999999
 20
1710.0
 30
0.0
 41
25.0
 42
25.0
 43
25.0
 50
270.0
  0
INSERT
  5
29DB
330
291F
100
AcDbEntity
  8
寸法線
 62
     0
440
 16777216
370
    -2
100
AcDbBlockReference
  2
_Open30
 10
1149.999999999999
 20
2559.999999999999
 30
0.0
 41
25.0
 42
25.0
 43
25.0
 50
90.0
  0
MTEXT
  5
29DC
330
291F
100
AcDbEntity
  8
寸法線
 62
     0
440
 16777216
100
AcDbMText
 10
1111.971350613914
 20
2135.0
 30
0.0
 40
50.0
 41
0.0
 46
0.0
 71
     5
 72
     1
  1
850
 11
0.0000000000000001
 21
1.0
 31
0.0
 73
     1
 44
1.0
  0
POINT
  5
29DD
330
291F
100
AcDbEntity
  8
Defpoints
 62
     0
440
 16777216
100
AcDbPoint
 10
1650.0
 20
1709.999999999999
 30
0.0
  0
POINT
  5
29DE
330
291F
100
AcDbEntity
  8
Defpoints
 62
     0
440
 16777216
100
AcDbPoint
 10
1650.0
 20
2559.999999999999
 30
0.0
  0
POINT
  5
29DF
330
291F
100
AcDbEntity
  8
Defpoints
 62
     0
440
 16777216
100
AcDbPoint
 10
1149.999999999999
 20
2559.999999999999
 30
0.0
  0
ENDBLK
  5
2921
330
291F
100
AcDbEntity
  8
0
100
AcDbBlockEnd
  0
BLOCK
  5
2A82
330
2A81
100
AcDbEntity
  8
0
100
AcDbBlockBegin
  2
*D21
 70
     1
 10
0.0
 20
0.0
 30
0.0
  3
*D21
  1

  0
LINE
  5
2A84
330
2A81
100
AcDbEntity
  8
寸法線
 62
     0
440
 16777216
370
    -2
100
AcDbLine
 10
1800.0
 20
1657.499999999999
 30
0.0
 11
1800.0
 21
1395.0
 31
0.0
  0
LINE
  5
2A85
330
2A81
100
AcDbEntity
  8
寸法線
 62
     0
440
 16777216
370
    -2
100
AcDbLine
 10
1650.0
 20
1657.499999999999
 30
0.0
 11
1650.0
 21
1395.0
 31
0.0
  0
LINE
  5
2A86
330
2A81
100
AcDbEntity
  8
寸法線
 62
     0
440
 16777216
370
    -2
100
AcDbLine
 10
1775.0
 20
1420.0
 30
0.0
 11
1675.0
 21
1420.0
 31
0.0
  0
INSERT
  5
2A87
330
2A81
100
AcDbEntity
  8
寸法線
 62
     0
440
 16777216
370
    -2
100
AcDbBlockReference
  2
_Open30
 10
1800.0
 20
1420.0
 30
0.0
 41
25.0
 42
25.0
 43
25.0
  0
INSERT
  5
2A88
330
2A81
100
AcDbEntity
  8
寸法線
 62
     0
440
 16777216
370
    -2
100
AcDbBlockReference
  2
_Open30
 10
1650.0
 20
1420.0
 30
0.0
 41
25.0
 42
25.0
 43
25.0
 50
180.0
  0
MTEXT
  5
2A89
330
2A81
100
AcDbEntity
  8
寸法線
 62
     0
440
 16777216
100
AcDbMText
 10
1725.0
 20
1458.028649386085
 30
0.0
 40
50.0
 41
0.0
 46
0.0
 71
     5
 72
     1
  1
150
 73
     1
 44
1.0
  0
POINT
  5
2A8A
330
2A81
100
AcDbEntity
  8
Defpoints
 62
     0
440
 16777216
100
AcDbPoint
 10
1800.0
 20
1669.999999999999
 30
0.0
  0
POINT
  5
2A8B
330
2A81
100
AcDbEntity
  8
Defpoints
 62
     0
440
 16777216
100
AcDbPoint
 10
1650.0
 20
1669.999999999999
 30
0.0
  0
POINT
  5
2A8C
330
2A81
100
AcDbEntity
  8
Defpoints
 62
     0
440
 16777216
100
AcDbPoint
 10
1650.0
 20
1420.0
 30
0.0
  0
ENDBLK
  5
2A83
330
2A81
100
AcDbEntity
  8
0
100
AcDbBlockEnd
  0
BLOCK
  5
2A8E
330
2A8D
100
AcDbEntity
  8
0
100
AcDbBlockBegin
  2
*D22
 70
     1
 10
0.0
 20
0.0
 30
0.0
  3
*D22
  1

  0
LINE
  5
2A90
330
2A8D
100
AcDbEntity
  8
寸法線
 62
     0
440
 16777216
370
    -2
100
AcDbLine
 10
1800.0
 20
1657.499999999999
 30
0.0
 11
1800.0
 21
1395.0
 31
0.0
  0
LINE
  5
2A91
330
2A8D
100
AcDbEntity
  8
寸法線
 62
     0
440
 16777216
370
    -2
100
AcDbLine
 10
2400.0
 20
1657.5
 30
0.0
 11
2400.0
 21
1395.0
 31
0.0
  0
LINE
  5
2A92
330
2A8D
100
AcDbEntity
  8
寸法線
 62
     0
440
 16777216
370
    -2
100
AcDbLine
 10
1825.0
 20
1420.0
 30
0.0
 11
2375.0
 21
1420.0
 31
0.0
  0
INSERT
  5
2A93
330
2A8D
100
AcDbEntity
  8
寸法線
 62
     0
440
 16777216
370
    -2
100
AcDbBlockReference
  2
_Open30
 10
1800.0
 20
1420.0
 30
0.0
 41
25.0
 42
25.0
 43
25.0
 50
180.0
  0
INSERT
  5
2A94
330
2A8D
100
AcDbEntity
  8
寸法線
 62
     0
440
 16777216
370
    -2
100
AcDbBlockReference
  2
_Open30
 10
2400.0
 20
1420.0
 30
0.0
 41
25.0
 42
25.0
 43
25.0
  0
MTEXT
  5
2A95
330
2A8D
100
AcDbEntity
  8
寸法線
 62
     0
440
 16777216
100
AcDbMText
 10
2100.0
 20
1458.028649386085
 30
0.0
 40
50.0
 41
0.0
 46
0.0
 71
     5
 72
     1
  1
600
 73
     1
 44
1.0
  0
POINT
  5
2A96
330
2A8D
100
AcDbEntity
  8
Defpoints
 62
     0
440
 16777216
100
AcDbPoint
 10
1800.0
 20
1669.999999999999
 30
0.0
  0
POINT
  5
2A97
330
2A8D
100
AcDbEntity
  8
Defpoints
 62
     0
440
 16777216
100
AcDbPoint
 10
2400.0
 20
1670.0
 30
0.0
  0
POINT
  5
2A98
330
2A8D
100
AcDbEntity
  8
Defpoints
 62
     0
440
 16777216
100
AcDbPoint
 10
2400.0
 20
1420.0
 30
0.0
  0
ENDBLK
  5
2A8F
330
2A8D
100
AcDbEntity
  8
0
100
AcDbBlockEnd
  0
BLOCK
  5
2A9A
330
2A99
100
AcDbEntity
  8
0
100
AcDbBlockBegin
  2
*D23
 70
     1
 10
0.0
 20
0.0
 30
0.0
  3
*D23
  1

  0
LINE
  5
2A9C
330
2A99
100
AcDbEntity
  8
寸法線
 62
     0
440
 16777216
370
    -2
100
AcDbLine
 10
2400.0
 20
1657.5
 30
0.0
 11
2400.0
 21
1395.0
 31
0.0
  0
LINE
  5
2A9D
330
2A99
100
AcDbEntity
  8
寸法線
 62
     0
440
 16777216
370
    -2
100
AcDbLine
 10
2550.0
 20
1657.5
 30
0.0
 11
2550.0
 21
1395.0
 31
0.0
  0
LINE
  5
2A9E
330
2A99
100
AcDbEntity
  8
寸法線
 62
     0
440
 16777216
370
    -2
100
AcDbLine
 10
2425.0
 20
1420.0
 30
0.0
 11
2525.0
 21
1420.0
 31
0.0
  0
INSERT
  5
2A9F
330
2A99
100
AcDbEntity
  8
寸法線
 62
     0
440
 16777216
370
    -2
100
AcDbBlockReference
  2
_Open30
 10
2400.0
 20
1420.0
 30
0.0
 41
25.0
 42
25.0
 43
25.0
 50
180.0
  0
INSERT
  5
2AA0
330
2A99
100
AcDbEntity
  8
寸法線
 62
     0
440
 16777216
370
    -2
100
AcDbBlockReference
  2
_Open30
 10
2550.0
 20
1420.0
 30
0.0
 41
25.0
 42
25.0
 43
25.0
  0
MTEXT
  5
2AA1
330
2A99
100
AcDbEntity
  8
寸法線
 62
     0
440
 16777216
100
AcDbMText
 10
2475.0
 20
1458.028649386085
 30
0.0
 40
50.0
 41
0.0
 46
0.0
 71
     5
 72
     1
  1
150
 73
     1
 44
1.0
  0
POINT
  5
2AA2
330
2A99
100
AcDbEntity
  8
Defpoints
 62
     0
440
 16777216
100
AcDbPoint
 10
2400.0
 20
1670.0
 30
0.0
  0
POINT
  5
2AA3
330
2A99
100
AcDbEntity
  8
Defpoints
 62
     0
440
 16777216
100
AcDbPoint
 10
2550.0
 20
1670.0
 30
0.0
  0
POINT
  5
2AA4
330
2A99
100
AcDbEntity
  8
Defpoints
 62
     0
440
 16777216
100
AcDbPoint
 10
2550.0
 20
1420.0
 30
0.0
  0
ENDBLK
  5
2A9B
330
2A99
100
AcDbEntity
  8
0
100
AcDbBlockEnd
  0
BLOCK
  5
2AA6
330
2AA5
100
AcDbEntity
  8
0
100
AcDbBlockBegin
  2
*D24
 70
     1
 10
0.0
 20
0.0
 30
0.0
  3
*D24
  1

  0
LINE
  5
2AB2
330
2AA5
100
AcDbEntity
  8
寸法線
 62
     0
440
 16777216
370
    -2
100
AcDbLine
 10
1637.5
 20
1669.999999999999
 30
0.0
 11
1124.999999999998
 21
1669.999999999999
 31
0.0
  0
LINE
  5
2AB3
330
2AA5
100
AcDbEntity
  8
寸法線
 62
     0
440
 16777216
370
    -2
100
AcDbLine
 10
1637.5
 20
2669.999999999999
 30
0.0
 11
1124.999999999998
 21
2669.999999999999
 31
0.0
  0
LINE
  5
2AB4
330
2AA5
100
AcDbEntity
  8
寸法線
 62
     0
440
 16777216
370
    -2
100
AcDbLine
 10
1149.999999999998
 20
1694.999999999999
 30
0.0
 11
1149.999999999998
 21
2645.0
 31
0.0
  0
INSERT
  5
2AB5
330
2AA5
100
AcDbEntity
  8
寸法線
 62
     0
440
 16777216
370
    -2
100
AcDbBlockReference
  2
_Open30
 10
1149.999999999998
 20
1669.999999999999
 30
0.0
 41
25.0
 42
25.0
 43
25.0
 50
270.0
  0
INSERT
  5
2AB6
330
2AA5
100
AcDbEntity
  8
寸法線
 62
     0
440
 16777216
370
    -2
100
AcDbBlockReference
  2
_Open30
 10
1149.999999999998
 20
2669.999999999999
 30
0.0
 41
25.0
 42
25.0
 43
25.0
 50
90.0
  0
MTEXT
  5
2AB7
330
2AA5
100
AcDbEntity
  8
寸法線
 62
     0
440
 16777216
100
AcDbMText
 10
1111.971350613913
 20
2169.999999999999
 30
0.0
 40
50.0
 41
0.0
 46
0.0
 71
     5
 72
     1
  1
1000
 11
0.0000000000000001
 21
1.0
 31
0.0
 73
     1
 44
1.0
  0
POINT
  5
2AB8
330
2AA5
100
AcDbEntity
  8
Defpoints
 62
     0
440
 16777216
100
AcDbPoint
 10
1650.0
 20
1669.999999999999
 30
0.0
  0
POINT
  5
2AB9
330
2AA5
100
AcDbEntity
  8
Defpoints
 62
     0
440
 16777216
100
AcDbPoint
 10
1649.999999999999
 20
2669.999999999999
 30
0.0
  0
POINT
  5
2ABA
330
2AA5
100
AcDbEntity
  8
Defpoints
 62
     0
440
 16777216
100
AcDbPoint
 10
1149.999999999998
 20
2669.999999999999
 30
0.0
  0
ENDBLK
  5
2AA7
330
2AA5
100
AcDbEntity
  8
0
100
AcDbBlockEnd
  0
BLOCK
  5
2ABC
330
2ABB
100
AcDbEntity
  8
0
100
AcDbBlockBegin
  2
*D25
 70
     1
 10
0.0
 20
0.0
 30
0.0
  3
*D25
  1

  0
LINE
  5
2ABE
330
2ABB
100
AcDbEntity
  8
寸法線
 62
     0
370
    -2
100
AcDbLine
 10
1800.0
 20
4324.374999999998
 30
0.0
 11
1800.0
 21
4708.75
 31
0.0
  0
LINE
  5
2ABF
330
2ABB
100
AcDbEntity
  8
寸法線
 62
     0
370
    -2
100
AcDbLine
 10
1650.0
 20
4474.375
 30
0.0
 11
1650.0
 21
4708.75
 31
0.0
  0
LINE
  5
2AC0
330
2ABB
100
AcDbEntity
  8
寸法線
 62
     0
370
    -2
100
AcDbLine
 10
1781.25
 20
4690.0
 30
0.0
 11
1668.75
 21
4690.0
 31
0.0
  0
INSERT
  5
2AC1
330
2ABB
100
AcDbEntity
  8
寸法線
 62
     0
370
    -2
100
AcDbBlockReference
  2
_Open30
 10
1800.0
 20
4690.0
 30
0.0
 41
18.75
 42
18.75
 43
18.75
  0
INSERT
  5
2AC2
330
2ABB
100
AcDbEntity
  8
寸法線
 62
     0
370
    -2
100
AcDbBlockReference
  2
_Open30
 10
1650.0
 20
4690.0
 30
0.0
 41
18.75
 42
18.75
 43
18.75
 50
180.0
  0
MTEXT
  5
2AC3
330
2ABB
100
AcDbEntity
  8
寸法線
 62
     0
100
AcDbMText
 10
1725.0
 20
4718.521487039563
 30
0.0
 40
37.5
 41
0.0
 46
0.0
 71
     5
 72
     1
  1
150
 73
     1
 44
1.0
  0
POINT
  5
2AC4
330
2ABB
100
AcDbEntity
  8
Defpoints
 62
     0
100
AcDbPoint
 10
1800.0
 20
4315.0
 30
0.0
  0
POINT
  5
2AC5
330
2ABB
100
AcDbEntity
  8
Defpoints
 62
     0
100
AcDbPoint
 10
1650.0
 20
4465.0
 30
0.0
  0
POINT
  5
2AC6
330
2ABB
100
AcDbEntity
  8
Defpoints
 62
     0
100
AcDbPoint
 10
1650.0
 20
4690.0
 30
0.0
  0
ENDBLK
  5
2ABD
330
2ABB
100
AcDbEntity
  8
0
100
AcDbBlockEnd
  0
BLOCK
  5
2AC8
330
2AC7
100
AcDbEntity
  8
0
100
AcDbBlockBegin
  2
*D26
 70
     1
 10
0.0
 20
0.0
 30
0.0
  3
*D26
  1

  0
LINE
  5
2ACA
330
2AC7
100
AcDbEntity
  8
寸法線
 62
     0
440
 16777216
370
    -2
100
AcDbLine
 10
1800.0
 20
4327.499999999999
 30
0.0
 11
1800.0
 21
4740.0
 31
0.0
  0
LINE
  5
2ACB
330
2AC7
100
AcDbEntity
  8
寸法線
 62
     0
440
 16777216
370
    -2
100
AcDbLine
 10
1650.0
 20
4477.5
 30
0.0
 11
1650.0
 21
4740.0
 31
0.0
  0
LINE
  5
2ACC
330
2AC7
100
AcDbEntity
  8
寸法線
 62
     0
440
 16777216
370
    -2
100
AcDbLine
 10
1775.0
 20
4715.0
 30
0.0
 11
1675.0
 21
4715.0
 31
0.0
  0
INSERT
  5
2ACD
330
2AC7
100
AcDbEntity
  8
寸法線
 62
     0
440
 16777216
370
    -2
100
AcDbBlockReference
  2
_Open30
 10
1800.0
 20
4715.0
 30
0.0
 41
25.0
 42
25.0
 43
25.0
  0
INSERT
  5
2ACE
330
2AC7
100
AcDbEntity
  8
寸法線
 62
     0
440
 16777216
370
    -2
100
AcDbBlockReference
  2
_Open30
 10
1650.0
 20
4715.0
 30
0.0
 41
25.0
 42
25.0
 43
25.0
 50
180.0
  0
MTEXT
  5
2ACF
330
2AC7
100
AcDbEntity
  8
寸法線
 62
     0
440
 16777216
100
AcDbMText
 10
1725.0
 20
4753.028649386084
 30
0.0
 40
50.0
 41
0.0
 46
0.0
 71
     5
 72
     1
  1
150
 73
     1
 44
1.0
  0
POINT
  5
2AD0
330
2AC7
100
AcDbEntity
  8
Defpoints
 62
     0
440
 16777216
100
AcDbPoint
 10
1800.0
 20
4315.0
 30
0.0
  0
POINT
  5
2AD1
330
2AC7
100
AcDbEntity
  8
Defpoints
 62
     0
440
 16777216
100
AcDbPoint
 10
1650.0
 20
4465.0
 30
0.0
  0
POINT
  5
2AD2
330
2AC7
100
AcDbEntity
  8
Defpoints
 62
     0
440
 16777216
100
AcDbPoint
 10
1650.0
 20
4715.0
 30
0.0
  0
ENDBLK
  5
2AC9
330
2AC7
100
AcDbEntity
  8
0
100
AcDbBlockEnd
  0
BLOCK
  5
2AD4
330
2AD3
100
AcDbEntity
  8
0
100
AcDbBlockBegin
  2
*D27
 70
     1
 10
0.0
 20
0.0
 30
0.0
  3
*D27
  1

  0
LINE
  5
2AD6
330
2AD3
100
AcDbEntity
  8
寸法線
 62
     0
370
    -2
100
AcDbLine
 10
1800.0
 20
4324.374999999998
 30
0.0
 11
1800.0
 21
4708.75
 31
0.0
  0
LINE
  5
2AD7
330
2AD3
100
AcDbEntity
  8
寸法線
 62
     0
370
    -2
100
AcDbLine
 10
2400.0
 20
4324.374999999998
 30
0.0
 11
2400.0
 21
4708.75
 31
0.0
  0
LINE
  5
2AD8
330
2AD3
100
AcDbEntity
  8
寸法線
 62
     0
370
    -2
100
AcDbLine
 10
1818.75
 20
4690.0
 30
0.0
 11
2381.25
 21
4690.0
 31
0.0
  0
INSERT
  5
2AD9
330
2AD3
100
AcDbEntity
  8
寸法線
 62
     0
370
    -2
100
AcDbBlockReference
  2
_Open30
 10
1800.0
 20
4690.0
 30
0.0
 41
18.75
 42
18.75
 43
18.75
 50
180.0
  0
INSERT
  5
2ADA
330
2AD3
100
AcDbEntity
  8
寸法線
 62
     0
370
    -2
100
AcDbBlockReference
  2
_Open30
 10
2400.0
 20
4690.0
 30
0.0
 41
18.75
 42
18.75
 43
18.75
  0
MTEXT
  5
2ADB
330
2AD3
100
AcDbEntity
  8
寸法線
 62
     0
100
AcDbMText
 10
2100.0
 20
4718.521487039563
 30
0.0
 40
37.5
 41
0.0
 46
0.0
 71
     5
 72
     1
  1
600
 73
     1
 44
1.0
  0
POINT
  5
2ADC
330
2AD3
100
AcDbEntity
  8
Defpoints
 62
     0
100
AcDbPoint
 10
1800.0
 20
4315.0
 30
0.0
  0
POINT
  5
2ADD
330
2AD3
100
AcDbEntity
  8
Defpoints
 62
     0
100
AcDbPoint
 10
2400.0
 20
4315.0
 30
0.0
  0
POINT
  5
2ADE
330
2AD3
100
AcDbEntity
  8
Defpoints
 62
     0
100
AcDbPoint
 10
2400.0
 20
4690.0
 30
0.0
  0
ENDBLK
  5
2AD5
330
2AD3
100
AcDbEntity
  8
0
100
AcDbBlockEnd
  0
BLOCK
  5
2AE0
330
2ADF
100
AcDbEntity
  8
0
100
AcDbBlockBegin
  2
*D28
 70
     1
 10
0.0
 20
0.0
 30
0.0
  3
*D28
  1

  0
LINE
  5
2AE2
330
2ADF
100
AcDbEntity
  8
寸法線
 62
     0
440
 16777216
370
    -2
100
AcDbLine
 10
1800.0
 20
4327.499999999999
 30
0.0
 11
1800.0
 21
4740.0
 31
0.0
  0
LINE
  5
2AE3
330
2ADF
100
AcDbEntity
  8
寸法線
 62
     0
440
 16777216
370
    -2
100
AcDbLine
 10
2400.0
 20
4327.499999999999
 30
0.0
 11
2400.0
 21
4740.0
 31
0.0
  0
LINE
  5
2AE4
330
2ADF
100
AcDbEntity
  8
寸法線
 62
     0
440
 16777216
370
    -2
100
AcDbLine
 10
1825.0
 20
4715.0
 30
0.0
 11
2375.0
 21
4715.0
 31
0.0
  0
INSERT
  5
2AE5
330
2ADF
100
AcDbEntity
  8
寸法線
 62
     0
440
 16777216
370
    -2
100
AcDbBlockReference
  2
_Open30
 10
1800.0
 20
4715.0
 30
0.0
 41
25.0
 42
25.0
 43
25.0
 50
180.0
  0
INSERT
  5
2AE6
330
2ADF
100
AcDbEntity
  8
寸法線
 62
     0
440
 16777216
370
    -2
100
AcDbBlockReference
  2
_Open30
 10
2400.0
 20
4715.0
 30
0.0
 41
25.0
 42
25.0
 43
25.0
  0
MTEXT
  5
2AE7
330
2ADF
100
AcDbEntity
  8
寸法線
 62
     0
440
 16777216
100
AcDbMText
 10
2100.0
 20
4753.028649386084
 30
0.0
 40
50.0
 41
0.0
 46
0.0
 71
     5
 72
     1
  1
600
 73
     1
 44
1.0
  0
POINT
  5
2AE8
330
2ADF
100
AcDbEntity
  8
Defpoints
 62
     0
440
 16777216
100
AcDbPoint
 10
1800.0
 20
4315.0
 30
0.0
  0
POINT
  5
2AE9
330
2ADF
100
AcDbEntity
  8
Defpoints
 62
     0
440
 16777216
100
AcDbPoint
 10
2400.0
 20
4315.0
 30
0.0
  0
POINT
  5
2AEA
330
2ADF
100
AcDbEntity
  8
Defpoints
 62
     0
440
 16777216
100
AcDbPoint
 10
2400.0
 20
4715.0
 30
0.0
  0
ENDBLK
  5
2AE1
330
2ADF
100
AcDbEntity
  8
0
100
AcDbBlockEnd
  0
BLOCK
  5
2AEC
330
2AEB
100
AcDbEntity
  8
0
100
AcDbBlockBegin
  2
*D29
 70
     1
 10
0.0
 20
0.0
 30
0.0
  3
*D29
  1

  0
LINE
  5
2AEE
330
2AEB
100
AcDbEntity
  8
寸法線
 62
     0
370
    -2
100
AcDbLine
 10
2400.0
 20
4324.374999999998
 30
0.0
 11
2400.0
 21
4708.75
 31
0.0
  0
LINE
  5
2AEF
330
2AEB
100
AcDbEntity
  8
寸法線
 62
     0
370
    -2
100
AcDbLine
 10
2550.0
 20
4474.375
 30
0.0
 11
2550.0
 21
4708.75
 31
0.0
  0
LINE
  5
2AF0
330
2AEB
100
AcDbEntity
  8
寸法線
 62
     0
370
    -2
100
AcDbLine
 10
2418.75
 20
4690.0
 30
0.0
 11
2531.25
 21
4690.0
 31
0.0
  0
INSERT
  5
2AF1
330
2AEB
100
AcDbEntity
  8
寸法線
 62
     0
370
    -2
100
AcDbBlockReference
  2
_Open30
 10
2400.0
 20
4690.0
 30
0.0
 41
18.75
 42
18.75
 43
18.75
 50
180.0
  0
INSERT
  5
2AF2
330
2AEB
100
AcDbEntity
  8
寸法線
 62
     0
370
    -2
100
AcDbBlockReference
  2
_Open30
 10
2550.0
 20
4690.0
 30
0.0
 41
18.75
 42
18.75
 43
18.75
  0
MTEXT
  5
2AF3
330
2AEB
100
AcDbEntity
  8
寸法線
 62
     0
100
AcDbMText
 10
2475.0
 20
4718.521487039563
 30
0.0
 40
37.5
 41
0.0
 46
0.0
 71
     5
 72
     1
  1
150
 73
     1
 44
1.0
  0
POINT
  5
2AF4
330
2AEB
100
AcDbEntity
  8
Defpoints
 62
     0
100
AcDbPoint
 10
2400.0
 20
4315.0
 30
0.0
  0
POINT
  5
2AF5
330
2AEB
100
AcDbEntity
  8
Defpoints
 62
     0
100
AcDbPoint
 10
2550.0
 20
4465.0
 30
0.0
  0
POINT
  5
2AF6
330
2AEB
100
AcDbEntity
  8
Defpoints
 62
     0
100
AcDbPoint
 10
2550.0
 20
4690.0
 30
0.0
  0
ENDBLK
  5
2AED
330
2AEB
100
AcDbEntity
  8
0
100
AcDbBlockEnd
  0
BLOCK
  5
2AF8
330
2AF7
100
AcDbEntity
  8
0
100
AcDbBlockBegin
  2
*D30
 70
     1
 10
0.0
 20
0.0
 30
0.0
  3
*D30
  1

  0
LINE
  5
2AFA
330
2AF7
100
AcDbEntity
  8
寸法線
 62
     0
440
 16777216
370
    -2
100
AcDbLine
 10
2400.0
 20
4327.499999999999
 30
0.0
 11
2400.0
 21
4740.0
 31
0.0
  0
LINE
  5
2AFB
330
2AF7
100
AcDbEntity
  8
寸法線
 62
     0
440
 16777216
370
    -2
100
AcDbLine
 10
2550.0
 20
4477.5
 30
0.0
 11
2550.0
 21
4740.0
 31
0.0
  0
LINE
  5
2AFC
330
2AF7
100
AcDbEntity
  8
寸法線
 62
     0
440
 16777216
370
    -2
100
AcDbLine
 10
2425.0
 20
4715.0
 30
0.0
 11
2525.0
 21
4715.0
 31
0.0
  0
INSERT
  5
2AFD
330
2AF7
100
AcDbEntity
  8
寸法線
 62
     0
440
 16777216
370
    -2
100
AcDbBlockReference
  2
_Open30
 10
2400.0
 20
4715.0
 30
0.0
 41
25.0
 42
25.0
 43
25.0
 50
180.0
  0
INSERT
  5
2AFE
330
2AF7
100
AcDbEntity
  8
寸法線
 62
     0
440
 16777216
370
    -2
100
AcDbBlockReference
  2
_Open30
 10
2550.0
 20
4715.0
 30
0.0
 41
25.0
 42
25.0
 43
25.0
  0
MTEXT
  5
2AFF
330
2AF7
100
AcDbEntity
  8
寸法線
 62
     0
440
 16777216
100
AcDbMText
 10
2475.0
 20
4753.028649386084
 30
0.0
 40
50.0
 41
0.0
 46
0.0
 71
     5
 72
     1
  1
150
 73
     1
 44
1.0
  0
POINT
  5
2B00
330
2AF7
100
AcDbEntity
  8
Defpoints
 62
     0
440
 16777216
100
AcDbPoint
 10
2400.0
 20
4315.0
 30
0.0
  0
POINT
  5
2B01
330
2AF7
100
AcDbEntity
  8
Defpoints
 62
     0
440
 16777216
100
AcDbPoint
 10
2550.0
 20
4465.0
 30
0.0
  0
POINT
  5
2B02
330
2AF7
100
AcDbEntity
  8
Defpoints
 62
     0
440
 16777216
100
AcDbPoint
 10
2550.0
 20
4715.0
 30
0.0
  0
ENDBLK
  5
2AF9
330
2AF7
100
AcDbEntity
  8
0
100
AcDbBlockEnd
  0
BLOCK
  5
2B04
330
2B03
100
AcDbEntity
  8
0
100
AcDbBlockBegin
  2
*D31
 70
     1
 10
0.0
 20
0.0
 30
0.0
  3
*D31
  1

  0
LINE
  5
2B06
330
2B03
100
AcDbEntity
  8
寸法線
 62
     0
370
    -2
100
AcDbLine
 10
2550.0
 20
4474.375
 30
0.0
 11
2550.0
 21
4933.749999999999
 31
0.0
  0
LINE
  5
2B07
330
2B03
100
AcDbEntity
  8
寸法線
 62
     0
370
    -2
100
AcDbLine
 10
1650.0
 20
4474.375
 30
0.0
 11
1650.0
 21
4933.749999999999
 31
0.0
  0
LINE
  5
2B08
330
2B03
100
AcDbEntity
  8
寸法線
 62
     0
370
    -2
100
AcDbLine
 10
2531.25
 20
4915.0
 30
0.0
 11
1668.75
 21
4915.0
 31
0.0
  0
INSERT
  5
2B09
330
2B03
100
AcDbEntity
  8
寸法線
 62
     0
370
    -2
100
AcDbBlockReference
  2
_Open30
 10
2550.0
 20
4915.0
 30
0.0
 41
18.75
 42
18.75
 43
18.75
  0
INSERT
  5
2B0A
330
2B03
100
AcDbEntity
  8
寸法線
 62
     0
370
    -2
100
AcDbBlockReference
  2
_Open30
 10
1650.0
 20
4915.0
 30
0.0
 41
18.75
 42
18.75
 43
18.75
 50
180.0
  0
MTEXT
  5
2B0B
330
2B03
100
AcDbEntity
  8
寸法線
 62
     0
100
AcDbMText
 10
2100.0
 20
4943.521487039563
 30
0.0
 40
37.5
 41
0.0
 46
0.0
 71
     5
 72
     1
  1
900
 73
     1
 44
1.0
  0
POINT
  5
2B0C
330
2B03
100
AcDbEntity
  8
Defpoints
 62
     0
100
AcDbPoint
 10
2550.0
 20
4465.0
 30
0.0
  0
POINT
  5
2B0D
330
2B03
100
AcDbEntity
  8
Defpoints
 62
     0
100
AcDbPoint
 10
1650.0
 20
4465.0
 30
0.0
  0
POINT
  5
2B0E
330
2B03
100
AcDbEntity
  8
Defpoints
 62
     0
100
AcDbPoint
 10
1650.0
 20
4915.0
 30
0.0
  0
ENDBLK
  5
2B05
330
2B03
100
AcDbEntity
  8
0
100
AcDbBlockEnd
  0
BLOCK
  5
2B10
330
2B0F
100
AcDbEntity
  8
0
100
AcDbBlockBegin
  2
*D32
 70
     1
 10
0.0
 20
0.0
 30
0.0
  3
*D32
  1

  0
LINE
  5
2B12
330
2B0F
100
AcDbEntity
  8
寸法線
 62
     0
440
 16777216
370
    -2
100
AcDbLine
 10
2550.0
 20
4477.5
 30
0.0
 11
2550.0
 21
4965.0
 31
0.0
  0
LINE
  5
2B13
330
2B0F
100
AcDbEntity
  8
寸法線
 62
     0
440
 16777216
370
    -2
100
AcDbLine
 10
1650.0
 20
4477.5
 30
0.0
 11
1650.0
 21
4965.0
 31
0.0
  0
LINE
  5
2B14
330
2B0F
100
AcDbEntity
  8
寸法線
 62
     0
440
 16777216
370
    -2
100
AcDbLine
 10
2525.0
 20
4940.0
 30
0.0
 11
1675.0
 21
4940.0
 31
0.0
  0
INSERT
  5
2B15
330
2B0F
100
AcDbEntity
  8
寸法線
 62
     0
440
 16777216
370
    -2
100
AcDbBlockReference
  2
_Open30
 10
2550.0
 20
4940.0
 30
0.0
 41
25.0
 42
25.0
 43
25.0
  0
INSERT
  5
2B16
330
2B0F
100
AcDbEntity
  8
寸法線
 62
     0
440
 16777216
370
    -2
100
AcDbBlockReference
  2
_Open30
 10
1650.0
 20
4940.0
 30
0.0
 41
25.0
 42
25.0
 43
25.0
 50
180.0
  0
MTEXT
  5
2B17
330
2B0F
100
AcDbEntity
  8
寸法線
 62
     0
440
 16777216
100
AcDbMText
 10
2100.0
 20
4978.028649386085
 30
0.0
 40
50.0
 41
0.0
 46
0.0
 71
     5
 72
     1
  1
900
 73
     1
 44
1.0
  0
POINT
  5
2B18
330
2B0F
100
AcDbEntity
  8
Defpoints
 62
     0
440
 16777216
100
AcDbPoint
 10
2550.0
 20
4465.0
 30
0.0
  0
POINT
  5
2B19
330
2B0F
100
AcDbEntity
  8
Defpoints
 62
     0
440
 16777216
100
AcDbPoint
 10
1650.0
 20
4465.0
 30
0.0
  0
POINT
  5
2B1A
330
2B0F
100
AcDbEntity
  8
Defpoints
 62
     0
440
 16777216
100
AcDbPoint
 10
1650.0
 20
4940.0
 30
0.0
  0
ENDBLK
  5
2B11
330
2B0F
100
AcDbEntity
  8
0
100
AcDbBlockEnd
  0
BLOCK
  5
2B1C
330
2B1B
100
AcDbEntity
  8
0
100
AcDbBlockBegin
  2
*D33
 70
     1
 10
0.0
 20
0.0
 30
0.0
  3
*D33
  1

  0
LINE
  5
2B1E
330
2B1B
100
AcDbEntity
  8
寸法線
 62
     0
370
    -2
100
AcDbLine
 10
1790.625
 20
4315.0
 30
0.0
 11
1406.25
 21
4315.0
 31
0.0
  0
LINE
  5
2B1F
330
2B1B
100
AcDbEntity
  8
寸法線
 62
     0
370
    -2
100
AcDbLine
 10
1640.625
 20
4465.0
 30
0.0
 11
1406.25
 21
4465.0
 31
0.0
  0
LINE
  5
2B20
330
2B1B
100
AcDbEntity
  8
寸法線
 62
     0
370
    -2
100
AcDbLine
 10
1425.0
 20
4333.75
 30
0.0
 11
1425.0
 21
4446.25
 31
0.0
  0
INSERT
  5
2B21
330
2B1B
100
AcDbEntity
  8
寸法線
 62
     0
370
    -2
100
AcDbBlockReference
  2
_Open30
 10
1425.0
 20
4315.0
 30
0.0
 41
18.75
 42
18.75
 43
18.75
 50
270.0
  0
INSERT
  5
2B22
330
2B1B
100
AcDbEntity
  8
寸法線
 62
     0
370
    -2
100
AcDbBlockReference
  2
_Open30
 10
1425.0
 20
4465.0
 30
0.0
 41
18.75
 42
18.75
 43
18.75
 50
90.0
  0
MTEXT
  5
2B23
330
2B1B
100
AcDbEntity
  8
寸法線
 62
     0
100
AcDbMText
 10
1396.478512960436
 20
4390.0
 30
0.0
 40
37.5
 41
0.0
 46
0.0
 71
     5
 72
     1
  1
150
 11
0.0000000000000001
 21
1.0
 31
0.0
 73
     1
 44
1.0
  0
POINT
  5
2B24
330
2B1B
100
AcDbEntity
  8
Defpoints
 62
     0
100
AcDbPoint
 10
1800.0
 20
4315.0
 30
0.0
  0
POINT
  5
2B25
330
2B1B
100
AcDbEntity
  8
Defpoints
 62
     0
100
AcDbPoint
 10
1650.0
 20
4465.0
 30
0.0
  0
POINT
  5
2B26
330
2B1B
100
AcDbEntity
  8
Defpoints
 62
     0
100
AcDbPoint
 10
1425.0
 20
4465.0
 30
0.0
  0
ENDBLK
  5
2B1D
330
2B1B
100
AcDbEntity
  8
0
100
AcDbBlockEnd
  0
BLOCK
  5
2B28
330
2B27
100
AcDbEntity
  8
0
100
AcDbBlockBegin
  2
*D34
 70
     1
 10
0.0
 20
0.0
 30
0.0
  3
*D34
  1

  0
LINE
  5
2B2A
330
2B27
100
AcDbEntity
  8
寸法線
 62
     0
440
 16777216
370
    -2
100
AcDbLine
 10
1787.5
 20
4315.0
 30
0.0
 11
1375.0
 21
4315.0
 31
0.0
  0
LINE
  5
2B2B
330
2B27
100
AcDbEntity
  8
寸法線
 62
     0
440
 16777216
370
    -2
100
AcDbLine
 10
1637.5
 20
4465.0
 30
0.0
 11
1375.0
 21
4465.0
 31
0.0
  0
LINE
  5
2B2C
330
2B27
100
AcDbEntity
  8
寸法線
 62
     0
440
 16777216
370
    -2
100
AcDbLine
 10
1400.0
 20
4340.0
 30
0.0
 11
1400.0
 21
4440.0
 31
0.0
  0
INSERT
  5
2B2D
330
2B27
100
AcDbEntity
  8
寸法線
 62
     0
440
 16777216
370
    -2
100
AcDbBlockReference
  2
_Open30
 10
1400.0
 20
4315.0
 30
0.0
 41
25.0
 42
25.0
 43
25.0
 50
270.0
  0
INSERT
  5
2B2E
330
2B27
100
AcDbEntity
  8
寸法線
 62
     0
440
 16777216
370
    -2
100
AcDbBlockReference
  2
_Open30
 10
1400.0
 20
4465.0
 30
0.0
 41
25.0
 42
25.0
 43
25.0
 50
90.0
  0
MTEXT
  5
2B2F
330
2B27
100
AcDbEntity
  8
寸法線
 62
     0
440
 16777216
100
AcDbMText
 10
1361.971350613915
 20
4390.0
 30
0.0
 40
50.0
 41
0.0
 46
0.0
 71
     5
 72
     1
  1
150
 11
0.0000000000000001
 21
1.0
 31
0.0
 73
     1
 44
1.0
  0
POINT
  5
2B30
330
2B27
100
AcDbEntity
  8
Defpoints
 62
     0
440
 16777216
100
AcDbPoint
 10
1800.0
 20
4315.0
 30
0.0
  0
POINT
  5
2B31
330
2B27
100
AcDbEntity
  8
Defpoints
 62
     0
440
 16777216
100
AcDbPoint
 10
1650.0
 20
4465.0
 30
0.0
  0
POINT
  5
2B32
330
2B27
100
AcDbEntity
  8
Defpoints
 62
     0
440
 16777216
100
AcDbPoint
 10
1400.0
 20
4465.0
 30
0.0
  0
ENDBLK
  5
2B29
330
2B27
100
AcDbEntity
  8
0
100
AcDbBlockEnd
  0
BLOCK
  5
2B34
330
2B33
100
AcDbEntity
  8
0
100
AcDbBlockBegin
  2
*D35
 70
     1
 10
0.0
 20
0.0
 30
0.0
  3
*D35
  1

  0
LINE
  5
2B36
330
2B33
100
AcDbEntity
  8
寸法線
 62
     0
370
    -2
100
AcDbLine
 10
1790.625
 20
4315.0
 30
0.0
 11
1406.25
 21
4315.0
 31
0.0
  0
LINE
  5
2B37
330
2B33
100
AcDbEntity
  8
寸法線
 62
     0
370
    -2
100
AcDbLine
 10
1790.625
 20
3715.000000000002
 30
0.0
 11
1406.25
 21
3715.000000000002
 31
0.0
  0
LINE
  5
2B38
330
2B33
100
AcDbEntity
  8
寸法線
 62
     0
370
    -2
100
AcDbLine
 10
1425.0
 20
4296.249999999999
 30
0.0
 11
1425.0
 21
3733.750000000001
 31
0.0
  0
INSERT
  5
2B39
330
2B33
100
AcDbEntity
  8
寸法線
 62
     0
370
    -2
100
AcDbBlockReference
  2
_Open30
 10
1425.0
 20
4315.0
 30
0.0
 41
18.75
 42
18.75
 43
18.75
 50
90.0
  0
INSERT
  5
2B3A
330
2B33
100
AcDbEntity
  8
寸法線
 62
     0
370
    -2
100
AcDbBlockReference
  2
_Open30
 10
1425.0
 20
3715.000000000002
 30
0.0
 41
18.75
 42
18.75
 43
18.75
 50
270.0
  0
MTEXT
  5
2B3B
330
2B33
100
AcDbEntity
  8
寸法線
 62
     0
100
AcDbMText
 10
1396.478512960436
 20
4015.0
 30
0.0
 40
37.5
 41
0.0
 46
0.0
 71
     5
 72
     1
  1
600
 11
0.0000000000000001
 21
1.0
 31
0.0
 73
     1
 44
1.0
  0
POINT
  5
2B3C
330
2B33
100
AcDbEntity
  8
Defpoints
 62
     0
100
AcDbPoint
 10
1800.0
 20
4315.0
 30
0.0
  0
POINT
  5
2B3D
330
2B33
100
AcDbEntity
  8
Defpoints
 62
     0
100
AcDbPoint
 10
1800.0
 20
3715.000000000002
 30
0.0
  0
POINT
  5
2B3E
330
2B33
100
AcDbEntity
  8
Defpoints
 62
     0
100
AcDbPoint
 10
1425.0
 20
3715.000000000002
 30
0.0
  0
ENDBLK
  5
2B35
330
2B33
100
AcDbEntity
  8
0
100
AcDbBlockEnd
  0
BLOCK
  5
2B40
330
2B3F
100
AcDbEntity
  8
0
100
AcDbBlockBegin
  2
*D36
 70
     1
 10
0.0
 20
0.0
 30
0.0
  3
*D36
  1

  0
LINE
  5
2B42
330
2B3F
100
AcDbEntity
  8
寸法線
 62
     0
440
 16777216
370
    -2
100
AcDbLine
 10
1787.5
 20
4315.0
 30
0.0
 11
1375.0
 21
4315.0
 31
0.0
  0
LINE
  5
2B43
330
2B3F
100
AcDbEntity
  8
寸法線
 62
     0
440
 16777216
370
    -2
100
AcDbLine
 10
1787.5
 20
3715.000000000002
 30
0.0
 11
1375.0
 21
3715.000000000002
 31
0.0
  0
LINE
  5
2B44
330
2B3F
100
AcDbEntity
  8
寸法線
 62
     0
440
 16777216
370
    -2
100
AcDbLine
 10
1400.0
 20
4290.0
 30
0.0
 11
1400.0
 21
3740.000000000001
 31
0.0
  0
INSERT
  5
2B45
330
2B3F
100
AcDbEntity
  8
寸法線
 62
     0
440
 16777216
370
    -2
100
AcDbBlockReference
  2
_Open30
 10
1400.0
 20
4315.0
 30
0.0
 41
25.0
 42
25.0
 43
25.0
 50
90.0
  0
INSERT
  5
2B46
330
2B3F
100
AcDbEntity
  8
寸法線
 62
     0
440
 16777216
370
    -2
100
AcDbBlockReference
  2
_Open30
 10
1400.0
 20
3715.000000000002
 30
0.0
 41
25.0
 42
25.0
 43
25.0
 50
270.0
  0
MTEXT
  5
2B47
330
2B3F
100
AcDbEntity
  8
寸法線
 62
     0
440
 16777216
100
AcDbMText
 10
1361.971350613915
 20
4015.0
 30
0.0
 40
50.0
 41
0.0
 46
0.0
 71
     5
 72
     1
  1
600
 11
0.0000000000000001
 21
1.0
 31
0.0
 73
     1
 44
1.0
  0
POINT
  5
2B48
330
2B3F
100
AcDbEntity
  8
Defpoints
 62
     0
440
 16777216
100
AcDbPoint
 10
1800.0
 20
4315.0
 30
0.0
  0
POINT
  5
2B49
330
2B3F
100
AcDbEntity
  8
Defpoints
 62
     0
440
 16777216
100
AcDbPoint
 10
1800.0
 20
3715.000000000002
 30
0.0
  0
POINT
  5
2B4A
330
2B3F
100
AcDbEntity
  8
Defpoints
 62
     0
440
 16777216
100
AcDbPoint
 10
1400.0
 20
3715.000000000002
 30
0.0
  0
ENDBLK
  5
2B41
330
2B3F
100
AcDbEntity
  8
0
100
AcDbBlockEnd
  0
BLOCK
  5
2B4C
330
2B4B
100
AcDbEntity
  8
0
100
AcDbBlockBegin
  2
*D37
 70
     1
 10
0.0
 20
0.0
 30
0.0
  3
*D37
  1

  0
LINE
  5
2B4E
330
2B4B
100
AcDbEntity
  8
寸法線
 62
     0
370
    -2
100
AcDbLine
 10
1790.625
 20
3715.000000000002
 30
0.0
 11
1406.25
 21
3715.000000000002
 31
0.0
  0
LINE
  5
2B4F
330
2B4B
100
AcDbEntity
  8
寸法線
 62
     0
370
    -2
100
AcDbLine
 10
1640.625
 20
3565.000000000001
 30
0.0
 11
1406.25
 21
3565.000000000001
 31
0.0
  0
LINE
  5
2B50
330
2B4B
100
AcDbEntity
  8
寸法線
 62
     0
370
    -2
100
AcDbLine
 10
1425.0
 20
3696.250000000001
 30
0.0
 11
1425.0
 21
3583.750000000001
 31
0.0
  0
INSERT
  5
2B51
330
2B4B
100
AcDbEntity
  8
寸法線
 62
     0
370
    -2
100
AcDbBlockReference
  2
_Open30
 10
1425.0
 20
3715.000000000002
 30
0.0
 41
18.75
 42
18.75
 43
18.75
 50
90.0
  0
INSERT
  5
2B52
330
2B4B
100
AcDbEntity
  8
寸法線
 62
     0
370
    -2
100
AcDbBlockReference
  2
_Open30
 10
1425.0
 20
3565.000000000001
 30
0.0
 41
18.75
 42
18.75
 43
18.75
 50
270.0
  0
MTEXT
  5
2B53
330
2B4B
100
AcDbEntity
  8
寸法線
 62
     0
100
AcDbMText
 10
1396.478512960436
 20
3640.000000000001
 30
0.0
 40
37.5
 41
0.0
 46
0.0
 71
     5
 72
     1
  1
150
 11
0.0000000000000001
 21
1.0
 31
0.0
 73
     1
 44
1.0
  0
POINT
  5
2B54
330
2B4B
100
AcDbEntity
  8
Defpoints
 62
     0
100
AcDbPoint
 10
1800.0
 20
3715.000000000002
 30
0.0
  0
POINT
  5
2B55
330
2B4B
100
AcDbEntity
  8
Defpoints
 62
     0
100
AcDbPoint
 10
1650.0
 20
3565.000000000001
 30
0.0
  0
POINT
  5
2B56
330
2B4B
100
AcDbEntity
  8
Defpoints
 62
     0
100
AcDbPoint
 10
1425.0
 20
3565.000000000001
 30
0.0
  0
ENDBLK
  5
2B4D
330
2B4B
100
AcDbEntity
  8
0
100
AcDbBlockEnd
  0
BLOCK
  5
2B58
330
2B57
100
AcDbEntity
  8
0
100
AcDbBlockBegin
  2
*D38
 70
     1
 10
0.0
 20
0.0
 30
0.0
  3
*D38
  1

  0
LINE
  5
2B5A
330
2B57
100
AcDbEntity
  8
寸法線
 62
     0
440
 16777216
370
    -2
100
AcDbLine
 10
1787.5
 20
3715.000000000002
 30
0.0
 11
1375.0
 21
3715.000000000002
 31
0.0
  0
LINE
  5
2B5B
330
2B57
100
AcDbEntity
  8
寸法線
 62
     0
440
 16777216
370
    -2
100
AcDbLine
 10
1637.5
 20
3565.000000000001
 30
0.0
 11
1375.0
 21
3565.000000000001
 31
0.0
  0
LINE
  5
2B5C
330
2B57
100
AcDbEntity
  8
寸法線
 62
     0
440
 16777216
370
    -2
100
AcDbLine
 10
1400.0
 20
3690.000000000001
 30
0.0
 11
1400.0
 21
3590.000000000002
 31
0.0
  0
INSERT
  5
2B5D
330
2B57
100
AcDbEntity
  8
寸法線
 62
     0
440
 16777216
370
    -2
100
AcDbBlockReference
  2
_Open30
 10
1400.0
 20
3715.000000000002
 30
0.0
 41
25.0
 42
25.0
 43
25.0
 50
90.0
  0
INSERT
  5
2B5E
330
2B57
100
AcDbEntity
  8
寸法線
 62
     0
440
 16777216
370
    -2
100
AcDbBlockReference
  2
_Open30
 10
1400.0
 20
3565.000000000001
 30
0.0
 41
25.0
 42
25.0
 43
25.0
 50
270.0
  0
MTEXT
  5
2B5F
330
2B57
100
AcDbEntity
  8
寸法線
 62
     0
440
 16777216
100
AcDbMText
 10
1361.971350613915
 20
3640.000000000001
 30
0.0
 40
50.0
 41
0.0
 46
0.0
 71
     5
 72
     1
  1
150
 11
0.0000000000000001
 21
1.0
 31
0.0
 73
     1
 44
1.0
  0
POINT
  5
2B60
330
2B57
100
AcDbEntity
  8
Defpoints
 62
     0
440
 16777216
100
AcDbPoint
 10
1800.0
 20
3715.000000000002
 30
0.0
  0
POINT
  5
2B61
330
2B57
100
AcDbEntity
  8
Defpoints
 62
     0
440
 16777216
100
AcDbPoint
 10
1650.0
 20
3565.000000000001
 30
0.0
  0
POINT
  5
2B62
330
2B57
100
AcDbEntity
  8
Defpoints
 62
     0
440
 16777216
100
AcDbPoint
 10
1400.0
 20
3565.000000000001
 30
0.0
  0
ENDBLK
  5
2B59
330
2B57
100
AcDbEntity
  8
0
100
AcDbBlockEnd
  0
BLOCK
  5
2B64
330
2B63
100
AcDbEntity
  8
0
100
AcDbBlockBegin
  2
*D39
 70
     1
 10
0.0
 20
0.0
 30
0.0
  3
*D39
  1

  0
LINE
  5
2B66
330
2B63
100
AcDbEntity
  8
寸法線
 62
     0
370
    -2
100
AcDbLine
 10
1640.625
 20
3565.000000000001
 30
0.0
 11
1181.25
 21
3565.000000000001
 31
0.0
  0
LINE
  5
2B67
330
2B63
100
AcDbEntity
  8
寸法線
 62
     0
370
    -2
100
AcDbLine
 10
1640.625
 20
4465.0
 30
0.0
 11
1181.25
 21
4465.0
 31
0.0
  0
LINE
  5
2B68
330
2B63
100
AcDbEntity
  8
寸法線
 62
     0
370
    -2
100
AcDbLine
 10
1200.0
 20
3583.750000000001
 30
0.0
 11
1200.0
 21
4446.25
 31
0.0
  0
INSERT
  5
2B69
330
2B63
100
AcDbEntity
  8
寸法線
 62
     0
370
    -2
100
AcDbBlockReference
  2
_Open30
 10
1200.0
 20
3565.000000000001
 30
0.0
 41
18.75
 42
18.75
 43
18.75
 50
270.0
  0
INSERT
  5
2B6A
330
2B63
100
AcDbEntity
  8
寸法線
 62
     0
370
    -2
100
AcDbBlockReference
  2
_Open30
 10
1200.0
 20
4465.0
 30
0.0
 41
18.75
 42
18.75
 43
18.75
 50
90.0
  0
MTEXT
  5
2B6B
330
2B63
100
AcDbEntity
  8
寸法線
 62
     0
100
AcDbMText
 10
1171.478512960436
 20
4015.0
 30
0.0
 40
37.5
 41
0.0
 46
0.0
 71
     5
 72
     1
  1
900
 11
0.0000000000000001
 21
1.0
 31
0.0
 73
     1
 44
1.0
  0
POINT
  5
2B6C
330
2B63
100
AcDbEntity
  8
Defpoints
 62
     0
100
AcDbPoint
 10
1650.0
 20
3565.000000000001
 30
0.0
  0
POINT
  5
2B6D
330
2B63
100
AcDbEntity
  8
Defpoints
 62
     0
100
AcDbPoint
 10
1650.0
 20
4465.0
 30
0.0
  0
POINT
  5
2B6E
330
2B63
100
AcDbEntity
  8
Defpoints
 62
     0
100
AcDbPoint
 10
1200.0
 20
4465.0
 30
0.0
  0
ENDBLK
  5
2B65
330
2B63
100
AcDbEntity
  8
0
100
AcDbBlockEnd
  0
BLOCK
  5
2B70
330
2B6F
100
AcDbEntity
  8
0
100
AcDbBlockBegin
  2
*D40
 70
     1
 10
0.0
 20
0.0
 30
0.0
  3
*D40
  1

  0
LINE
  5
2B72
330
2B6F
100
AcDbEntity
  8
寸法線
 62
     0
440
 16777216
370
    -2
100
AcDbLine
 10
1637.5
 20
3565.000000000001
 30
0.0
 11
1125.0
 21
3565.000000000001
 31
0.0
  0
LINE
  5
2B73
330
2B6F
100
AcDbEntity
  8
寸法線
 62
     0
440
 16777216
370
    -2
100
AcDbLine
 10
1637.5
 20
4465.0
 30
0.0
 11
1125.0
 21
4465.0
 31
0.0
  0
LINE
  5
2B74
330
2B6F
100
AcDbEntity
  8
寸法線
 62
     0
440
 16777216
370
    -2
100
AcDbLine
 10
1150.0
 20
3590.000000000002
 30
0.0
 11
1150.0
 21
4440.0
 31
0.0
  0
INSERT
  5
2B75
330
2B6F
100
AcDbEntity
  8
寸法線
 62
     0
440
 16777216
370
    -2
100
AcDbBlockReference
  2
_Open30
 10
1150.0
 20
3565.000000000001
 30
0.0
 41
25.0
 42
25.0
 43
25.0
 50
270.0
  0
INSERT
  5
2B76
330
2B6F
100
AcDbEntity
  8
寸法線
 62
     0
440
 16777216
370
    -2
100
AcDbBlockReference
  2
_Open30
 10
1150.0
 20
4465.0
 30
0.0
 41
25.0
 42
25.0
 43
25.0
 50
90.0
  0
MTEXT
  5
2B77
330
2B6F
100
AcDbEntity
  8
寸法線
 62
     0
440
 16777216
100
AcDbMText
 10
1111.971350613915
 20
4015.0
 30
0.0
 40
50.0
 41
0.0
 46
0.0
 71
     5
 72
     1
  1
900
 11
0.0000000000000001
 21
1.0
 31
0.0
 73
     1
 44
1.0
  0
POINT
  5
2B78
330
2B6F
100
AcDbEntity
  8
Defpoints
 62
     0
440
 16777216
100
AcDbPoint
 10
1650.0
 20
3565.000000000001
 30
0.0
  0
POINT
  5
2B79
330
2B6F
100
AcDbEntity
  8
Defpoints
 62
     0
440
 16777216
100
AcDbPoint
 10
1650.0
 20
4465.0
 30
0.0
  0
POINT
  5
2B7A
330
2B6F
100
AcDbEntity
  8
Defpoints
 62
     0
440
 16777216
100
AcDbPoint
 10
1150.0
 20
4465.0
 30
0.0
  0
ENDBLK
  5
2B71
330
2B6F
100
AcDbEntity
  8
0
100
AcDbBlockEnd
  0
BLOCK
  5
2BBC
330
2BBB
100
AcDbEntity
  8
0
100
AcDbBlockBegin
  2
*D41
 70
     1
 10
0.0
 20
0.0
 30
0.0
  3
*D41
  1

  0
LINE
  5
2D45
330
2BBB
100
AcDbEntity
  8
寸法線
 62
     0
370
    -2
100
AcDbLine
 10
2350.0
 20
4274.375
 30
0.0
 11
2350.0
 21
4658.75
 31
0.0
  0
LINE
  5
2D46
330
2BBB
100
AcDbEntity
  8
寸法線
 62
     0
370
    -2
100
AcDbLine
 10
2500.0
 20
4424.375
 30
0.0
 11
2500.0
 21
4658.75
 31
0.0
  0
LINE
  5
2D47
330
2BBB
100
AcDbEntity
  8
寸法線
 62
     0
370
    -2
100
AcDbLine
 10
2368.75
 20
4640.0
 30
0.0
 11
2481.25
 21
4640.0
 31
0.0
  0
INSERT
  5
2D48
330
2BBB
100
AcDbEntity
  8
寸法線
 62
     0
370
    -2
100
AcDbBlockReference
  2
_Open30
 10
2350.0
 20
4640.0
 30
0.0
 41
18.75
 42
18.75
 43
18.75
 50
180.0
  0
INSERT
  5
2D49
330
2BBB
100
AcDbEntity
  8
寸法線
 62
     0
370
    -2
100
AcDbBlockReference
  2
_Open30
 10
2500.0
 20
4640.0
 30
0.0
 41
18.75
 42
18.75
 43
18.75
  0
MTEXT
  5
2D4A
330
2BBB
100
AcDbEntity
  8
寸法線
 62
     0
100
AcDbMText
 10
2425.0
 20
4668.521487039563
 30
0.0
 40
37.5
 41
0.0
 46
0.0
 71
     5
 72
     1
  1
150
 73
     1
 44
1.0
  0
POINT
  5
2D4B
330
2BBB
100
AcDbEntity
  8
Defpoints
 62
     0
100
AcDbPoint
 10
2350.0
 20
4265.0
 30
0.0
  0
POINT
  5
2D4C
330
2BBB
100
AcDbEntity
  8
Defpoints
 62
     0
100
AcDbPoint
 10
2500.0
 20
4415.0
 30
0.0
  0
POINT
  5
2D4D
330
2BBB
100
AcDbEntity
  8
Defpoints
 62
     0
100
AcDbPoint
 10
2500.0
 20
4640.0
 30
0.0
  0
ENDBLK
  5
2BBD
330
2BBB
100
AcDbEntity
  8
0
100
AcDbBlockEnd
  0
BLOCK
  5
2BC8
330
2BC7
100
AcDbEntity
  8
0
100
AcDbBlockBegin
  2
*D42
 70
     1
 10
0.0
 20
0.0
 30
0.0
  3
*D42
  1

  0
LINE
  5
2D4E
330
2BC7
100
AcDbEntity
  8
寸法線
 62
     0
440
 16777216
370
    -2
100
AcDbLine
 10
2350.0
 20
4277.499999999998
 30
0.0
 11
2350.0
 21
4690.0
 31
0.0
  0
LINE
  5
2D4F
330
2BC7
100
AcDbEntity
  8
寸法線
 62
     0
440
 16777216
370
    -2
100
AcDbLine
 10
2500.0
 20
4427.5
 30
0.0
 11
2500.0
 21
4690.0
 31
0.0
  0
LINE
  5
2D50
330
2BC7
100
AcDbEntity
  8
寸法線
 62
     0
440
 16777216
370
    -2
100
AcDbLine
 10
2375.0
 20
4665.0
 30
0.0
 11
2475.0
 21
4665.0
 31
0.0
  0
INSERT
  5
2D51
330
2BC7
100
AcDbEntity
  8
寸法線
 62
     0
440
 16777216
370
    -2
100
AcDbBlockReference
  2
_Open30
 10
2350.0
 20
4665.0
 30
0.0
 41
25.0
 42
25.0
 43
25.0
 50
180.0
  0
INSERT
  5
2D52
330
2BC7
100
AcDbEntity
  8
寸法線
 62
     0
440
 16777216
370
    -2
100
AcDbBlockReference
  2
_Open30
 10
2500.0
 20
4665.0
 30
0.0
 41
25.0
 42
25.0
 43
25.0
  0
MTEXT
  5
2D53
330
2BC7
100
AcDbEntity
  8
寸法線
 62
     0
440
 16777216
100
AcDbMText
 10
2425.0
 20
4703.028649386085
 30
0.0
 40
50.0
 41
0.0
 46
0.0
 71
     5
 72
     1
  1
150
 73
     1
 44
1.0
  0
POINT
  5
2D54
330
2BC7
100
AcDbEntity
  8
Defpoints
 62
     0
440
 16777216
100
AcDbPoint
 10
2350.0
 20
4265.0
 30
0.0
  0
POINT
  5
2D55
330
2BC7
100
AcDbEntity
  8
Defpoints
 62
     0
440
 16777216
100
AcDbPoint
 10
2500.0
 20
4415.0
 30
0.0
  0
POINT
  5
2D56
330
2BC7
100
AcDbEntity
  8
Defpoints
 62
     0
440
 16777216
100
AcDbPoint
 10
2500.0
 20
4665.0
 30
0.0
  0
ENDBLK
  5
2BC9
330
2BC7
100
AcDbEntity
  8
0
100
AcDbBlockEnd
  0
BLOCK
  5
2BD4
330
2BD3
100
AcDbEntity
  8
0
100
AcDbBlockBegin
  2
*D43
 70
     1
 10
0.0
 20
0.0
 30
0.0
  3
*D43
  1

  0
LINE
  5
2D57
330
2BD3
100
AcDbEntity
  8
寸法線
 62
     0
370
    -2
100
AcDbLine
 10
2500.0
 20
4424.375000000001
 30
0.0
 11
2500.0
 21
4883.750000000001
 31
0.0
  0
LINE
  5
2D58
330
2BD3
100
AcDbEntity
  8
寸法線
 62
     0
370
    -2
100
AcDbLine
 10
1700.0
 20
4424.375000000001
 30
0.0
 11
1700.0
 21
4883.750000000001
 31
0.0
  0
LINE
  5
2D59
330
2BD3
100
AcDbEntity
  8
寸法線
 62
     0
370
    -2
100
AcDbLine
 10
2481.25
 20
4865.000000000001
 30
0.0
 11
1718.75
 21
4865.000000000001
 31
0.0
  0
INSERT
  5
2D5A
330
2BD3
100
AcDbEntity
  8
寸法線
 62
     0
370
    -2
100
AcDbBlockReference
  2
_Open30
 10
2500.0
 20
4865.000000000001
 30
0.0
 41
18.75
 42
18.75
 43
18.75
  0
INSERT
  5
2D5B
330
2BD3
100
AcDbEntity
  8
寸法線
 62
     0
370
    -2
100
AcDbBlockReference
  2
_Open30
 10
1700.0
 20
4865.000000000001
 30
0.0
 41
18.75
 42
18.75
 43
18.75
 50
180.0
  0
MTEXT
  5
2D5C
330
2BD3
100
AcDbEntity
  8
寸法線
 62
     0
100
AcDbMText
 10
2100.0
 20
4893.521487039564
 30
0.0
 40
37.5
 41
0.0
 46
0.0
 71
     5
 72
     1
  1
800
 73
     1
 44
1.0
  0
POINT
  5
2D5D
330
2BD3
100
AcDbEntity
  8
Defpoints
 62
     0
100
AcDbPoint
 10
2500.0
 20
4415.000000000001
 30
0.0
  0
POINT
  5
2D5E
330
2BD3
100
AcDbEntity
  8
Defpoints
 62
     0
100
AcDbPoint
 10
1700.0
 20
4415.000000000001
 30
0.0
  0
POINT
  5
2D5F
330
2BD3
100
AcDbEntity
  8
Defpoints
 62
     0
100
AcDbPoint
 10
1700.0
 20
4865.000000000001
 30
0.0
  0
ENDBLK
  5
2BD5
330
2BD3
100
AcDbEntity
  8
0
100
AcDbBlockEnd
  0
BLOCK
  5
2BE0
330
2BDF
100
AcDbEntity
  8
0
100
AcDbBlockBegin
  2
*D44
 70
     1
 10
0.0
 20
0.0
 30
0.0
  3
*D44
  1

  0
LINE
  5
2D60
330
2BDF
100
AcDbEntity
  8
寸法線
 62
     0
440
 16777216
370
    -2
100
AcDbLine
 10
2500.0
 20
4427.500000000001
 30
0.0
 11
2500.0
 21
4915.000000000001
 31
0.0
  0
LINE
  5
2D61
330
2BDF
100
AcDbEntity
  8
寸法線
 62
     0
440
 16777216
370
    -2
100
AcDbLine
 10
1700.0
 20
4427.500000000001
 30
0.0
 11
1700.0
 21
4915.000000000001
 31
0.0
  0
LINE
  5
2D62
330
2BDF
100
AcDbEntity
  8
寸法線
 62
     0
440
 16777216
370
    -2
100
AcDbLine
 10
2475.0
 20
4890.000000000001
 30
0.0
 11
1725.0
 21
4890.000000000001
 31
0.0
  0
INSERT
  5
2D63
330
2BDF
100
AcDbEntity
  8
寸法線
 62
     0
440
 16777216
370
    -2
100
AcDbBlockReference
  2
_Open30
 10
2500.0
 20
4890.000000000001
 30
0.0
 41
25.0
 42
25.0
 43
25.0
  0
INSERT
  5
2D64
330
2BDF
100
AcDbEntity
  8
寸法線
 62
     0
440
 16777216
370
    -2
100
AcDbBlockReference
  2
_Open30
 10
1700.0
 20
4890.000000000001
 30
0.0
 41
25.0
 42
25.0
 43
25.0
 50
180.0
  0
MTEXT
  5
2D65
330
2BDF
100
AcDbEntity
  8
寸法線
 62
     0
440
 16777216
100
AcDbMText
 10
2100.0
 20
4928.028649386085
 30
0.0
 40
50.0
 41
0.0
 46
0.0
 71
     5
 72
     1
  1
800
 73
     1
 44
1.0
  0
POINT
  5
2D66
330
2BDF
100
AcDbEntity
  8
Defpoints
 62
     0
440
 16777216
100
AcDbPoint
 10
2500.0
 20
4415.000000000001
 30
0.0
  0
POINT
  5
2D67
330
2BDF
100
AcDbEntity
  8
Defpoints
 62
     0
440
 16777216
100
AcDbPoint
 10
1700.0
 20
4415.000000000001
 30
0.0
  0
POINT
  5
2D68
330
2BDF
100
AcDbEntity
  8
Defpoints
 62
     0
440
 16777216
100
AcDbPoint
 10
1700.0
 20
4890.000000000001
 30
0.0
  0
ENDBLK
  5
2BE1
330
2BDF
100
AcDbEntity
  8
0
100
AcDbBlockEnd
  0
BLOCK
  5
2BEC
330
2BEB
100
AcDbEntity
  8
0
100
AcDbBlockBegin
  2
*D45
 70
     1
 10
0.0
 20
0.0
 30
0.0
  3
*D45
  1

  0
LINE
  5
2D9F
330
2BEB
100
AcDbEntity
  8
寸法線
 62
     0
370
    -2
100
AcDbLine
 10
1850.0
 20
4274.375
 30
0.0
 11
1850.0
 21
4658.749999999998
 31
0.0
  0
LINE
  5
2DA0
330
2BEB
100
AcDbEntity
  8
寸法線
 62
     0
370
    -2
100
AcDbLine
 10
2350.0
 20
4274.375
 30
0.0
 11
2350.0
 21
4658.749999999998
 31
0.0
  0
LINE
  5
2DA1
330
2BEB
100
AcDbEntity
  8
寸法線
 62
     0
370
    -2
100
AcDbLine
 10
1868.75
 20
4639.999999999998
 30
0.0
 11
2331.25
 21
4639.999999999998
 31
0.0
  0
INSERT
  5
2DA2
330
2BEB
100
AcDbEntity
  8
寸法線
 62
     0
370
    -2
100
AcDbBlockReference
  2
_Open30
 10
1850.0
 20
4639.999999999998
 30
0.0
 41
18.75
 42
18.75
 43
18.75
 50
180.0
  0
INSERT
  5
2DA3
330
2BEB
100
AcDbEntity
  8
寸法線
 62
     0
370
    -2
100
AcDbBlockReference
  2
_Open30
 10
2350.0
 20
4639.999999999998
 30
0.0
 41
18.75
 42
18.75
 43
18.75
  0
MTEXT
  5
2DA4
330
2BEB
100
AcDbEntity
  8
寸法線
 62
     0
100
AcDbMText
 10
2100.0
 20
4668.521487039561
 30
0.0
 40
37.5
 41
0.0
 46
0.0
 71
     5
 72
     1
  1
500
 73
     1
 44
1.0
  0
POINT
  5
2DA5
330
2BEB
100
AcDbEntity
  8
Defpoints
 62
     0
100
AcDbPoint
 10
1850.0
 20
4265.0
 30
0.0
  0
POINT
  5
2DA6
330
2BEB
100
AcDbEntity
  8
Defpoints
 62
     0
100
AcDbPoint
 10
2350.0
 20
4265.0
 30
0.0
  0
POINT
  5
2DA7
330
2BEB
100
AcDbEntity
  8
Defpoints
 62
     0
100
AcDbPoint
 10
2350.0
 20
4639.999999999998
 30
0.0
  0
ENDBLK
  5
2BED
330
2BEB
100
AcDbEntity
  8
0
100
AcDbBlockEnd
  0
BLOCK
  5
2BF8
330
2BF7
100
AcDbEntity
  8
0
100
AcDbBlockBegin
  2
*D46
 70
     1
 10
0.0
 20
0.0
 30
0.0
  3
*D46
  1

  0
LINE
  5
2DA8
330
2BF7
100
AcDbEntity
  8
寸法線
 62
     0
440
 16777216
370
    -2
100
AcDbLine
 10
1850.0
 20
4277.499999999998
 30
0.0
 11
1850.0
 21
4689.999999999998
 31
0.0
  0
LINE
  5
2DA9
330
2BF7
100
AcDbEntity
  8
寸法線
 62
     0
440
 16777216
370
    -2
100
AcDbLine
 10
2350.0
 20
4277.499999999998
 30
0.0
 11
2350.0
 21
4689.999999999998
 31
0.0
  0
LINE
  5
2DAA
330
2BF7
100
AcDbEntity
  8
寸法線
 62
     0
440
 16777216
370
    -2
100
AcDbLine
 10
1875.0
 20
4664.999999999998
 30
0.0
 11
2325.0
 21
4664.999999999998
 31
0.0
  0
INSERT
  5
2DAB
330
2BF7
100
AcDbEntity
  8
寸法線
 62
     0
440
 16777216
370
    -2
100
AcDbBlockReference
  2
_Open30
 10
1850.0
 20
4664.999999999998
 30
0.0
 41
25.0
 42
25.0
 43
25.0
 50
180.0
  0
INSERT
  5
2DAC
330
2BF7
100
AcDbEntity
  8
寸法線
 62
     0
440
 16777216
370
    -2
100
AcDbBlockReference
  2
_Open30
 10
2350.0
 20
4664.999999999998
 30
0.0
 41
25.0
 42
25.0
 43
25.0
  0
MTEXT
  5
2DAD
330
2BF7
100
AcDbEntity
  8
寸法線
 62
     0
440
 16777216
100
AcDbMText
 10
2100.0
 20
4703.028649386083
 30
0.0
 40
50.0
 41
0.0
 46
0.0
 71
     5
 72
     1
  1
500
 73
     1
 44
1.0
  0
POINT
  5
2DAE
330
2BF7
100
AcDbEntity
  8
Defpoints
 62
     0
440
 16777216
100
AcDbPoint
 10
1850.0
 20
4265.0
 30
0.0
  0
POINT
  5
2DAF
330
2BF7
100
AcDbEntity
  8
Defpoints
 62
     0
440
 16777216
100
AcDbPoint
 10
2350.0
 20
4265.0
 30
0.0
  0
POINT
  5
2DB0
330
2BF7
100
AcDbEntity
  8
Defpoints
 62
     0
440
 16777216
100
AcDbPoint
 10
2350.0
 20
4664.999999999998
 30
0.0
  0
ENDBLK
  5
2BF9
330
2BF7
100
AcDbEntity
  8
0
100
AcDbBlockEnd
  0
BLOCK
  5
2C04
330
2C03
100
AcDbEntity
  8
0
100
AcDbBlockBegin
  2
*D47
 70
     1
 10
0.0
 20
0.0
 30
0.0
  3
*D47
  1

  0
LINE
  5
2D06
330
2C03
100
AcDbEntity
  8
寸法線
 62
     0
440
 16777216
370
    -2
100
AcDbLine
 10
1850.0
 20
1657.499999999999
 30
0.0
 11
1850.0
 21
1395.0
 31
0.0
  0
LINE
  5
2D07
330
2C03
100
AcDbEntity
  8
寸法線
 62
     0
440
 16777216
370
    -2
100
AcDbLine
 10
2350.0
 20
1657.5
 30
0.0
 11
2350.0
 21
1395.0
 31
0.0
  0
LINE
  5
2D08
330
2C03
100
AcDbEntity
  8
寸法線
 62
     0
440
 16777216
370
    -2
100
AcDbLine
 10
1875.0
 20
1420.0
 30
0.0
 11
2325.0
 21
1420.0
 31
0.0
  0
INSERT
  5
2D09
330
2C03
100
AcDbEntity
  8
寸法線
 62
     0
440
 16777216
370
    -2
100
AcDbBlockReference
  2
_Open30
 10
1850.0
 20
1420.0
 30
0.0
 41
25.0
 42
25.0
 43
25.0
 50
180.0
  0
INSERT
  5
2D0A
330
2C03
100
AcDbEntity
  8
寸法線
 62
     0
440
 16777216
370
    -2
100
AcDbBlockReference
  2
_Open30
 10
2350.0
 20
1420.0
 30
0.0
 41
25.0
 42
25.0
 43
25.0
  0
MTEXT
  5
2D0B
330
2C03
100
AcDbEntity
  8
寸法線
 62
     0
440
 16777216
100
AcDbMText
 10
2100.0
 20
1458.028649386084
 30
0.0
 40
50.0
 41
0.0
 46
0.0
 71
     5
 72
     1
  1
500
 73
     1
 44
1.0
  0
POINT
  5
2D0C
330
2C03
100
AcDbEntity
  8
Defpoints
 62
     0
440
 16777216
100
AcDbPoint
 10
1850.0
 20
1669.999999999999
 30
0.0
  0
POINT
  5
2D0D
330
2C03
100
AcDbEntity
  8
Defpoints
 62
     0
440
 16777216
100
AcDbPoint
 10
2350.0
 20
1670.0
 30
0.0
  0
POINT
  5
2D0E
330
2C03
100
AcDbEntity
  8
Defpoints
 62
     0
440
 16777216
100
AcDbPoint
 10
2350.0
 20
1420.0
 30
0.0
  0
ENDBLK
  5
2C05
330
2C03
100
AcDbEntity
  8
0
100
AcDbBlockEnd
  0
BLOCK
  5
2C10
330
2C0F
100
AcDbEntity
  8
0
100
AcDbBlockBegin
  2
*D48
 70
     1
 10
0.0
 20
0.0
 30
0.0
  3
*D48
  1

  0
LINE
  5
2D18
330
2C0F
100
AcDbEntity
  8
寸法線
 62
     0
440
 16777216
370
    -2
100
AcDbLine
 10
2350.0
 20
1657.5
 30
0.0
 11
2350.0
 21
1395.000000000001
 31
0.0
  0
LINE
  5
2D19
330
2C0F
100
AcDbEntity
  8
寸法線
 62
     0
440
 16777216
370
    -2
100
AcDbLine
 10
2500.0
 20
1657.5
 30
0.0
 11
2500.0
 21
1395.000000000001
 31
0.0
  0
LINE
  5
2D1A
330
2C0F
100
AcDbEntity
  8
寸法線
 62
     0
440
 16777216
370
    -2
100
AcDbLine
 10
2375.0
 20
1420.000000000001
 30
0.0
 11
2475.0
 21
1420.000000000001
 31
0.0
  0
INSERT
  5
2D1B
330
2C0F
100
AcDbEntity
  8
寸法線
 62
     0
440
 16777216
370
    -2
100
AcDbBlockReference
  2
_Open30
 10
2350.0
 20
1420.000000000001
 30
0.0
 41
25.0
 42
25.0
 43
25.0
 50
180.0
  0
INSERT
  5
2D1C
330
2C0F
100
AcDbEntity
  8
寸法線
 62
     0
440
 16777216
370
    -2
100
AcDbBlockReference
  2
_Open30
 10
2500.0
 20
1420.000000000001
 30
0.0
 41
25.0
 42
25.0
 43
25.0
  0
MTEXT
  5
2D1D
330
2C0F
100
AcDbEntity
  8
寸法線
 62
     0
440
 16777216
100
AcDbMText
 10
2425.0
 20
1458.028649386085
 30
0.0
 40
50.0
 41
0.0
 46
0.0
 71
     5
 72
     1
  1
150
 73
     1
 44
1.0
  0
POINT
  5
2D1E
330
2C0F
100
AcDbEntity
  8
Defpoints
 62
     0
440
 16777216
100
AcDbPoint
 10
2350.0
 20
1670.0
 30
0.0
  0
POINT
  5
2D1F
330
2C0F
100
AcDbEntity
  8
Defpoints
 62
     0
440
 16777216
100
AcDbPoint
 10
2500.0
 20
1670.0
 30
0.0
  0
POINT
  5
2D20
330
2C0F
100
AcDbEntity
  8
Defpoints
 62
     0
440
 16777216
100
AcDbPoint
 10
2500.0
 20
1420.000000000001
 30
0.0
  0
ENDBLK
  5
2C11
330
2C0F
100
AcDbEntity
  8
0
100
AcDbBlockEnd
  0
BLOCK
  5
2C1C
330
2C1B
100
AcDbEntity
  8
0
100
AcDbBlockBegin
  2
*D49
 70
     1
 10
0.0
 20
0.0
 30
0.0
  3
*D49
  1

  0
LINE
  5
2D69
330
2C1B
100
AcDbEntity
  8
寸法線
 62
     0
370
    -2
100
AcDbLine
 10
1849.999999999999
 20
4274.375
 30
0.0
 11
1849.999999999999
 21
4658.75
 31
0.0
  0
LINE
  5
2D6A
330
2C1B
100
AcDbEntity
  8
寸法線
 62
     0
370
    -2
100
AcDbLine
 10
1700.0
 20
4424.375
 30
0.0
 11
1700.0
 21
4658.75
 31
0.0
  0
LINE
  5
2D6B
330
2C1B
100
AcDbEntity
  8
寸法線
 62
     0
370
    -2
100
AcDbLine
 10
1831.25
 20
4640.0
 30
0.0
 11
1718.75
 21
4640.0
 31
0.0
  0
INSERT
  5
2D6C
330
2C1B
100
AcDbEntity
  8
寸法線
 62
     0
370
    -2
100
AcDbBlockReference
  2
_Open30
 10
1849.999999999999
 20
4640.0
 30
0.0
 41
18.75
 42
18.75
 43
18.75
  0
INSERT
  5
2D6D
330
2C1B
100
AcDbEntity
  8
寸法線
 62
     0
370
    -2
100
AcDbBlockReference
  2
_Open30
 10
1700.0
 20
4640.0
 30
0.0
 41
18.75
 42
18.75
 43
18.75
 50
180.0
  0
MTEXT
  5
2D6E
330
2C1B
100
AcDbEntity
  8
寸法線
 62
     0
100
AcDbMText
 10
1774.999999999999
 20
4668.521487039563
 30
0.0
 40
37.5
 41
0.0
 46
0.0
 71
     5
 72
     1
  1
150
 73
     1
 44
1.0
  0
POINT
  5
2D6F
330
2C1B
100
AcDbEntity
  8
Defpoints
 62
     0
100
AcDbPoint
 10
1849.999999999999
 20
4265.0
 30
0.0
  0
POINT
  5
2D70
330
2C1B
100
AcDbEntity
  8
Defpoints
 62
     0
100
AcDbPoint
 10
1700.0
 20
4415.0
 30
0.0
  0
POINT
  5
2D71
330
2C1B
100
AcDbEntity
  8
Defpoints
 62
     0
100
AcDbPoint
 10
1700.0
 20
4640.0
 30
0.0
  0
ENDBLK
  5
2C1D
330
2C1B
100
AcDbEntity
  8
0
100
AcDbBlockEnd
  0
BLOCK
  5
2C28
330
2C27
100
AcDbEntity
  8
0
100
AcDbBlockBegin
  2
*D50
 70
     1
 10
0.0
 20
0.0
 30
0.0
  3
*D50
  1

  0
LINE
  5
2D72
330
2C27
100
AcDbEntity
  8
寸法線
 62
     0
440
 16777216
370
    -2
100
AcDbLine
 10
1849.999999999999
 20
4277.499999999998
 30
0.0
 11
1849.999999999999
 21
4690.0
 31
0.0
  0
LINE
  5
2D73
330
2C27
100
AcDbEntity
  8
寸法線
 62
     0
440
 16777216
370
    -2
100
AcDbLine
 10
1700.0
 20
4427.5
 30
0.0
 11
1700.0
 21
4690.0
 31
0.0
  0
LINE
  5
2D74
330
2C27
100
AcDbEntity
  8
寸法線
 62
     0
440
 16777216
370
    -2
100
AcDbLine
 10
1825.0
 20
4665.0
 30
0.0
 11
1725.0
 21
4665.0
 31
0.0
  0
INSERT
  5
2D75
330
2C27
100
AcDbEntity
  8
寸法線
 62
     0
440
 16777216
370
    -2
100
AcDbBlockReference
  2
_Open30
 10
1849.999999999999
 20
4665.0
 30
0.0
 41
25.0
 42
25.0
 43
25.0
  0
INSERT
  5
2D76
330
2C27
100
AcDbEntity
  8
寸法線
 62
     0
440
 16777216
370
    -2
100
AcDbBlockReference
  2
_Open30
 10
1700.0
 20
4665.0
 30
0.0
 41
25.0
 42
25.0
 43
25.0
 50
180.0
  0
MTEXT
  5
2D77
330
2C27
100
AcDbEntity
  8
寸法線
 62
     0
440
 16777216
100
AcDbMText
 10
1774.999999999999
 20
4703.028649386085
 30
0.0
 40
50.0
 41
0.0
 46
0.0
 71
     5
 72
     1
  1
150
 73
     1
 44
1.0
  0
POINT
  5
2D78
330
2C27
100
AcDbEntity
  8
Defpoints
 62
     0
440
 16777216
100
AcDbPoint
 10
1849.999999999999
 20
4265.0
 30
0.0
  0
POINT
  5
2D79
330
2C27
100
AcDbEntity
  8
Defpoints
 62
     0
440
 16777216
100
AcDbPoint
 10
1700.0
 20
4415.0
 30
0.0
  0
POINT
  5
2D7A
330
2C27
100
AcDbEntity
  8
Defpoints
 62
     0
440
 16777216
100
AcDbPoint
 10
1700.0
 20
4665.0
 30
0.0
  0
ENDBLK
  5
2C29
330
2C27
100
AcDbEntity
  8
0
100
AcDbBlockEnd
  0
BLOCK
  5
2C47
330
2C46
100
AcDbEntity
  8
0
100
AcDbBlockBegin
  2
*D51
 70
     1
 10
0.0
 20
0.0
 30
0.0
  3
*D51
  1

  0
LINE
  5
2D7B
330
2C46
100
AcDbEntity
  8
寸法線
 62
     0
370
    -2
100
AcDbLine
 10
1840.625
 20
4265.0
 30
0.0
 11
1456.25
 21
4265.0
 31
0.0
  0
LINE
  5
2D7C
330
2C46
100
AcDbEntity
  8
寸法線
 62
     0
370
    -2
100
AcDbLine
 10
1690.625
 20
4415.0
 30
0.0
 11
1456.25
 21
4415.0
 31
0.0
  0
LINE
  5
2D7D
330
2C46
100
AcDbEntity
  8
寸法線
 62
     0
370
    -2
100
AcDbLine
 10
1475.0
 20
4283.75
 30
0.0
 11
1475.0
 21
4396.25
 31
0.0
  0
INSERT
  5
2D7E
330
2C46
100
AcDbEntity
  8
寸法線
 62
     0
370
    -2
100
AcDbBlockReference
  2
_Open30
 10
1475.0
 20
4265.0
 30
0.0
 41
18.75
 42
18.75
 43
18.75
 50
270.0
  0
INSERT
  5
2D7F
330
2C46
100
AcDbEntity
  8
寸法線
 62
     0
370
    -2
100
AcDbBlockReference
  2
_Open30
 10
1475.0
 20
4415.0
 30
0.0
 41
18.75
 42
18.75
 43
18.75
 50
90.0
  0
MTEXT
  5
2D80
330
2C46
100
AcDbEntity
  8
寸法線
 62
     0
100
AcDbMText
 10
1446.478512960436
 20
4340.0
 30
0.0
 40
37.5
 41
0.0
 46
0.0
 71
     5
 72
     1
  1
150
 11
0.0000000000000001
 21
1.0
 31
0.0
 73
     1
 44
1.0
  0
POINT
  5
2D81
330
2C46
100
AcDbEntity
  8
Defpoints
 62
     0
100
AcDbPoint
 10
1850.0
 20
4265.0
 30
0.0
  0
POINT
  5
2D82
330
2C46
100
AcDbEntity
  8
Defpoints
 62
     0
100
AcDbPoint
 10
1700.0
 20
4415.0
 30
0.0
  0
POINT
  5
2D83
330
2C46
100
AcDbEntity
  8
Defpoints
 62
     0
100
AcDbPoint
 10
1475.0
 20
4415.0
 30
0.0
  0
ENDBLK
  5
2C48
330
2C46
100
AcDbEntity
  8
0
100
AcDbBlockEnd
  0
BLOCK
  5
2C53
330
2C52
100
AcDbEntity
  8
0
100
AcDbBlockBegin
  2
*D52
 70
     1
 10
0.0
 20
0.0
 30
0.0
  3
*D52
  1

  0
LINE
  5
2D84
330
2C52
100
AcDbEntity
  8
寸法線
 62
     0
440
 16777216
370
    -2
100
AcDbLine
 10
1837.5
 20
4265.0
 30
0.0
 11
1425.0
 21
4265.0
 31
0.0
  0
LINE
  5
2D85
330
2C52
100
AcDbEntity
  8
寸法線
 62
     0
440
 16777216
370
    -2
100
AcDbLine
 10
1687.5
 20
4415.0
 30
0.0
 11
1425.0
 21
4415.0
 31
0.0
  0
LINE
  5
2D86
330
2C52
100
AcDbEntity
  8
寸法線
 62
     0
440
 16777216
370
    -2
100
AcDbLine
 10
1450.0
 20
4290.0
 30
0.0
 11
1450.0
 21
4390.0
 31
0.0
  0
INSERT
  5
2D87
330
2C52
100
AcDbEntity
  8
寸法線
 62
     0
440
 16777216
370
    -2
100
AcDbBlockReference
  2
_Open30
 10
1450.0
 20
4265.0
 30
0.0
 41
25.0
 42
25.0
 43
25.0
 50
270.0
  0
INSERT
  5
2D88
330
2C52
100
AcDbEntity
  8
寸法線
 62
     0
440
 16777216
370
    -2
100
AcDbBlockReference
  2
_Open30
 10
1450.0
 20
4415.0
 30
0.0
 41
25.0
 42
25.0
 43
25.0
 50
90.0
  0
MTEXT
  5
2D89
330
2C52
100
AcDbEntity
  8
寸法線
 62
     0
440
 16777216
100
AcDbMText
 10
1411.971350613915
 20
4340.0
 30
0.0
 40
50.0
 41
0.0
 46
0.0
 71
     5
 72
     1
  1
150
 11
0.0000000000000001
 21
1.0
 31
0.0
 73
     1
 44
1.0
  0
POINT
  5
2D8A
330
2C52
100
AcDbEntity
  8
Defpoints
 62
     0
440
 16777216
100
AcDbPoint
 10
1850.0
 20
4265.0
 30
0.0
  0
POINT
  5
2D8B
330
2C52
100
AcDbEntity
  8
Defpoints
 62
     0
440
 16777216
100
AcDbPoint
 10
1700.0
 20
4415.0
 30
0.0
  0
POINT
  5
2D8C
330
2C52
100
AcDbEntity
  8
Defpoints
 62
     0
440
 16777216
100
AcDbPoint
 10
1450.0
 20
4415.0
 30
0.0
  0
ENDBLK
  5
2C54
330
2C52
100
AcDbEntity
  8
0
100
AcDbBlockEnd
  0
BLOCK
  5
2C5F
330
2C5E
100
AcDbEntity
  8
0
100
AcDbBlockBegin
  2
*D53
 70
     1
 10
0.0
 20
0.0
 30
0.0
  3
*D53
  1

  0
LINE
  5
2DB1
330
2C5E
100
AcDbEntity
  8
寸法線
 62
     0
370
    -2
100
AcDbLine
 10
1840.625
 20
3765.000000000001
 30
0.0
 11
1456.25
 21
3765.000000000001
 31
0.0
  0
LINE
  5
2DB2
330
2C5E
100
AcDbEntity
  8
寸法線
 62
     0
370
    -2
100
AcDbLine
 10
1690.625
 20
3615.000000000001
 30
0.0
 11
1456.25
 21
3615.000000000001
 31
0.0
  0
LINE
  5
2DB3
330
2C5E
100
AcDbEntity
  8
寸法線
 62
     0
370
    -2
100
AcDbLine
 10
1475.0
 20
3746.250000000002
 30
0.0
 11
1475.0
 21
3633.750000000001
 31
0.0
  0
INSERT
  5
2DB4
330
2C5E
100
AcDbEntity
  8
寸法線
 62
     0
370
    -2
100
AcDbBlockReference
  2
_Open30
 10
1475.0
 20
3765.000000000001
 30
0.0
 41
18.75
 42
18.75
 43
18.75
 50
90.0
  0
INSERT
  5
2DB5
330
2C5E
100
AcDbEntity
  8
寸法線
 62
     0
370
    -2
100
AcDbBlockReference
  2
_Open30
 10
1475.0
 20
3615.000000000001
 30
0.0
 41
18.75
 42
18.75
 43
18.75
 50
270.0
  0
MTEXT
  5
2DB6
330
2C5E
100
AcDbEntity
  8
寸法線
 62
     0
100
AcDbMText
 10
1446.478512960436
 20
3690.000000000002
 30
0.0
 40
37.5
 41
0.0
 46
0.0
 71
     5
 72
     1
  1
150
 11
0.0000000000000001
 21
1.0
 31
0.0
 73
     1
 44
1.0
  0
POINT
  5
2DB7
330
2C5E
100
AcDbEntity
  8
Defpoints
 62
     0
100
AcDbPoint
 10
1850.0
 20
3765.000000000001
 30
0.0
  0
POINT
  5
2DB8
330
2C5E
100
AcDbEntity
  8
Defpoints
 62
     0
100
AcDbPoint
 10
1700.0
 20
3615.000000000001
 30
0.0
  0
POINT
  5
2DB9
330
2C5E
100
AcDbEntity
  8
Defpoints
 62
     0
100
AcDbPoint
 10
1475.0
 20
3615.000000000001
 30
0.0
  0
ENDBLK
  5
2C60
330
2C5E
100
AcDbEntity
  8
0
100
AcDbBlockEnd
  0
BLOCK
  5
2C6B
330
2C6A
100
AcDbEntity
  8
0
100
AcDbBlockBegin
  2
*D54
 70
     1
 10
0.0
 20
0.0
 30
0.0
  3
*D54
  1

  0
LINE
  5
2DBA
330
2C6A
100
AcDbEntity
  8
寸法線
 62
     0
440
 16777216
370
    -2
100
AcDbLine
 10
1837.5
 20
3765.000000000001
 30
0.0
 11
1425.0
 21
3765.000000000001
 31
0.0
  0
LINE
  5
2DBB
330
2C6A
100
AcDbEntity
  8
寸法線
 62
     0
440
 16777216
370
    -2
100
AcDbLine
 10
1687.5
 20
3615.000000000001
 30
0.0
 11
1425.0
 21
3615.000000000001
 31
0.0
  0
LINE
  5
2DBC
330
2C6A
100
AcDbEntity
  8
寸法線
 62
     0
440
 16777216
370
    -2
100
AcDbLine
 10
1450.0
 20
3740.000000000001
 30
0.0
 11
1450.0
 21
3640.000000000001
 31
0.0
  0
INSERT
  5
2DBD
330
2C6A
100
AcDbEntity
  8
寸法線
 62
     0
440
 16777216
370
    -2
100
AcDbBlockReference
  2
_Open30
 10
1450.0
 20
3765.000000000001
 30
0.0
 41
25.0
 42
25.0
 43
25.0
 50
90.0
  0
INSERT
  5
2DBE
330
2C6A
100
AcDbEntity
  8
寸法線
 62
     0
440
 16777216
370
    -2
100
AcDbBlockReference
  2
_Open30
 10
1450.0
 20
3615.000000000001
 30
0.0
 41
25.0
 42
25.0
 43
25.0
 50
270.0
  0
MTEXT
  5
2DBF
330
2C6A
100
AcDbEntity
  8
寸法線
 62
     0
440
 16777216
100
AcDbMText
 10
1411.971350613915
 20
3690.000000000002
 30
0.0
 40
50.0
 41
0.0
 46
0.0
 71
     5
 72
     1
  1
150
 11
0.0000000000000001
 21
1.0
 31
0.0
 73
     1
 44
1.0
  0
POINT
  5
2DC0
330
2C6A
100
AcDbEntity
  8
Defpoints
 62
     0
440
 16777216
100
AcDbPoint
 10
1850.0
 20
3765.000000000001
 30
0.0
  0
POINT
  5
2DC1
330
2C6A
100
AcDbEntity
  8
Defpoints
 62
     0
440
 16777216
100
AcDbPoint
 10
1700.0
 20
3615.000000000001
 30
0.0
  0
POINT
  5
2DC2
330
2C6A
100
AcDbEntity
  8
Defpoints
 62
     0
440
 16777216
100
AcDbPoint
 10
1450.0
 20
3615.000000000001
 30
0.0
  0
ENDBLK
  5
2C6C
330
2C6A
100
AcDbEntity
  8
0
100
AcDbBlockEnd
  0
BLOCK
  5
2C77
330
2C76
100
AcDbEntity
  8
0
100
AcDbBlockBegin
  2
*D55
 70
     1
 10
0.0
 20
0.0
 30
0.0
  3
*D55
  1

  0
LINE
  5
2DC3
330
2C76
100
AcDbEntity
  8
寸法線
 62
     0
370
    -2
100
AcDbLine
 10
1690.625
 20
3615.000000000002
 30
0.0
 11
1231.25
 21
3615.000000000002
 31
0.0
  0
LINE
  5
2DC4
330
2C76
100
AcDbEntity
  8
寸法線
 62
     0
370
    -2
100
AcDbLine
 10
1690.625
 20
4415.0
 30
0.0
 11
1231.25
 21
4415.0
 31
0.0
  0
LINE
  5
2DC5
330
2C76
100
AcDbEntity
  8
寸法線
 62
     0
370
    -2
100
AcDbLine
 10
1250.0
 20
3633.750000000002
 30
0.0
 11
1250.0
 21
4396.25
 31
0.0
  0
INSERT
  5
2DC6
330
2C76
100
AcDbEntity
  8
寸法線
 62
     0
370
    -2
100
AcDbBlockReference
  2
_Open30
 10
1250.0
 20
3615.000000000002
 30
0.0
 41
18.75
 42
18.75
 43
18.75
 50
270.0
  0
INSERT
  5
2DC7
330
2C76
100
AcDbEntity
  8
寸法線
 62
     0
370
    -2
100
AcDbBlockReference
  2
_Open30
 10
1250.0
 20
4415.0
 30
0.0
 41
18.75
 42
18.75
 43
18.75
 50
90.0
  0
MTEXT
  5
2DC8
330
2C76
100
AcDbEntity
  8
寸法線
 62
     0
100
AcDbMText
 10
1221.478512960436
 20
4015.000000000001
 30
0.0
 40
37.5
 41
0.0
 46
0.0
 71
     5
 72
     1
  1
800
 11
0.0000000000000001
 21
1.0
 31
0.0
 73
     1
 44
1.0
  0
POINT
  5
2DC9
330
2C76
100
AcDbEntity
  8
Defpoints
 62
     0
100
AcDbPoint
 10
1700.0
 20
3615.000000000002
 30
0.0
  0
POINT
  5
2DCA
330
2C76
100
AcDbEntity
  8
Defpoints
 62
     0
100
AcDbPoint
 10
1700.0
 20
4415.0
 30
0.0
  0
POINT
  5
2DCB
330
2C76
100
AcDbEntity
  8
Defpoints
 62
     0
100
AcDbPoint
 10
1250.0
 20
4415.0
 30
0.0
  0
ENDBLK
  5
2C78
330
2C76
100
AcDbEntity
  8
0
100
AcDbBlockEnd
  0
BLOCK
  5
2C83
330
2C82
100
AcDbEntity
  8
0
100
AcDbBlockBegin
  2
*D56
 70
     1
 10
0.0
 20
0.0
 30
0.0
  3
*D56
  1

  0
LINE
  5
2DCC
330
2C82
100
AcDbEntity
  8
寸法線
 62
     0
440
 16777216
370
    -2
100
AcDbLine
 10
1687.5
 20
3615.000000000002
 30
0.0
 11
1175.0
 21
3615.000000000002
 31
0.0
  0
LINE
  5
2DCD
330
2C82
100
AcDbEntity
  8
寸法線
 62
     0
440
 16777216
370
    -2
100
AcDbLine
 10
1687.5
 20
4415.0
 30
0.0
 11
1175.0
 21
4415.0
 31
0.0
  0
LINE
  5
2DCE
330
2C82
100
AcDbEntity
  8
寸法線
 62
     0
440
 16777216
370
    -2
100
AcDbLine
 10
1200.0
 20
3640.000000000002
 30
0.0
 11
1200.0
 21
4390.0
 31
0.0
  0
INSERT
  5
2DCF
330
2C82
100
AcDbEntity
  8
寸法線
 62
     0
440
 16777216
370
    -2
100
AcDbBlockReference
  2
_Open30
 10
1200.0
 20
3615.000000000002
 30
0.0
 41
25.0
 42
25.0
 43
25.0
 50
270.0
  0
INSERT
  5
2DD0
330
2C82
100
AcDbEntity
  8
寸法線
 62
     0
440
 16777216
370
    -2
100
AcDbBlockReference
  2
_Open30
 10
1200.0
 20
4415.0
 30
0.0
 41
25.0
 42
25.0
 43
25.0
 50
90.0
  0
MTEXT
  5
2DD1
330
2C82
100
AcDbEntity
  8
寸法線
 62
     0
440
 16777216
100
AcDbMText
 10
1161.971350613915
 20
4015.000000000001
 30
0.0
 40
50.0
 41
0.0
 46
0.0
 71
     5
 72
     1
  1
800
 11
0.0000000000000001
 21
1.0
 31
0.0
 73
     1
 44
1.0
  0
POINT
  5
2DD2
330
2C82
100
AcDbEntity
  8
Defpoints
 62
     0
440
 16777216
100
AcDbPoint
 10
1700.0
 20
3615.000000000002
 30
0.0
  0
POINT
  5
2DD3
330
2C82
100
AcDbEntity
  8
Defpoints
 62
     0
440
 16777216
100
AcDbPoint
 10
1700.0
 20
4415.0
 30
0.0
  0
POINT
  5
2DD4
330
2C82
100
AcDbEntity
  8
Defpoints
 62
     0
440
 16777216
100
AcDbPoint
 10
1200.0
 20
4415.0
 30
0.0
  0
ENDBLK
  5
2C84
330
2C82
100
AcDbEntity
  8
0
100
AcDbBlockEnd
  0
BLOCK
  5
2CA1
330
2CA0
100
AcDbEntity
  8
0
100
AcDbBlockBegin
  2
*D57
 70
     1
 10
0.0
 20
0.0
 30
0.0
  3
*D57
  1

  0
LINE
  5
2DD5
330
2CA0
100
AcDbEntity
  8
寸法線
 62
     0
370
    -2
100
AcDbLine
 10
1840.625
 20
4265.0
 30
0.0
 11
1456.25
 21
4265.0
 31
0.0
  0
LINE
  5
2DD6
330
2CA0
100
AcDbEntity
  8
寸法線
 62
     0
370
    -2
100
AcDbLine
 10
1840.625
 20
3765.000000000001
 30
0.0
 11
1456.25
 21
3765.000000000001
 31
0.0
  0
LINE
  5
2DD7
330
2CA0
100
AcDbEntity
  8
寸法線
 62
     0
370
    -2
100
AcDbLine
 10
1474.999999999999
 20
4246.249999999998
 30
0.0
 11
1474.999999999999
 21
3783.750000000001
 31
0.0
  0
INSERT
  5
2DD8
330
2CA0
100
AcDbEntity
  8
寸法線
 62
     0
370
    -2
100
AcDbBlockReference
  2
_Open30
 10
1474.999999999999
 20
4265.0
 30
0.0
 41
18.75
 42
18.75
 43
18.75
 50
90.0
  0
INSERT
  5
2DD9
330
2CA0
100
AcDbEntity
  8
寸法線
 62
     0
370
    -2
100
AcDbBlockReference
  2
_Open30
 10
1474.999999999999
 20
3765.000000000001
 30
0.0
 41
18.75
 42
18.75
 43
18.75
 50
270.0
  0
MTEXT
  5
2DDA
330
2CA0
100
AcDbEntity
  8
寸法線
 62
     0
100
AcDbMText
 10
1446.478512960435
 20
4015.000000000001
 30
0.0
 40
37.5
 41
0.0
 46
0.0
 71
     5
 72
     1
  1
500
 11
0.0000000000000001
 21
1.0
 31
0.0
 73
     1
 44
1.0
  0
POINT
  5
2DDB
330
2CA0
100
AcDbEntity
  8
Defpoints
 62
     0
100
AcDbPoint
 10
1849.999999999999
 20
4265.0
 30
0.0
  0
POINT
  5
2DDC
330
2CA0
100
AcDbEntity
  8
Defpoints
 62
     0
100
AcDbPoint
 10
1850.0
 20
3765.000000000001
 30
0.0
  0
POINT
  5
2DDD
330
2CA0
100
AcDbEntity
  8
Defpoints
 62
     0
100
AcDbPoint
 10
1474.999999999999
 20
3765.000000000001
 30
0.0
  0
ENDBLK
  5
2CA2
330
2CA0
100
AcDbEntity
  8
0
100
AcDbBlockEnd
  0
BLOCK
  5
2CAD
330
2CAC
100
AcDbEntity
  8
0
100
AcDbBlockBegin
  2
*D58
 70
     1
 10
0.0
 20
0.0
 30
0.0
  3
*D58
  1

  0
LINE
  5
2DDE
330
2CAC
100
AcDbEntity
  8
寸法線
 62
     0
440
 16777216
370
    -2
100
AcDbLine
 10
1837.5
 20
4265.0
 30
0.0
 11
1425.0
 21
4265.0
 31
0.0
  0
LINE
  5
2DDF
330
2CAC
100
AcDbEntity
  8
寸法線
 62
     0
440
 16777216
370
    -2
100
AcDbLine
 10
1837.5
 20
3765.000000000001
 30
0.0
 11
1425.0
 21
3765.000000000001
 31
0.0
  0
LINE
  5
2DE0
330
2CAC
100
AcDbEntity
  8
寸法線
 62
     0
440
 16777216
370
    -2
100
AcDbLine
 10
1450.0
 20
4240.0
 30
0.0
 11
1450.0
 21
3790.000000000001
 31
0.0
  0
INSERT
  5
2DE1
330
2CAC
100
AcDbEntity
  8
寸法線
 62
     0
440
 16777216
370
    -2
100
AcDbBlockReference
  2
_Open30
 10
1450.0
 20
4265.0
 30
0.0
 41
25.0
 42
25.0
 43
25.0
 50
90.0
  0
INSERT
  5
2DE2
330
2CAC
100
AcDbEntity
  8
寸法線
 62
     0
440
 16777216
370
    -2
100
AcDbBlockReference
  2
_Open30
 10
1450.0
 20
3765.000000000001
 30
0.0
 41
25.0
 42
25.0
 43
25.0
 50
270.0
  0
MTEXT
  5
2DE3
330
2CAC
100
AcDbEntity
  8
寸法線
 62
     0
440
 16777216
100
AcDbMText
 10
1411.971350613914
 20
4015.000000000001
 30
0.0
 40
50.0
 41
0.0
 46
0.0
 71
     5
 72
     1
  1
500
 11
0.0000000000000001
 21
1.0
 31
0.0
 73
     1
 44
1.0
  0
POINT
  5
2DE4
330
2CAC
100
AcDbEntity
  8
Defpoints
 62
     0
440
 16777216
100
AcDbPoint
 10
1849.999999999999
 20
4265.0
 30
0.0
  0
POINT
  5
2DE5
330
2CAC
100
AcDbEntity
  8
Defpoints
 62
     0
440
 16777216
100
AcDbPoint
 10
1850.0
 20
3765.000000000001
 30
0.0
  0
POINT
  5
2DE6
330
2CAC
100
AcDbEntity
  8
Defpoints
 62
     0
440
 16777216
100
AcDbPoint
 10
1450.0
 20
3765.000000000001
 30
0.0
  0
ENDBLK
  5
2CAE
330
2CAC
100
AcDbEntity
  8
0
100
AcDbBlockEnd
  0
BLOCK
  5
2CB9
330
2CB8
100
AcDbEntity
  8
0
100
AcDbBlockBegin
  2
*D59
 70
     1
 10
0.0
 20
0.0
 30
0.0
  3
*D59
  1

  0
LINE
  5
2CBB
330
2CB8
100
AcDbEntity
  8
寸法線
 62
     0
440
 16777216
370
    -2
100
AcDbLine
 10
1687.5
 20
1669.999999999999
 30
0.0
 11
1174.999999999998
 21
1669.999999999999
 31
0.0
  0
LINE
  5
2CBC
330
2CB8
100
AcDbEntity
  8
寸法線
 62
     0
440
 16777216
370
    -2
100
AcDbLine
 10
1687.499999999999
 20
2669.999999999999
 30
0.0
 11
1174.999999999998
 21
2669.999999999999
 31
0.0
  0
LINE
  5
2CBD
330
2CB8
100
AcDbEntity
  8
寸法線
 62
     0
440
 16777216
370
    -2
100
AcDbLine
 10
1199.999999999997
 20
1694.999999999999
 30
0.0
 11
1199.999999999998
 21
2645.0
 31
0.0
  0
INSERT
  5
2CBE
330
2CB8
100
AcDbEntity
  8
寸法線
 62
     0
440
 16777216
370
    -2
100
AcDbBlockReference
  2
_Open30
 10
1199.999999999997
 20
1669.999999999999
 30
0.0
 41
25.0
 42
25.0
 43
25.0
 50
270.0
  0
INSERT
  5
2CBF
330
2CB8
100
AcDbEntity
  8
寸法線
 62
     0
440
 16777216
370
    -2
100
AcDbBlockReference
  2
_Open30
 10
1199.999999999998
 20
2669.999999999999
 30
0.0
 41
25.0
 42
25.0
 43
25.0
 50
90.0
  0
MTEXT
  5
2CC0
330
2CB8
100
AcDbEntity
  8
寸法線
 62
     0
440
 16777216
100
AcDbMText
 10
1161.971350613913
 20
2169.999999999999
 30
0.0
 40
50.0
 41
0.0
 46
0.0
 71
     5
 72
     1
  1
1000
 11
0.0000000000000001
 21
1.0
 31
0.0
 73
     1
 44
1.0
  0
POINT
  5
2CC1
330
2CB8
100
AcDbEntity
  8
Defpoints
 62
     0
440
 16777216
100
AcDbPoint
 10
1700.0
 20
1669.999999999999
 30
0.0
  0
POINT
  5
2CC2
330
2CB8
100
AcDbEntity
  8
Defpoints
 62
     0
440
 16777216
100
AcDbPoint
 10
1699.999999999999
 20
2669.999999999999
 30
0.0
  0
POINT
  5
2CC3
330
2CB8
100
AcDbEntity
  8
Defpoints
 62
     0
440
 16777216
100
AcDbPoint
 10
1199.999999999998
 20
2669.999999999999
 30
0.0
  0
ENDBLK
  5
2CBA
330
2CB8
100
AcDbEntity
  8
0
100
AcDbBlockEnd
  0
BLOCK
  5
2CC5
330
2CC4
100
AcDbEntity
  8
0
100
AcDbBlockBegin
  2
*D60
 70
     1
 10
0.0
 20
0.0
 30
0.0
  3
*D60
  1

  0
LINE
  5
2D0F
330
2CC4
100
AcDbEntity
  8
寸法線
 62
     0
440
 16777216
370
    -2
100
AcDbLine
 10
1850.0
 20
1657.499999999999
 30
0.0
 11
1850.0
 21
1394.999999999999
 31
0.0
  0
LINE
  5
2D10
330
2CC4
100
AcDbEntity
  8
寸法線
 62
     0
440
 16777216
370
    -2
100
AcDbLine
 10
1700.0
 20
1657.499999999998
 30
0.0
 11
1700.0
 21
1394.999999999999
 31
0.0
  0
LINE
  5
2D11
330
2CC4
100
AcDbEntity
  8
寸法線
 62
     0
440
 16777216
370
    -2
100
AcDbLine
 10
1825.0
 20
1419.999999999999
 30
0.0
 11
1724.999999999999
 21
1419.999999999999
 31
0.0
  0
INSERT
  5
2D12
330
2CC4
100
AcDbEntity
  8
寸法線
 62
     0
440
 16777216
370
    -2
100
AcDbBlockReference
  2
_Open30
 10
1850.0
 20
1419.999999999999
 30
0.0
 41
25.0
 42
25.0
 43
25.0
  0
INSERT
  5
2D13
330
2CC4
100
AcDbEntity
  8
寸法線
 62
     0
440
 16777216
370
    -2
100
AcDbBlockReference
  2
_Open30
 10
1700.0
 20
1419.999999999999
 30
0.0
 41
25.0
 42
25.0
 43
25.0
 50
180.0
  0
MTEXT
  5
2D14
330
2CC4
100
AcDbEntity
  8
寸法線
 62
     0
440
 16777216
100
AcDbMText
 10
1775.0
 20
1458.028649386084
 30
0.0
 40
50.0
 41
0.0
 46
0.0
 71
     5
 72
     1
  1
150
 73
     1
 44
1.0
  0
POINT
  5
2D15
330
2CC4
100
AcDbEntity
  8
Defpoints
 62
     0
440
 16777216
100
AcDbPoint
 10
1850.0
 20
1669.999999999999
 30
0.0
  0
POINT
  5
2D16
330
2CC4
100
AcDbEntity
  8
Defpoints
 62
     0
440
 16777216
100
AcDbPoint
 10
1700.0
 20
1669.999999999998
 30
0.0
  0
POINT
  5
2D17
330
2CC4
100
AcDbEntity
  8
Defpoints
 62
     0
440
 16777216
100
AcDbPoint
 10
1700.0
 20
1419.999999999999
 30
0.0
  0
ENDBLK
  5
2CC6
330
2CC4
100
AcDbEntity
  8
0
100
AcDbBlockEnd
  0
BLOCK
  5
2E29
330
2E28
100
AcDbEntity
  8
0
100
AcDbBlockBegin
  2
*D61
 70
     1
 10
0.0
 20
0.0
 30
0.0
  3
*D61
  1

  0
LINE
  5
3030
330
2E28
100
AcDbEntity
  8
寸法線
 62
     0
370
    -2
100
AcDbLine
 10
1875.0
 20
4249.374999999999
 30
0.0
 11
1875.0
 21
4633.750000000001
 31
0.0
  0
LINE
  5
3031
330
2E28
100
AcDbEntity
  8
寸法線
 62
     0
370
    -2
100
AcDbLine
 10
1725.0
 20
4399.375000000001
 30
0.0
 11
1725.0
 21
4633.750000000001
 31
0.0
  0
LINE
  5
3032
330
2E28
100
AcDbEntity
  8
寸法線
 62
     0
370
    -2
100
AcDbLine
 10
1856.25
 20
4615.000000000001
 30
0.0
 11
1743.75
 21
4615.000000000001
 31
0.0
  0
INSERT
  5
3033
330
2E28
100
AcDbEntity
  8
寸法線
 62
     0
370
    -2
100
AcDbBlockReference
  2
_Open30
 10
1875.0
 20
4615.000000000001
 30
0.0
 41
18.75
 42
18.75
 43
18.75
  0
INSERT
  5
3034
330
2E28
100
AcDbEntity
  8
寸法線
 62
     0
370
    -2
100
AcDbBlockReference
  2
_Open30
 10
1725.0
 20
4615.000000000001
 30
0.0
 41
18.75
 42
18.75
 43
18.75
 50
180.0
  0
MTEXT
  5
3035
330
2E28
100
AcDbEntity
  8
寸法線
 62
     0
100
AcDbMText
 10
1800.0
 20
4643.521487039564
 30
0.0
 40
37.5
 41
0.0
 46
0.0
 71
     5
 72
     1
  1
150
 73
     1
 44
1.0
  0
POINT
  5
3036
330
2E28
100
AcDbEntity
  8
Defpoints
 62
     0
100
AcDbPoint
 10
1875.0
 20
4240.0
 30
0.0
  0
POINT
  5
3037
330
2E28
100
AcDbEntity
  8
Defpoints
 62
     0
100
AcDbPoint
 10
1725.0
 20
4390.000000000001
 30
0.0
  0
POINT
  5
3038
330
2E28
100
AcDbEntity
  8
Defpoints
 62
     0
100
AcDbPoint
 10
1725.0
 20
4615.000000000001
 30
0.0
  0
ENDBLK
  5
2E2A
330
2E28
100
AcDbEntity
  8
0
100
AcDbBlockEnd
  0
BLOCK
  5
2E35
330
2E34
100
AcDbEntity
  8
0
100
AcDbBlockBegin
  2
*D62
 70
     1
 10
0.0
 20
0.0
 30
0.0
  3
*D62
  1

  0
LINE
  5
3039
330
2E34
100
AcDbEntity
  8
寸法線
 62
     0
440
 16777216
370
    -2
100
AcDbLine
 10
1875.0
 20
4252.5
 30
0.0
 11
1875.0
 21
4665.000000000001
 31
0.0
  0
LINE
  5
303A
330
2E34
100
AcDbEntity
  8
寸法線
 62
     0
440
 16777216
370
    -2
100
AcDbLine
 10
1725.0
 20
4402.500000000001
 30
0.0
 11
1725.0
 21
4665.000000000001
 31
0.0
  0
LINE
  5
303B
330
2E34
100
AcDbEntity
  8
寸法線
 62
     0
440
 16777216
370
    -2
100
AcDbLine
 10
1850.0
 20
4640.000000000001
 30
0.0
 11
1750.0
 21
4640.000000000001
 31
0.0
  0
INSERT
  5
303C
330
2E34
100
AcDbEntity
  8
寸法線
 62
     0
440
 16777216
370
    -2
100
AcDbBlockReference
  2
_Open30
 10
1875.0
 20
4640.000000000001
 30
0.0
 41
25.0
 42
25.0
 43
25.0
  0
INSERT
  5
303D
330
2E34
100
AcDbEntity
  8
寸法線
 62
     0
440
 16777216
370
    -2
100
AcDbBlockReference
  2
_Open30
 10
1725.0
 20
4640.000000000001
 30
0.0
 41
25.0
 42
25.0
 43
25.0
 50
180.0
  0
MTEXT
  5
303E
330
2E34
100
AcDbEntity
  8
寸法線
 62
     0
440
 16777216
100
AcDbMText
 10
1800.0
 20
4678.028649386085
 30
0.0
 40
50.0
 41
0.0
 46
0.0
 71
     5
 72
     1
  1
150
 73
     1
 44
1.0
  0
POINT
  5
303F
330
2E34
100
AcDbEntity
  8
Defpoints
 62
     0
440
 16777216
100
AcDbPoint
 10
1875.0
 20
4240.0
 30
0.0
  0
POINT
  5
3040
330
2E34
100
AcDbEntity
  8
Defpoints
 62
     0
440
 16777216
100
AcDbPoint
 10
1725.0
 20
4390.000000000001
 30
0.0
  0
POINT
  5
3041
330
2E34
100
AcDbEntity
  8
Defpoints
 62
     0
440
 16777216
100
AcDbPoint
 10
1725.0
 20
4640.000000000001
 30
0.0
  0
ENDBLK
  5
2E36
330
2E34
100
AcDbEntity
  8
0
100
AcDbBlockEnd
  0
BLOCK
  5
2E42
330
2E41
100
AcDbEntity
  8
0
100
AcDbBlockBegin
  2
*D63
 70
     1
 10
0.0
 20
0.0
 30
0.0
  3
*D63
  1

  0
LINE
  5
301E
330
2E41
100
AcDbEntity
  8
寸法線
 62
     0
370
    -2
100
AcDbLine
 10
2475.0
 20
4399.375000000001
 30
0.0
 11
2475.0
 21
4858.75
 31
0.0
  0
LINE
  5
301F
330
2E41
100
AcDbEntity
  8
寸法線
 62
     0
370
    -2
100
AcDbLine
 10
1725.0
 20
4399.375
 30
0.0
 11
1725.0
 21
4858.75
 31
0.0
  0
LINE
  5
3020
330
2E41
100
AcDbEntity
  8
寸法線
 62
     0
370
    -2
100
AcDbLine
 10
2456.25
 20
4840.0
 30
0.0
 11
1743.75
 21
4840.0
 31
0.0
  0
INSERT
  5
3021
330
2E41
100
AcDbEntity
  8
寸法線
 62
     0
370
    -2
100
AcDbBlockReference
  2
_Open30
 10
2475.0
 20
4840.0
 30
0.0
 41
18.75
 42
18.75
 43
18.75
  0
INSERT
  5
3022
330
2E41
100
AcDbEntity
  8
寸法線
 62
     0
370
    -2
100
AcDbBlockReference
  2
_Open30
 10
1725.0
 20
4840.0
 30
0.0
 41
18.75
 42
18.75
 43
18.75
 50
180.0
  0
MTEXT
  5
3023
330
2E41
100
AcDbEntity
  8
寸法線
 62
     0
100
AcDbMText
 10
2100.0
 20
4868.521487039563
 30
0.0
 40
37.5
 41
0.0
 46
0.0
 71
     5
 72
     1
  1
750
 73
     1
 44
1.0
  0
POINT
  5
3024
330
2E41
100
AcDbEntity
  8
Defpoints
 62
     0
100
AcDbPoint
 10
2475.0
 20
4390.000000000001
 30
0.0
  0
POINT
  5
3025
330
2E41
100
AcDbEntity
  8
Defpoints
 62
     0
100
AcDbPoint
 10
1725.0
 20
4390.0
 30
0.0
  0
POINT
  5
3026
330
2E41
100
AcDbEntity
  8
Defpoints
 62
     0
100
AcDbPoint
 10
1725.0
 20
4840.0
 30
0.0
  0
ENDBLK
  5
2E43
330
2E41
100
AcDbEntity
  8
0
100
AcDbBlockEnd
  0
BLOCK
  5
2E4E
330
2E4D
100
AcDbEntity
  8
0
100
AcDbBlockBegin
  2
*D64
 70
     1
 10
0.0
 20
0.0
 30
0.0
  3
*D64
  1

  0
LINE
  5
3027
330
2E4D
100
AcDbEntity
  8
寸法線
 62
     0
440
 16777216
370
    -2
100
AcDbLine
 10
2475.0
 20
4402.500000000001
 30
0.0
 11
2475.0
 21
4890.0
 31
0.0
  0
LINE
  5
3028
330
2E4D
100
AcDbEntity
  8
寸法線
 62
     0
440
 16777216
370
    -2
100
AcDbLine
 10
1725.0
 20
4402.499999999999
 30
0.0
 11
1725.0
 21
4890.0
 31
0.0
  0
LINE
  5
3029
330
2E4D
100
AcDbEntity
  8
寸法線
 62
     0
440
 16777216
370
    -2
100
AcDbLine
 10
2450.0
 20
4865.0
 30
0.0
 11
1750.0
 21
4865.0
 31
0.0
  0
INSERT
  5
302A
330
2E4D
100
AcDbEntity
  8
寸法線
 62
     0
440
 16777216
370
    -2
100
AcDbBlockReference
  2
_Open30
 10
2475.0
 20
4865.0
 30
0.0
 41
25.0
 42
25.0
 43
25.0
  0
INSERT
  5
302B
330
2E4D
100
AcDbEntity
  8
寸法線
 62
     0
440
 16777216
370
    -2
100
AcDbBlockReference
  2
_Open30
 10
1725.0
 20
4865.0
 30
0.0
 41
25.0
 42
25.0
 43
25.0
 50
180.0
  0
MTEXT
  5
302C
330
2E4D
100
AcDbEntity
  8
寸法線
 62
     0
440
 16777216
100
AcDbMText
 10
2100.0
 20
4903.028649386085
 30
0.0
 40
50.0
 41
0.0
 46
0.0
 71
     5
 72
     1
  1
750
 73
     1
 44
1.0
  0
POINT
  5
302D
330
2E4D
100
AcDbEntity
  8
Defpoints
 62
     0
440
 16777216
100
AcDbPoint
 10
2475.0
 20
4390.000000000001
 30
0.0
  0
POINT
  5
302E
330
2E4D
100
AcDbEntity
  8
Defpoints
 62
     0
440
 16777216
100
AcDbPoint
 10
1725.0
 20
4390.0
 30
0.0
  0
POINT
  5
302F
330
2E4D
100
AcDbEntity
  8
Defpoints
 62
     0
440
 16777216
100
AcDbPoint
 10
1725.0
 20
4865.0
 30
0.0
  0
ENDBLK
  5
2E4F
330
2E4D
100
AcDbEntity
  8
0
100
AcDbBlockEnd
  0
BLOCK
  5
2E5A
330
2E59
100
AcDbEntity
  8
0
100
AcDbBlockBegin
  2
*D65
 70
     1
 10
0.0
 20
0.0
 30
0.0
  3
*D65
  1

  0
LINE
  5
300C
330
2E59
100
AcDbEntity
  8
寸法線
 62
     0
370
    -2
100
AcDbLine
 10
1865.625
 20
4240.0
 30
0.0
 11
1481.25
 21
4240.0
 31
0.0
  0
LINE
  5
300D
330
2E59
100
AcDbEntity
  8
寸法線
 62
     0
370
    -2
100
AcDbLine
 10
1715.625
 20
4390.0
 30
0.0
 11
1481.25
 21
4390.0
 31
0.0
  0
LINE
  5
300E
330
2E59
100
AcDbEntity
  8
寸法線
 62
     0
370
    -2
100
AcDbLine
 10
1500.0
 20
4258.75
 30
0.0
 11
1500.0
 21
4371.249999999999
 31
0.0
  0
INSERT
  5
300F
330
2E59
100
AcDbEntity
  8
寸法線
 62
     0
370
    -2
100
AcDbBlockReference
  2
_Open30
 10
1500.0
 20
4240.0
 30
0.0
 41
18.75
 42
18.75
 43
18.75
 50
270.0
  0
INSERT
  5
3010
330
2E59
100
AcDbEntity
  8
寸法線
 62
     0
370
    -2
100
AcDbBlockReference
  2
_Open30
 10
1500.0
 20
4390.0
 30
0.0
 41
18.75
 42
18.75
 43
18.75
 50
90.0
  0
MTEXT
  5
3011
330
2E59
100
AcDbEntity
  8
寸法線
 62
     0
100
AcDbMText
 10
1471.478512960436
 20
4315.0
 30
0.0
 40
37.5
 41
0.0
 46
0.0
 71
     5
 72
     1
  1
150
 11
0.0000000000000001
 21
1.0
 31
0.0
 73
     1
 44
1.0
  0
POINT
  5
3012
330
2E59
100
AcDbEntity
  8
Defpoints
 62
     0
100
AcDbPoint
 10
1875.0
 20
4240.0
 30
0.0
  0
POINT
  5
3013
330
2E59
100
AcDbEntity
  8
Defpoints
 62
     0
100
AcDbPoint
 10
1725.0
 20
4390.0
 30
0.0
  0
POINT
  5
3014
330
2E59
100
AcDbEntity
  8
Defpoints
 62
     0
100
AcDbPoint
 10
1500.0
 20
4390.0
 30
0.0
  0
ENDBLK
  5
2E5B
330
2E59
100
AcDbEntity
  8
0
100
AcDbBlockEnd
  0
BLOCK
  5
2E66
330
2E65
100
AcDbEntity
  8
0
100
AcDbBlockBegin
  2
*D66
 70
     1
 10
0.0
 20
0.0
 30
0.0
  3
*D66
  1

  0
LINE
  5
3015
330
2E65
100
AcDbEntity
  8
寸法線
 62
     0
440
 16777216
370
    -2
100
AcDbLine
 10
1862.5
 20
4240.0
 30
0.0
 11
1450.0
 21
4240.0
 31
0.0
  0
LINE
  5
3016
330
2E65
100
AcDbEntity
  8
寸法線
 62
     0
440
 16777216
370
    -2
100
AcDbLine
 10
1712.5
 20
4390.0
 30
0.0
 11
1450.0
 21
4390.0
 31
0.0
  0
LINE
  5
3017
330
2E65
100
AcDbEntity
  8
寸法線
 62
     0
440
 16777216
370
    -2
100
AcDbLine
 10
1475.0
 20
4265.0
 30
0.0
 11
1475.0
 21
4365.0
 31
0.0
  0
INSERT
  5
3018
330
2E65
100
AcDbEntity
  8
寸法線
 62
     0
440
 16777216
370
    -2
100
AcDbBlockReference
  2
_Open30
 10
1475.0
 20
4240.0
 30
0.0
 41
25.0
 42
25.0
 43
25.0
 50
270.0
  0
INSERT
  5
3019
330
2E65
100
AcDbEntity
  8
寸法線
 62
     0
440
 16777216
370
    -2
100
AcDbBlockReference
  2
_Open30
 10
1475.0
 20
4390.0
 30
0.0
 41
25.0
 42
25.0
 43
25.0
 50
90.0
  0
MTEXT
  5
301A
330
2E65
100
AcDbEntity
  8
寸法線
 62
     0
440
 16777216
100
AcDbMText
 10
1436.971350613915
 20
4315.0
 30
0.0
 40
50.0
 41
0.0
 46
0.0
 71
     5
 72
     1
  1
150
 11
0.0000000000000001
 21
1.0
 31
0.0
 73
     1
 44
1.0
  0
POINT
  5
301B
330
2E65
100
AcDbEntity
  8
Defpoints
 62
     0
440
 16777216
100
AcDbPoint
 10
1875.0
 20
4240.0
 30
0.0
  0
POINT
  5
301C
330
2E65
100
AcDbEntity
  8
Defpoints
 62
     0
440
 16777216
100
AcDbPoint
 10
1725.0
 20
4390.0
 30
0.0
  0
POINT
  5
301D
330
2E65
100
AcDbEntity
  8
Defpoints
 62
     0
440
 16777216
100
AcDbPoint
 10
1475.0
 20
4390.0
 30
0.0
  0
ENDBLK
  5
2E67
330
2E65
100
AcDbEntity
  8
0
100
AcDbBlockEnd
  0
BLOCK
  5
2E72
330
2E71
100
AcDbEntity
  8
0
100
AcDbBlockBegin
  2
*D67
 70
     1
 10
0.0
 20
0.0
 30
0.0
  3
*D67
  1

  0
LINE
  5
2FB2
330
2E71
100
AcDbEntity
  8
寸法線
 62
     0
370
    -2
100
AcDbLine
 10
1865.625
 20
3790.000000000001
 30
0.0
 11
1481.25
 21
3790.000000000001
 31
0.0
  0
LINE
  5
2FB3
330
2E71
100
AcDbEntity
  8
寸法線
 62
     0
370
    -2
100
AcDbLine
 10
1715.625
 20
3640.000000000001
 30
0.0
 11
1481.25
 21
3640.000000000001
 31
0.0
  0
LINE
  5
2FB4
330
2E71
100
AcDbEntity
  8
寸法線
 62
     0
370
    -2
100
AcDbLine
 10
1500.0
 20
3771.250000000001
 30
0.0
 11
1500.0
 21
3658.750000000001
 31
0.0
  0
INSERT
  5
2FB5
330
2E71
100
AcDbEntity
  8
寸法線
 62
     0
370
    -2
100
AcDbBlockReference
  2
_Open30
 10
1500.0
 20
3790.000000000001
 30
0.0
 41
18.75
 42
18.75
 43
18.75
 50
90.0
  0
INSERT
  5
2FB6
330
2E71
100
AcDbEntity
  8
寸法線
 62
     0
370
    -2
100
AcDbBlockReference
  2
_Open30
 10
1500.0
 20
3640.000000000001
 30
0.0
 41
18.75
 42
18.75
 43
18.75
 50
270.0
  0
MTEXT
  5
2FB7
330
2E71
100
AcDbEntity
  8
寸法線
 62
     0
100
AcDbMText
 10
1471.478512960436
 20
3715.000000000002
 30
0.0
 40
37.5
 41
0.0
 46
0.0
 71
     5
 72
     1
  1
150
 11
0.0000000000000001
 21
1.0
 31
0.0
 73
     1
 44
1.0
  0
POINT
  5
2FB8
330
2E71
100
AcDbEntity
  8
Defpoints
 62
     0
100
AcDbPoint
 10
1875.0
 20
3790.000000000001
 30
0.0
  0
POINT
  5
2FB9
330
2E71
100
AcDbEntity
  8
Defpoints
 62
     0
100
AcDbPoint
 10
1725.0
 20
3640.000000000001
 30
0.0
  0
POINT
  5
2FBA
330
2E71
100
AcDbEntity
  8
Defpoints
 62
     0
100
AcDbPoint
 10
1500.0
 20
3640.000000000001
 30
0.0
  0
ENDBLK
  5
2E73
330
2E71
100
AcDbEntity
  8
0
100
AcDbBlockEnd
  0
BLOCK
  5
2E7E
330
2E7D
100
AcDbEntity
  8
0
100
AcDbBlockBegin
  2
*D68
 70
     1
 10
0.0
 20
0.0
 30
0.0
  3
*D68
  1

  0
LINE
  5
2FBB
330
2E7D
100
AcDbEntity
  8
寸法線
 62
     0
440
 16777216
370
    -2
100
AcDbLine
 10
1862.5
 20
3790.000000000001
 30
0.0
 11
1450.0
 21
3790.000000000001
 31
0.0
  0
LINE
  5
2FBC
330
2E7D
100
AcDbEntity
  8
寸法線
 62
     0
440
 16777216
370
    -2
100
AcDbLine
 10
1712.5
 20
3640.000000000001
 30
0.0
 11
1450.0
 21
3640.000000000001
 31
0.0
  0
LINE
  5
2FBD
330
2E7D
100
AcDbEntity
  8
寸法線
 62
     0
440
 16777216
370
    -2
100
AcDbLine
 10
1475.0
 20
3765.000000000001
 30
0.0
 11
1475.0
 21
3665.000000000001
 31
0.0
  0
INSERT
  5
2FBE
330
2E7D
100
AcDbEntity
  8
寸法線
 62
     0
440
 16777216
370
    -2
100
AcDbBlockReference
  2
_Open30
 10
1475.0
 20
3790.000000000001
 30
0.0
 41
25.0
 42
25.0
 43
25.0
 50
90.0
  0
INSERT
  5
2FBF
330
2E7D
100
AcDbEntity
  8
寸法線
 62
     0
440
 16777216
370
    -2
100
AcDbBlockReference
  2
_Open30
 10
1475.0
 20
3640.000000000001
 30
0.0
 41
25.0
 42
25.0
 43
25.0
 50
270.0
  0
MTEXT
  5
2FC0
330
2E7D
100
AcDbEntity
  8
寸法線
 62
     0
440
 16777216
100
AcDbMText
 10
1436.971350613915
 20
3715.000000000002
 30
0.0
 40
50.0
 41
0.0
 46
0.0
 71
     5
 72
     1
  1
150
 11
0.0000000000000001
 21
1.0
 31
0.0
 73
     1
 44
1.0
  0
POINT
  5
2FC1
330
2E7D
100
AcDbEntity
  8
Defpoints
 62
     0
440
 16777216
100
AcDbPoint
 10
1875.0
 20
3790.000000000001
 30
0.0
  0
POINT
  5
2FC2
330
2E7D
100
AcDbEntity
  8
Defpoints
 62
     0
440
 16777216
100
AcDbPoint
 10
1725.0
 20
3640.000000000001
 30
0.0
  0
POINT
  5
2FC3
330
2E7D
100
AcDbEntity
  8
Defpoints
 62
     0
440
 16777216
100
AcDbPoint
 10
1475.0
 20
3640.000000000001
 30
0.0
  0
ENDBLK
  5
2E7F
330
2E7D
100
AcDbEntity
  8
0
100
AcDbBlockEnd
  0
BLOCK
  5
2E8A
330
2E89
100
AcDbEntity
  8
0
100
AcDbBlockBegin
  2
*D69
 70
     1
 10
0.0
 20
0.0
 30
0.0
  3
*D69
  1

  0
LINE
  5
3042
330
2E89
100
AcDbEntity
  8
寸法線
 62
     0
370
    -2
100
AcDbLine
 10
1715.625
 20
3640.000000000001
 30
0.0
 11
1256.25
 21
3640.000000000001
 31
0.0
  0
LINE
  5
3043
330
2E89
100
AcDbEntity
  8
寸法線
 62
     0
370
    -2
100
AcDbLine
 10
1715.625
 20
4390.000000000001
 30
0.0
 11
1256.25
 21
4390.000000000001
 31
0.0
  0
LINE
  5
3044
330
2E89
100
AcDbEntity
  8
寸法線
 62
     0
370
    -2
100
AcDbLine
 10
1275.0
 20
3658.750000000001
 30
0.0
 11
1275.0
 21
4371.250000000001
 31
0.0
  0
INSERT
  5
3045
330
2E89
100
AcDbEntity
  8
寸法線
 62
     0
370
    -2
100
AcDbBlockReference
  2
_Open30
 10
1275.0
 20
3640.000000000001
 30
0.0
 41
18.75
 42
18.75
 43
18.75
 50
270.0
  0
INSERT
  5
3046
330
2E89
100
AcDbEntity
  8
寸法線
 62
     0
370
    -2
100
AcDbBlockReference
  2
_Open30
 10
1275.0
 20
4390.000000000001
 30
0.0
 41
18.75
 42
18.75
 43
18.75
 50
90.0
  0
MTEXT
  5
3047
330
2E89
100
AcDbEntity
  8
寸法線
 62
     0
100
AcDbMText
 10
1246.478512960436
 20
4015.000000000001
 30
0.0
 40
37.5
 41
0.0
 46
0.0
 71
     5
 72
     1
  1
750
 11
0.0000000000000001
 21
1.0
 31
0.0
 73
     1
 44
1.0
  0
POINT
  5
3048
330
2E89
100
AcDbEntity
  8
Defpoints
 62
     0
100
AcDbPoint
 10
1725.0
 20
3640.000000000001
 30
0.0
  0
POINT
  5
3049
330
2E89
100
AcDbEntity
  8
Defpoints
 62
     0
100
AcDbPoint
 10
1725.0
 20
4390.000000000001
 30
0.0
  0
POINT
  5
304A
330
2E89
100
AcDbEntity
  8
Defpoints
 62
     0
100
AcDbPoint
 10
1275.0
 20
4390.000000000001
 30
0.0
  0
ENDBLK
  5
2E8B
330
2E89
100
AcDbEntity
  8
0
100
AcDbBlockEnd
  0
BLOCK
  5
2E96
330
2E95
100
AcDbEntity
  8
0
100
AcDbBlockBegin
  2
*D70
 70
     1
 10
0.0
 20
0.0
 30
0.0
  3
*D70
  1

  0
LINE
  5
304B
330
2E95
100
AcDbEntity
  8
寸法線
 62
     0
440
 16777216
370
    -2
100
AcDbLine
 10
1712.5
 20
3640.000000000001
 30
0.0
 11
1200.0
 21
3640.000000000001
 31
0.0
  0
LINE
  5
304C
330
2E95
100
AcDbEntity
  8
寸法線
 62
     0
440
 16777216
370
    -2
100
AcDbLine
 10
1712.5
 20
4390.000000000001
 30
0.0
 11
1200.0
 21
4390.000000000001
 31
0.0
  0
LINE
  5
304D
330
2E95
100
AcDbEntity
  8
寸法線
 62
     0
440
 16777216
370
    -2
100
AcDbLine
 10
1225.0
 20
3665.000000000001
 30
0.0
 11
1225.0
 21
4365.000000000001
 31
0.0
  0
INSERT
  5
304E
330
2E95
100
AcDbEntity
  8
寸法線
 62
     0
440
 16777216
370
    -2
100
AcDbBlockReference
  2
_Open30
 10
1225.0
 20
3640.000000000001
 30
0.0
 41
25.0
 42
25.0
 43
25.0
 50
270.0
  0
INSERT
  5
304F
330
2E95
100
AcDbEntity
  8
寸法線
 62
     0
440
 16777216
370
    -2
100
AcDbBlockReference
  2
_Open30
 10
1225.0
 20
4390.000000000001
 30
0.0
 41
25.0
 42
25.0
 43
25.0
 50
90.0
  0
MTEXT
  5
3050
330
2E95
100
AcDbEntity
  8
寸法線
 62
     0
440
 16777216
100
AcDbMText
 10
1186.971350613915
 20
4015.000000000001
 30
0.0
 40
50.0
 41
0.0
 46
0.0
 71
     5
 72
     1
  1
750
 11
0.0000000000000001
 21
1.0
 31
0.0
 73
     1
 44
1.0
  0
POINT
  5
3051
330
2E95
100
AcDbEntity
  8
Defpoints
 62
     0
440
 16777216
100
AcDbPoint
 10
1725.0
 20
3640.000000000001
 30
0.0
  0
POINT
  5
3052
330
2E95
100
AcDbEntity
  8
Defpoints
 62
     0
440
 16777216
100
AcDbPoint
 10
1725.0
 20
4390.000000000001
 30
0.0
  0
POINT
  5
3053
330
2E95
100
AcDbEntity
  8
Defpoints
 62
     0
440
 16777216
100
AcDbPoint
 10
1225.0
 20
4390.000000000001
 30
0.0
  0
ENDBLK
  5
2E97
330
2E95
100
AcDbEntity
  8
0
100
AcDbBlockEnd
  0
BLOCK
  5
2EA2
330
2EA1
100
AcDbEntity
  8
0
100
AcDbBlockBegin
  2
*D71
 70
     1
 10
0.0
 20
0.0
 30
0.0
  3
*D71
  1

  0
LINE
  5
2FE8
330
2EA1
100
AcDbEntity
  8
寸法線
 62
     0
370
    -2
100
AcDbLine
 10
1875.0
 20
4249.374999999999
 30
0.0
 11
1875.0
 21
4633.749999999996
 31
0.0
  0
LINE
  5
2FE9
330
2EA1
100
AcDbEntity
  8
寸法線
 62
     0
370
    -2
100
AcDbLine
 10
2325.0
 20
4249.374999999999
 30
0.0
 11
2325.0
 21
4633.749999999996
 31
0.0
  0
LINE
  5
2FEA
330
2EA1
100
AcDbEntity
  8
寸法線
 62
     0
370
    -2
100
AcDbLine
 10
1893.75
 20
4614.999999999996
 30
0.0
 11
2306.25
 21
4614.999999999996
 31
0.0
  0
INSERT
  5
2FEB
330
2EA1
100
AcDbEntity
  8
寸法線
 62
     0
370
    -2
100
AcDbBlockReference
  2
_Open30
 10
1875.0
 20
4614.999999999996
 30
0.0
 41
18.75
 42
18.75
 43
18.75
 50
180.0
  0
INSERT
  5
2FEC
330
2EA1
100
AcDbEntity
  8
寸法線
 62
     0
370
    -2
100
AcDbBlockReference
  2
_Open30
 10
2325.0
 20
4614.999999999996
 30
0.0
 41
18.75
 42
18.75
 43
18.75
  0
MTEXT
  5
2FED
330
2EA1
100
AcDbEntity
  8
寸法線
 62
     0
100
AcDbMText
 10
2100.0
 20
4643.521487039559
 30
0.0
 40
37.5
 41
0.0
 46
0.0
 71
     5
 72
     1
  1
450
 73
     1
 44
1.0
  0
POINT
  5
2FEE
330
2EA1
100
AcDbEntity
  8
Defpoints
 62
     0
100
AcDbPoint
 10
1875.0
 20
4240.0
 30
0.0
  0
POINT
  5
2FEF
330
2EA1
100
AcDbEntity
  8
Defpoints
 62
     0
100
AcDbPoint
 10
2325.0
 20
4240.0
 30
0.0
  0
POINT
  5
2FF0
330
2EA1
100
AcDbEntity
  8
Defpoints
 62
     0
100
AcDbPoint
 10
2325.0
 20
4614.999999999996
 30
0.0
  0
ENDBLK
  5
2EA3
330
2EA1
100
AcDbEntity
  8
0
100
AcDbBlockEnd
  0
BLOCK
  5
2EAE
330
2EAD
100
AcDbEntity
  8
0
100
AcDbBlockBegin
  2
*D72
 70
     1
 10
0.0
 20
0.0
 30
0.0
  3
*D72
  1

  0
LINE
  5
2FF1
330
2EAD
100
AcDbEntity
  8
寸法線
 62
     0
440
 16777216
370
    -2
100
AcDbLine
 10
1875.0
 20
4252.5
 30
0.0
 11
1875.0
 21
4664.999999999996
 31
0.0
  0
LINE
  5
2FF2
330
2EAD
100
AcDbEntity
  8
寸法線
 62
     0
440
 16777216
370
    -2
100
AcDbLine
 10
2325.0
 20
4252.5
 30
0.0
 11
2325.0
 21
4664.999999999996
 31
0.0
  0
LINE
  5
2FF3
330
2EAD
100
AcDbEntity
  8
寸法線
 62
     0
440
 16777216
370
    -2
100
AcDbLine
 10
1900.0
 20
4639.999999999996
 30
0.0
 11
2300.0
 21
4639.999999999996
 31
0.0
  0
INSERT
  5
2FF4
330
2EAD
100
AcDbEntity
  8
寸法線
 62
     0
440
 16777216
370
    -2
100
AcDbBlockReference
  2
_Open30
 10
1875.0
 20
4639.999999999996
 30
0.0
 41
25.0
 42
25.0
 43
25.0
 50
180.0
  0
INSERT
  5
2FF5
330
2EAD
100
AcDbEntity
  8
寸法線
 62
     0
440
 16777216
370
    -2
100
AcDbBlockReference
  2
_Open30
 10
2325.0
 20
4639.999999999996
 30
0.0
 41
25.0
 42
25.0
 43
25.0
  0
MTEXT
  5
2FF6
330
2EAD
100
AcDbEntity
  8
寸法線
 62
     0
440
 16777216
100
AcDbMText
 10
2100.0
 20
4678.028649386081
 30
0.0
 40
50.0
 41
0.0
 46
0.0
 71
     5
 72
     1
  1
450
 73
     1
 44
1.0
  0
POINT
  5
2FF7
330
2EAD
100
AcDbEntity
  8
Defpoints
 62
     0
440
 16777216
100
AcDbPoint
 10
1875.0
 20
4240.0
 30
0.0
  0
POINT
  5
2FF8
330
2EAD
100
AcDbEntity
  8
Defpoints
 62
     0
440
 16777216
100
AcDbPoint
 10
2325.0
 20
4240.0
 30
0.0
  0
POINT
  5
2FF9
330
2EAD
100
AcDbEntity
  8
Defpoints
 62
     0
440
 16777216
100
AcDbPoint
 10
2325.0
 20
4639.999999999996
 30
0.0
  0
ENDBLK
  5
2EAF
330
2EAD
100
AcDbEntity
  8
0
100
AcDbBlockEnd
  0
BLOCK
  5
2EBA
330
2EB9
100
AcDbEntity
  8
0
100
AcDbBlockBegin
  2
*D73
 70
     1
 10
0.0
 20
0.0
 30
0.0
  3
*D73
  1

  0
LINE
  5
2FD6
330
2EB9
100
AcDbEntity
  8
寸法線
 62
     0
370
    -2
100
AcDbLine
 10
1865.625
 20
4240.0
 30
0.0
 11
1481.25
 21
4240.0
 31
0.0
  0
LINE
  5
2FD7
330
2EB9
100
AcDbEntity
  8
寸法線
 62
     0
370
    -2
100
AcDbLine
 10
1865.625
 20
3790.000000000001
 30
0.0
 11
1481.25
 21
3790.000000000001
 31
0.0
  0
LINE
  5
2FD8
330
2EB9
100
AcDbEntity
  8
寸法線
 62
     0
370
    -2
100
AcDbLine
 10
1500.0
 20
4221.25
 30
0.0
 11
1500.0
 21
3808.750000000001
 31
0.0
  0
INSERT
  5
2FD9
330
2EB9
100
AcDbEntity
  8
寸法線
 62
     0
370
    -2
100
AcDbBlockReference
  2
_Open30
 10
1500.0
 20
4240.0
 30
0.0
 41
18.75
 42
18.75
 43
18.75
 50
90.0
  0
INSERT
  5
2FDA
330
2EB9
100
AcDbEntity
  8
寸法線
 62
     0
370
    -2
100
AcDbBlockReference
  2
_Open30
 10
1500.0
 20
3790.000000000001
 30
0.0
 41
18.75
 42
18.75
 43
18.75
 50
270.0
  0
MTEXT
  5
2FDB
330
2EB9
100
AcDbEntity
  8
寸法線
 62
     0
100
AcDbMText
 10
1471.478512960436
 20
4015.000000000001
 30
0.0
 40
37.5
 41
0.0
 46
0.0
 71
     5
 72
     1
  1
450
 11
0.0000000000000001
 21
1.0
 31
0.0
 73
     1
 44
1.0
  0
POINT
  5
2FDC
330
2EB9
100
AcDbEntity
  8
Defpoints
 62
     0
100
AcDbPoint
 10
1875.0
 20
4240.0
 30
0.0
  0
POINT
  5
2FDD
330
2EB9
100
AcDbEntity
  8
Defpoints
 62
     0
100
AcDbPoint
 10
1875.0
 20
3790.000000000001
 30
0.0
  0
POINT
  5
2FDE
330
2EB9
100
AcDbEntity
  8
Defpoints
 62
     0
100
AcDbPoint
 10
1500.0
 20
3790.000000000001
 30
0.0
  0
ENDBLK
  5
2EBB
330
2EB9
100
AcDbEntity
  8
0
100
AcDbBlockEnd
  0
BLOCK
  5
2EC6
330
2EC5
100
AcDbEntity
  8
0
100
AcDbBlockBegin
  2
*D74
 70
     1
 10
0.0
 20
0.0
 30
0.0
  3
*D74
  1

  0
LINE
  5
2FDF
330
2EC5
100
AcDbEntity
  8
寸法線
 62
     0
440
 16777216
370
    -2
100
AcDbLine
 10
1862.5
 20
4240.0
 30
0.0
 11
1450.000000000001
 21
4240.0
 31
0.0
  0
LINE
  5
2FE0
330
2EC5
100
AcDbEntity
  8
寸法線
 62
     0
440
 16777216
370
    -2
100
AcDbLine
 10
1862.5
 20
3790.000000000001
 30
0.0
 11
1450.000000000001
 21
3790.000000000001
 31
0.0
  0
LINE
  5
2FE1
330
2EC5
100
AcDbEntity
  8
寸法線
 62
     0
440
 16777216
370
    -2
100
AcDbLine
 10
1475.000000000001
 20
4215.0
 30
0.0
 11
1475.000000000001
 21
3815.000000000001
 31
0.0
  0
INSERT
  5
2FE2
330
2EC5
100
AcDbEntity
  8
寸法線
 62
     0
440
 16777216
370
    -2
100
AcDbBlockReference
  2
_Open30
 10
1475.000000000001
 20
4240.0
 30
0.0
 41
25.0
 42
25.0
 43
25.0
 50
90.0
  0
INSERT
  5
2FE3
330
2EC5
100
AcDbEntity
  8
寸法線
 62
     0
440
 16777216
370
    -2
100
AcDbBlockReference
  2
_Open30
 10
1475.000000000001
 20
3790.000000000001
 30
0.0
 41
25.0
 42
25.0
 43
25.0
 50
270.0
  0
MTEXT
  5
2FE4
330
2EC5
100
AcDbEntity
  8
寸法線
 62
     0
440
 16777216
100
AcDbMText
 10
1436.971350613915
 20
4015.000000000001
 30
0.0
 40
50.0
 41
0.0
 46
0.0
 71
     5
 72
     1
  1
450
 11
0.0000000000000001
 21
1.0
 31
0.0
 73
     1
 44
1.0
  0
POINT
  5
2FE5
330
2EC5
100
AcDbEntity
  8
Defpoints
 62
     0
440
 16777216
100
AcDbPoint
 10
1875.0
 20
4240.0
 30
0.0
  0
POINT
  5
2FE6
330
2EC5
100
AcDbEntity
  8
Defpoints
 62
     0
440
 16777216
100
AcDbPoint
 10
1875.0
 20
3790.000000000001
 30
0.0
  0
POINT
  5
2FE7
330
2EC5
100
AcDbEntity
  8
Defpoints
 62
     0
440
 16777216
100
AcDbPoint
 10
1475.000000000001
 20
3790.000000000001
 30
0.0
  0
ENDBLK
  5
2EC7
330
2EC5
100
AcDbEntity
  8
0
100
AcDbBlockEnd
  0
BLOCK
  5
2ED2
330
2ED1
100
AcDbEntity
  8
0
100
AcDbBlockBegin
  2
*D75
 70
     1
 10
0.0
 20
0.0
 30
0.0
  3
*D75
  1

  0
LINE
  5
2ED4
330
2ED1
100
AcDbEntity
  8
寸法線
 62
     0
440
 16777216
370
    -2
100
AcDbLine
 10
1712.5
 20
1669.999999999999
 30
0.0
 11
1199.999999999997
 21
1669.999999999999
 31
0.0
  0
LINE
  5
2ED5
330
2ED1
100
AcDbEntity
  8
寸法線
 62
     0
440
 16777216
370
    -2
100
AcDbLine
 10
1712.499999999999
 20
2669.999999999999
 30
0.0
 11
1199.999999999998
 21
2669.999999999999
 31
0.0
  0
LINE
  5
2ED6
330
2ED1
100
AcDbEntity
  8
寸法線
 62
     0
440
 16777216
370
    -2
100
AcDbLine
 10
1224.999999999998
 20
1694.999999999999
 30
0.0
 11
1224.999999999998
 21
2645.0
 31
0.0
  0
INSERT
  5
2ED7
330
2ED1
100
AcDbEntity
  8
寸法線
 62
     0
440
 16777216
370
    -2
100
AcDbBlockReference
  2
_Open30
 10
1224.999999999998
 20
1669.999999999999
 30
0.0
 41
25.0
 42
25.0
 43
25.0
 50
270.0
  0
INSERT
  5
2ED8
330
2ED1
100
AcDbEntity
  8
寸法線
 62
     0
440
 16777216
370
    -2
100
AcDbBlockReference
  2
_Open30
 10
1224.999999999998
 20
2669.999999999999
 30
0.0
 41
25.0
 42
25.0
 43
25.0
 50
90.0
  0
MTEXT
  5
2ED9
330
2ED1
100
AcDbEntity
  8
寸法線
 62
     0
440
 16777216
100
AcDbMText
 10
1186.971350613913
 20
2169.999999999999
 30
0.0
 40
50.0
 41
0.0
 46
0.0
 71
     5
 72
     1
  1
1000
 11
0.0000000000000001
 21
1.0
 31
0.0
 73
     1
 44
1.0
  0
POINT
  5
2EDA
330
2ED1
100
AcDbEntity
  8
Defpoints
 62
     0
440
 16777216
100
AcDbPoint
 10
1725.0
 20
1669.999999999999
 30
0.0
  0
POINT
  5
2EDB
330
2ED1
100
AcDbEntity
  8
Defpoints
 62
     0
440
 16777216
100
AcDbPoint
 10
1724.999999999999
 20
2669.999999999999
 30
0.0
  0
POINT
  5
2EDC
330
2ED1
100
AcDbEntity
  8
Defpoints
 62
     0
440
 16777216
100
AcDbPoint
 10
1224.999999999998
 20
2669.999999999999
 30
0.0
  0
ENDBLK
  5
2ED3
330
2ED1
100
AcDbEntity
  8
0
100
AcDbBlockEnd
  0
BLOCK
  5
2EDE
330
2EDD
100
AcDbEntity
  8
0
100
AcDbBlockBegin
  2
*D76
 70
     1
 10
0.0
 20
0.0
 30
0.0
  3
*D76
  1

  0
LINE
  5
2F73
330
2EDD
100
AcDbEntity
  8
寸法線
 62
     0
440
 16777216
370
    -2
100
AcDbLine
 10
1875.0
 20
1657.499999999999
 30
0.0
 11
1875.0
 21
1395.0
 31
0.0
  0
LINE
  5
2F74
330
2EDD
100
AcDbEntity
  8
寸法線
 62
     0
440
 16777216
370
    -2
100
AcDbLine
 10
1725.0
 20
1657.499999999999
 30
0.0
 11
1725.0
 21
1395.0
 31
0.0
  0
LINE
  5
2F75
330
2EDD
100
AcDbEntity
  8
寸法線
 62
     0
440
 16777216
370
    -2
100
AcDbLine
 10
1850.0
 20
1420.0
 30
0.0
 11
1750.0
 21
1420.0
 31
0.0
  0
INSERT
  5
2F76
330
2EDD
100
AcDbEntity
  8
寸法線
 62
     0
440
 16777216
370
    -2
100
AcDbBlockReference
  2
_Open30
 10
1875.0
 20
1420.0
 30
0.0
 41
25.0
 42
25.0
 43
25.0
  0
INSERT
  5
2F77
330
2EDD
100
AcDbEntity
  8
寸法線
 62
     0
440
 16777216
370
    -2
100
AcDbBlockReference
  2
_Open30
 10
1725.0
 20
1420.0
 30
0.0
 41
25.0
 42
25.0
 43
25.0
 50
180.0
  0
MTEXT
  5
2F78
330
2EDD
100
AcDbEntity
  8
寸法線
 62
     0
440
 16777216
100
AcDbMText
 10
1800.0
 20
1458.028649386085
 30
0.0
 40
50.0
 41
0.0
 46
0.0
 71
     5
 72
     1
  1
150
 73
     1
 44
1.0
  0
POINT
  5
2F79
330
2EDD
100
AcDbEntity
  8
Defpoints
 62
     0
440
 16777216
100
AcDbPoint
 10
1875.0
 20
1669.999999999999
 30
0.0
  0
POINT
  5
2F7A
330
2EDD
100
AcDbEntity
  8
Defpoints
 62
     0
440
 16777216
100
AcDbPoint
 10
1725.0
 20
1669.999999999999
 30
0.0
  0
POINT
  5
2F7B
330
2EDD
100
AcDbEntity
  8
Defpoints
 62
     0
440
 16777216
100
AcDbPoint
 10
1725.0
 20
1420.0
 30
0.0
  0
ENDBLK
  5
2EDF
330
2EDD
100
AcDbEntity
  8
0
100
AcDbBlockEnd
  0
BLOCK
  5
2EEA
330
2EE9
100
AcDbEntity
  8
0
100
AcDbBlockBegin
  2
*D77
 70
     1
 10
0.0
 20
0.0
 30
0.0
  3
*D77
  1

  0
LINE
  5
2F7C
330
2EE9
100
AcDbEntity
  8
寸法線
 62
     0
440
 16777216
370
    -2
100
AcDbLine
 10
1875.0
 20
1657.499999999999
 30
0.0
 11
1875.0
 21
1395.0
 31
0.0
  0
LINE
  5
2F7D
330
2EE9
100
AcDbEntity
  8
寸法線
 62
     0
440
 16777216
370
    -2
100
AcDbLine
 10
2325.0
 20
1657.5
 30
0.0
 11
2325.0
 21
1395.0
 31
0.0
  0
LINE
  5
2F7E
330
2EE9
100
AcDbEntity
  8
寸法線
 62
     0
440
 16777216
370
    -2
100
AcDbLine
 10
1900.0
 20
1420.0
 30
0.0
 11
2300.0
 21
1420.0
 31
0.0
  0
INSERT
  5
2F7F
330
2EE9
100
AcDbEntity
  8
寸法線
 62
     0
440
 16777216
370
    -2
100
AcDbBlockReference
  2
_Open30
 10
1875.0
 20
1420.0
 30
0.0
 41
25.0
 42
25.0
 43
25.0
 50
180.0
  0
INSERT
  5
2F80
330
2EE9
100
AcDbEntity
  8
寸法線
 62
     0
440
 16777216
370
    -2
100
AcDbBlockReference
  2
_Open30
 10
2325.0
 20
1420.0
 30
0.0
 41
25.0
 42
25.0
 43
25.0
  0
MTEXT
  5
2F81
330
2EE9
100
AcDbEntity
  8
寸法線
 62
     0
440
 16777216
100
AcDbMText
 10
2100.0
 20
1458.028649386084
 30
0.0
 40
50.0
 41
0.0
 46
0.0
 71
     5
 72
     1
  1
450
 73
     1
 44
1.0
  0
POINT
  5
2F82
330
2EE9
100
AcDbEntity
  8
Defpoints
 62
     0
440
 16777216
100
AcDbPoint
 10
1875.0
 20
1669.999999999999
 30
0.0
  0
POINT
  5
2F83
330
2EE9
100
AcDbEntity
  8
Defpoints
 62
     0
440
 16777216
100
AcDbPoint
 10
2325.0
 20
1670.0
 30
0.0
  0
POINT
  5
2F84
330
2EE9
100
AcDbEntity
  8
Defpoints
 62
     0
440
 16777216
100
AcDbPoint
 10
2325.0
 20
1420.0
 30
0.0
  0
ENDBLK
  5
2EEB
330
2EE9
100
AcDbEntity
  8
0
100
AcDbBlockEnd
  0
BLOCK
  5
2EF6
330
2EF5
100
AcDbEntity
  8
0
100
AcDbBlockBegin
  2
*D78
 70
     1
 10
0.0
 20
0.0
 30
0.0
  3
*D78
  1

  0
LINE
  5
2FFA
330
2EF5
100
AcDbEntity
  8
寸法線
 62
     0
370
    -2
100
AcDbLine
 10
2325.0
 20
4249.374999999999
 30
0.0
 11
2325.0
 21
4633.75
 31
0.0
  0
LINE
  5
2FFB
330
2EF5
100
AcDbEntity
  8
寸法線
 62
     0
370
    -2
100
AcDbLine
 10
2475.0
 20
4399.375
 30
0.0
 11
2475.0
 21
4633.75
 31
0.0
  0
LINE
  5
2FFC
330
2EF5
100
AcDbEntity
  8
寸法線
 62
     0
370
    -2
100
AcDbLine
 10
2343.75
 20
4615.0
 30
0.0
 11
2456.25
 21
4615.0
 31
0.0
  0
INSERT
  5
2FFD
330
2EF5
100
AcDbEntity
  8
寸法線
 62
     0
370
    -2
100
AcDbBlockReference
  2
_Open30
 10
2325.0
 20
4615.0
 30
0.0
 41
18.75
 42
18.75
 43
18.75
 50
180.0
  0
INSERT
  5
2FFE
330
2EF5
100
AcDbEntity
  8
寸法線
 62
     0
370
    -2
100
AcDbBlockReference
  2
_Open30
 10
2475.0
 20
4615.0
 30
0.0
 41
18.75
 42
18.75
 43
18.75
  0
MTEXT
  5
2FFF
330
2EF5
100
AcDbEntity
  8
寸法線
 62
     0
100
AcDbMText
 10
2400.0
 20
4643.521487039563
 30
0.0
 40
37.5
 41
0.0
 46
0.0
 71
     5
 72
     1
  1
150
 73
     1
 44
1.0
  0
POINT
  5
3000
330
2EF5
100
AcDbEntity
  8
Defpoints
 62
     0
100
AcDbPoint
 10
2325.0
 20
4240.0
 30
0.0
  0
POINT
  5
3001
330
2EF5
100
AcDbEntity
  8
Defpoints
 62
     0
100
AcDbPoint
 10
2475.0
 20
4390.0
 30
0.0
  0
POINT
  5
3002
330
2EF5
100
AcDbEntity
  8
Defpoints
 62
     0
100
AcDbPoint
 10
2475.0
 20
4615.0
 30
0.0
  0
ENDBLK
  5
2EF7
330
2EF5
100
AcDbEntity
  8
0
100
AcDbBlockEnd
  0
BLOCK
  5
2F02
330
2F01
100
AcDbEntity
  8
0
100
AcDbBlockBegin
  2
*D79
 70
     1
 10
0.0
 20
0.0
 30
0.0
  3
*D79
  1

  0
LINE
  5
3003
330
2F01
100
AcDbEntity
  8
寸法線
 62
     0
440
 16777216
370
    -2
100
AcDbLine
 10
2325.0
 20
4252.5
 30
0.0
 11
2325.0
 21
4665.0
 31
0.0
  0
LINE
  5
3004
330
2F01
100
AcDbEntity
  8
寸法線
 62
     0
440
 16777216
370
    -2
100
AcDbLine
 10
2475.0
 20
4402.499999999999
 30
0.0
 11
2475.0
 21
4665.0
 31
0.0
  0
LINE
  5
3005
330
2F01
100
AcDbEntity
  8
寸法線
 62
     0
440
 16777216
370
    -2
100
AcDbLine
 10
2350.0
 20
4640.0
 30
0.0
 11
2450.0
 21
4640.0
 31
0.0
  0
INSERT
  5
3006
330
2F01
100
AcDbEntity
  8
寸法線
 62
     0
440
 16777216
370
    -2
100
AcDbBlockReference
  2
_Open30
 10
2325.0
 20
4640.0
 30
0.0
 41
25.0
 42
25.0
 43
25.0
 50
180.0
  0
INSERT
  5
3007
330
2F01
100
AcDbEntity
  8
寸法線
 62
     0
440
 16777216
370
    -2
100
AcDbBlockReference
  2
_Open30
 10
2475.0
 20
4640.0
 30
0.0
 41
25.0
 42
25.0
 43
25.0
  0
MTEXT
  5
3008
330
2F01
100
AcDbEntity
  8
寸法線
 62
     0
440
 16777216
100
AcDbMText
 10
2400.0
 20
4678.028649386084
 30
0.0
 40
50.0
 41
0.0
 46
0.0
 71
     5
 72
     1
  1
150
 73
     1
 44
1.0
  0
POINT
  5
3009
330
2F01
100
AcDbEntity
  8
Defpoints
 62
     0
440
 16777216
100
AcDbPoint
 10
2325.0
 20
4240.0
 30
0.0
  0
POINT
  5
300A
330
2F01
100
AcDbEntity
  8
Defpoints
 62
     0
440
 16777216
100
AcDbPoint
 10
2475.0
 20
4390.0
 30
0.0
  0
POINT
  5
300B
330
2F01
100
AcDbEntity
  8
Defpoints
 62
     0
440
 16777216
100
AcDbPoint
 10
2475.0
 20
4640.0
 30
0.0
  0
ENDBLK
  5
2F03
330
2F01
100
AcDbEntity
  8
0
100
AcDbBlockEnd
  0
BLOCK
  5
2F3B
330
2F3A
100
AcDbEntity
  8
0
100
AcDbBlockBegin
  2
*D80
 70
     1
 10
0.0
 20
0.0
 30
0.0
  3
*D80
  1

  0
LINE
  5
2F85
330
2F3A
100
AcDbEntity
  8
寸法線
 62
     0
440
 16777216
370
    -2
100
AcDbLine
 10
2325.0
 20
1657.5
 30
0.0
 11
2325.0
 21
1395.000000000001
 31
0.0
  0
LINE
  5
2F86
330
2F3A
100
AcDbEntity
  8
寸法線
 62
     0
440
 16777216
370
    -2
100
AcDbLine
 10
2475.0
 20
1657.5
 30
0.0
 11
2475.0
 21
1395.000000000001
 31
0.0
  0
LINE
  5
2F87
330
2F3A
100
AcDbEntity
  8
寸法線
 62
     0
440
 16777216
370
    -2
100
AcDbLine
 10
2350.0
 20
1420.000000000001
 30
0.0
 11
2450.0
 21
1420.000000000001
 31
0.0
  0
INSERT
  5
2F88
330
2F3A
100
AcDbEntity
  8
寸法線
 62
     0
440
 16777216
370
    -2
100
AcDbBlockReference
  2
_Open30
 10
2325.0
 20
1420.000000000001
 30
0.0
 41
25.0
 42
25.0
 43
25.0
 50
180.0
  0
INSERT
  5
2F89
330
2F3A
100
AcDbEntity
  8
寸法線
 62
     0
440
 16777216
370
    -2
100
AcDbBlockReference
  2
_Open30
 10
2475.0
 20
1420.000000000001
 30
0.0
 41
25.0
 42
25.0
 43
25.0
  0
MTEXT
  5
2F8A
330
2F3A
100
AcDbEntity
  8
寸法線
 62
     0
440
 16777216
100
AcDbMText
 10
2400.0
 20
1458.028649386086
 30
0.0
 40
50.0
 41
0.0
 46
0.0
 71
     5
 72
     1
  1
150
 73
     1
 44
1.0
  0
POINT
  5
2F8B
330
2F3A
100
AcDbEntity
  8
Defpoints
 62
     0
440
 16777216
100
AcDbPoint
 10
2325.0
 20
1670.0
 30
0.0
  0
POINT
  5
2F8C
330
2F3A
100
AcDbEntity
  8
Defpoints
 62
     0
440
 16777216
100
AcDbPoint
 10
2475.0
 20
1670.0
 30
0.0
  0
POINT
  5
2F8D
330
2F3A
100
AcDbEntity
  8
Defpoints
 62
     0
440
 16777216
100
AcDbPoint
 10
2475.0
 20
1420.000000000001
 30
0.0
  0
ENDBLK
  5
2F3C
330
2F3A
100
AcDbEntity
  8
0
100
AcDbBlockEnd
  0
ENDSEC
  0
SECTION
  2
ENTITIES
  0
LINE
  5
CE2
330
1F
100
AcDbEntity
  8
図面枠
100
AcDbLine
 10
0.0
 20
0.0
 30
0.0
 11
4200.0
 21
0.0
 31
0.0
  0
LINE
  5
CE3
330
1F
100
AcDbEntity
  8
図面枠
100
AcDbLine
 10
0.0
 20
0.0
 30
0.0
 11
0.0
 21
5940.0
 31
0.0
  0
TEXT
  5
1144
102
{ACAD_XDICTIONARY
360
1145
102
}
330
1F
100
AcDbEntity
  8
文字
100
AcDbText
 10
2048.303206002728
 20
1806.990839490288
 30
0.0
 40
25.0
  1
製品名
  7
Annotative
 72
     4
 11
2100.0
 21
1817.904891332034
 31
0.0
100
AcDbText
1001
AcadAnnotative
1000
AnnotativeData
1002
{
1070
     1
1070
     1
1002
}
  0
TEXT
  5
1149
102
{ACAD_XDICTIONARY
360
114A
102
}
330
1F
100
AcDbEntity
  8
文字
100
AcDbText
 10
2573.303206002729
 20
1805.404891332034
 30
0.0
 40
25.0
  1
集水桝
  7
Annotative
 72
     1
 11
2625.0
 21
1817.904891332034
 31
0.0
100
AcDbText
 73
     2
1001
AcadAnnotative
1000
AnnotativeData
1002
{
1070
     1
1070
     1
1002
}
  0
TEXT
  5
114E
102
{ACAD_XDICTIONARY
360
114F
102
}
330
1F
100
AcDbEntity
  8
文字
100
AcDbText
 10
2059.413369713507
 20
1700.404891332034
 30
0.0
 40
25.0
  1
サイズ
  7
Annotative
 72
     1
 11
2100.0
 21
1712.904891332034
 31
0.0
100
AcDbText
 73
     2
1001
AcadAnnotative
1000
AnnotativeData
1002
{
1070
     1
1070
     1
1002
}
  0
TEXT
  5
1153
102
{ACAD_XDICTIONARY
360
1154
102
}
330
1F
100
AcDbEntity
  8
文字
100
AcDbText
 10
2556.531377899045
 20
1700.404891332034
 30
0.0
 40
25.0
  1
450×450
  7
Annotative
 72
     1
 11
2625.0
 21
1712.904891332034
 31
0.0
100
AcDbText
 73
     2
1001
AcadAnnotative
1000
AnnotativeData
1002
{
1070
     1
1070
     1
1002
}
  0
TEXT
  5
1162
102
{ACAD_XDICTIONARY
360
1163
102
}
330
1F
100
AcDbEntity
  8
文字
100
AcDbText
 10
2205.482605729878
 20
1630.404891332034
 30
0.0
 40
25.0
  1
栗本建材株式会社　クリモトコンクリート
  7
Annotative
 72
     1
 11
2475.0
 21
1642.904891332034
 31
0.0
100
AcDbText
 73
     2
1001
AcadAnnotative
1000
AnnotativeData
1002
{
1070
     1
1070
     1
1002
}
  0
LINE
  5
25B6
330
1F
100
AcDbEntity
  8
外形線
100
AcDbLine
 10
1725.0
 20
4390.000000000001
 30
0.0
 11
2475.0
 21
4390.000000000001
 31
0.0
  0
LINE
  5
25B7
330
1F
100
AcDbEntity
  8
外形線
100
AcDbLine
 10
1725.0
 20
3640.000000000001
 30
0.0
 11
2475.0
 21
3640.000000000001
 31
0.0
  0
LINE
  5
25B8
102
{ACAD_REACTORS
330
25D5
330
260E
330
2646
330
266A
330
267C
102
}
330
1F
100
AcDbEntity
  8
外形線
100
AcDbLine
 10
1725.0
 20
4390.000000000001
 30
0.0
 11
1725.0
 21
3640.000000000001
 31
0.0
  0
LINE
  5
25B9
102
{ACAD_REACTORS
330
25FC
330
260E
102
}
330
1F
100
AcDbEntity
  8
外形線
100
AcDbLine
 10
2475.0
 20
3640.000000000001
 30
0.0
 11
2475.0
 21
4390.000000000001
 31
0.0
  0
LINE
  5
25BA
102
{ACAD_REACTORS
330
25D5
330
2658
102
}
330
1F
100
AcDbEntity
  8
外形線
100
AcDbLine
 10
1875.0
 20
4240.0
 30
0.0
 11
2325.0
 21
4240.0
 31
0.0
  0
LINE
  5
25BB
330
1F
100
AcDbEntity
  8
外形線
100
AcDbLine
 10
1875.0
 20
3790.000000000001
 30
0.0
 11
2325.0
 21
3790.000000000001
 31
0.0
  0
LINE
  5
25BC
102
{ACAD_REACTORS
330
25EA
330
25FC
102
}
330
1F
100
AcDbEntity
  8
外形線
100
AcDbLine
 10
2325.0
 20
3790.000000000001
 30
0.0
 11
2325.0
 21
4240.0
 31
0.0
  0
LINE
  5
25BD
102
{ACAD_REACTORS
330
25EA
330
2646
330
2658
330
266A
102
}
330
1F
100
AcDbEntity
  8
外形線
100
AcDbLine
 10
1875.0
 20
4240.0
 30
0.0
 11
1875.0
 21
3790.000000000001
 31
0.0
  0
LINE
  5
25BE
330
1F
100
AcDbEntity
  8
外形線
100
AcDbLine
 10
1825.0
 20
4289.999999999999
 30
0.0
 11
1825.0
 21
3740.000000000002
 31
0.0
  0
LINE
  5
25BF
330
1F
100
AcDbEntity
  8
外形線
100
AcDbLine
 10
1825.0
 20
4289.999999999999
 30
0.0
 11
2375.0
 21
4290.0
 31
0.0
  0
LINE
  5
25C0
330
1F
100
AcDbEntity
  8
外形線
100
AcDbLine
 10
2375.0
 20
3740.000000000001
 30
0.0
 11
2375.0
 21
4290.0
 31
0.0
  0
LINE
  5
25C1
330
1F
100
AcDbEntity
  8
外形線
100
AcDbLine
 10
1825.0
 20
3740.000000000001
 30
0.0
 11
2375.0
 21
3740.000000000001
 31
0.0
  0
DIMENSION
  5
25C4
102
{ACAD_XDICTIONARY
360
25C5
102
}
102
{ACAD_REACTORS
330
25D5
102
}
330
1F
100
AcDbEntity
  8
寸法線
100
AcDbDimension
280
     0
  2
*D61
 10
1725.0
 20
4615.000000000001
 30
0.0
 11
1800.0
 21
4643.521487039564
 31
0.0
 70
    32
 71
     5
 42
150.0
 73
     0
 74
     0
 75
     0
  3
Annotative
100
AcDbAlignedDimension
 13
1875.0
 23
4240.0
 33
0.0
 14
1725.0
 24
4390.000000000001
 34
0.0
100
AcDbRotatedDimension
1001
AcadAnnotative
1000
AnnotativeData
1002
{
1070
     1
1070
     1
1002
}
  0
DIMENSION
  5
25D9
102
{ACAD_XDICTIONARY
360
25DA
102
}
102
{ACAD_REACTORS
330
25EA
102
}
330
1F
100
AcDbEntity
  8
寸法線
100
AcDbDimension
280
     0
  2
*D71
 10
2325.0
 20
4614.999999999996
 30
0.0
 11
2100.0
 21
4643.521487039559
 31
0.0
 70
    32
 71
     5
 42
450.0
 73
     0
 74
     0
 75
     0
  3
Annotative
100
AcDbAlignedDimension
 13
1875.0
 23
4240.0
 33
0.0
 14
2325.0
 24
4240.0
 34
0.0
100
AcDbRotatedDimension
1001
AcadAnnotative
1000
AnnotativeData
1002
{
1070
     1
1070
     1
1002
}
  0
DIMENSION
  5
25EB
102
{ACAD_XDICTIONARY
360
25EC
102
}
102
{ACAD_REACTORS
330
25FC
102
}
330
1F
100
AcDbEntity
  8
寸法線
100
AcDbDimension
280
     0
  2
*D78
 10
2475.0
 20
4615.0
 30
0.0
 11
2400.0
 21
4643.521487039563
 31
0.0
 70
    32
 71
     5
 42
150.0
 73
     0
 74
     0
 75
     0
  3
Annotative
100
AcDbAlignedDimension
 13
2325.0
 23
4240.0
 33
0.0
 14
2475.0
 24
4390.0
 34
0.0
100
AcDbRotatedDimension
1001
AcadAnnotative
1000
AnnotativeData
1002
{
1070
     1
1070
     1
1002
}
  0
DIMENSION
  5
25FD
102
{ACAD_XDICTIONARY
360
25FE
102
}
102
{ACAD_REACTORS
330
260E
102
}
330
1F
100
AcDbEntity
  8
寸法線
100
AcDbDimension
280
     0
  2
*D63
 10
1725.0
 20
4840.0
 30
0.0
 11
2100.0
 21
4868.521487039563
 31
0.0
 70
    32
 71
     5
 42
750.0
 73
     0
 74
     0
 75
     0
  3
Annotative
100
AcDbAlignedDimension
 13
2475.0
 23
4390.000000000001
 33
0.0
 14
1725.0
 24
4390.0
 34
0.0
100
AcDbRotatedDimension
1001
AcadAnnotative
1000
AnnotativeData
1002
{
1070
     1
1070
     1
1002
}
  0
DIMENSION
  5
2635
102
{ACAD_XDICTIONARY
360
2636
102
}
102
{ACAD_REACTORS
330
2646
102
}
330
1F
100
AcDbEntity
  8
寸法線
100
AcDbDimension
280
     0
  2
*D65
 10
1500.0
 20
4390.0
 30
0.0
 11
1471.478512960436
 21
4315.0
 31
0.0
 70
    32
 71
     5
 42
150.0
 73
     0
 74
     0
 75
     0
  3
Annotative
100
AcDbAlignedDimension
 13
1875.0
 23
4240.0
 33
0.0
 14
1725.0
 24
4390.0
 34
0.0
 50
90.0
100
AcDbRotatedDimension
1001
AcadAnnotative
1000
AnnotativeData
1002
{
1070
     1
1070
     1
1002
}
  0
DIMENSION
  5
2647
102
{ACAD_XDICTIONARY
360
2648
102
}
102
{ACAD_REACTORS
330
2658
102
}
330
1F
100
AcDbEntity
  8
寸法線
100
AcDbDimension
280
     0
  2
*D73
 10
1500.0
 20
3790.000000000001
 30
0.0
 11
1471.478512960436
 21
4015.000000000001
 31
0.0
 70
    32
 71
     5
 42
449.9999999999982
 73
     0
 74
     0
 75
     0
  3
Annotative
100
AcDbAlignedDimension
 13
1875.0
 23
4240.0
 33
0.0
 14
1875.0
 24
3790.000000000001
 34
0.0
 50
90.0
100
AcDbRotatedDimension
1001
AcadAnnotative
1000
AnnotativeData
1002
{
1070
     1
1070
     1
1002
}
  0
DIMENSION
  5
2659
102
{ACAD_XDICTIONARY
360
265A
102
}
102
{ACAD_REACTORS
330
266A
102
}
330
1F
100
AcDbEntity
  8
寸法線
100
AcDbDimension
280
     0
  2
*D67
 10
1500.0
 20
3640.000000000001
 30
0.0
 11
1471.478512960436
 21
3715.000000000002
 31
0.0
 70
    32
 71
     5
 42
150.0
 73
     0
 74
     0
 75
     0
  3
Annotative
100
AcDbAlignedDimension
 13
1875.0
 23
3790.000000000001
 33
0.0
 14
1725.0
 24
3640.000000000001
 34
0.0
 50
90.0
100
AcDbRotatedDimension
1001
AcadAnnotative
1000
AnnotativeData
1002
{
1070
     1
1070
     1
1002
}
  0
DIMENSION
  5
266B
102
{ACAD_XDICTIONARY
360
266C
102
}
102
{ACAD_REACTORS
330
267C
102
}
330
1F
100
AcDbEntity
  8
寸法線
100
AcDbDimension
280
     0
  2
*D69
 10
1275.0
 20
4390.000000000001
 30
0.0
 11
1246.478512960436
 21
4015.000000000001
 31
0.0
 70
    32
 71
     5
 42
749.9999999999991
 73
     0
 74
     0
 75
     0
  3
Annotative
100
AcDbAlignedDimension
 13
1725.0
 23
3640.000000000001
 33
0.0
 14
1725.0
 24
4390.000000000001
 34
0.0
 50
90.0
100
AcDbRotatedDimension
1001
AcadAnnotative
1000
AnnotativeData
1002
{
1070
     1
1070
     1
1002
}
  0
LINE
  5
2734
330
1F
100
AcDbEntity
  8
図面枠
100
AcDbLine
 10
4200.0
 20
0.0
 30
0.0
 11
4200.0
 21
5940.0
 31
0.0
  0
LINE
  5
2735
330
1F
100
AcDbEntity
  8
図面枠
100
AcDbLine
 10
0.0
 20
5940.0
 30
0.0
 11
4200.0
 21
5940.0
 31
0.0
  0
LINE
  5
2736
330
1F
100
AcDbEntity
  8
図面枠
100
AcDbLine
 10
200.0
 20
5740.0
 30
0.0
 11
4000.0
 21
5740.0
 31
0.0
  0
LINE
  5
2737
330
1F
100
AcDbEntity
  8
図面枠
100
AcDbLine
 10
200.0
 20
200.0
 30
0.0
 11
200.0
 21
5740.0
 31
0.0
  0
LINE
  5
2738
330
1F
100
AcDbEntity
  8
図面枠
100
AcDbLine
 10
4000.0
 20
200.0
 30
0.0
 11
4000.0
 21
5740.0
 31
0.0
  0
LINE
  5
2739
330
1F
100
AcDbEntity
  8
図面枠
100
AcDbLine
 10
200.0
 20
200.0
 30
0.0
 11
4000.0
 21
200.0
 31
0.0
  0
LINE
  5
27E0
330
1F
100
AcDbEntity
  8
タイトル枠
100
AcDbLine
 10
2600.0
 20
200.0
 30
0.0
 11
4000.0
 21
200.0
 31
0.0
  0
LINE
  5
27E1
330
1F
100
AcDbEntity
  8
タイトル枠
100
AcDbLine
 10
4000.0
 20
200.0
 30
0.0
 11
4000.0
 21
620.0
 31
0.0
  0
LINE
  5
27E3
330
1F
100
AcDbEntity
  8
タイトル枠
100
AcDbLine
 10
2600.0
 20
620.0
 30
0.0
 11
2600.0
 21
200.0
 31
0.0
  0
LINE
  5
27E4
330
1F
100
AcDbEntity
  8
タイトル枠
100
AcDbLine
 10
3000.0
 20
340.0
 30
0.0
 11
3000.0
 21
620.0
 31
0.0
  0
LINE
  5
27E5
330
1F
100
AcDbEntity
  8
タイトル枠
100
AcDbLine
 10
4000.0
 20
620.0
 30
0.0
 11
2600.0
 21
620.0
 31
0.0
  0
LINE
  5
27E6
330
1F
100
AcDbEntity
  8
タイトル枠
100
AcDbLine
 10
4000.0
 20
480.0
 30
0.0
 11
2600.0
 21
480.0
 31
0.0
  0
LINE
  5
27E7
330
1F
100
AcDbEntity
  8
タイトル枠
100
AcDbLine
 10
4000.0
 20
340.0
 30
0.0
 11
2600.0
 21
340.0
 31
0.0
  0
LINE
  5
28D5
102
{ACAD_REACTORS
330
292B
102
}
330
1F
100
AcDbEntity
  8
外形線
100
AcDbLine
 10
1724.999999999999
 20
2669.999999999999
 30
0.0
 11
1725.0
 21
1669.999999999999
 31
0.0
  0
LINE
  5
28D6
330
1F
100
AcDbEntity
  8
外形線
100
AcDbLine
 10
2475.0
 20
2670.0
 30
0.0
 11
2475.0
 21
1670.0
 31
0.0
  0
LINE
  5
28D7
102
{ACAD_REACTORS
330
28F5
330
2907
330
2919
102
}
330
1F
100
AcDbEntity
  8
外形線
100
AcDbLine
 10
2475.0
 20
1670.0
 30
0.0
 11
1725.0
 21
1669.999999999999
 31
0.0
  0
LINE
  5
28D9
330
1F
100
AcDbEntity
  8
外形線
100
AcDbLine
 10
2475.0
 20
2670.0
 30
0.0
 11
1724.999999999999
 21
2669.999999999999
 31
0.0
  0
LINE
  5
28DF
330
1F
100
AcDbEntity
  8
隠れ線
100
AcDbLine
 10
1824.999999999999
 20
2669.999999999999
 30
0.0
 11
1824.999999999999
 21
2619.999999999999
 31
0.0
  0
LINE
  5
28E0
330
1F
100
AcDbEntity
  8
隠れ線
100
AcDbLine
 10
1824.999999999999
 20
2620.0
 30
0.0
 11
2375.0
 21
2620.0
 31
0.0
  0
LINE
  5
28E1
330
1F
100
AcDbEntity
  8
隠れ線
100
AcDbLine
 10
2375.0
 20
2620.0
 30
0.0
 11
2375.0
 21
2670.0
 31
0.0
  0
LINE
  5
28E2
102
{ACAD_REACTORS
330
2907
330
2919
102
}
330
1F
100
AcDbEntity
  8
隠れ線
100
AcDbLine
 10
2325.0
 20
2620.0
 30
0.0
 11
2325.0
 21
1670.0
 31
0.0
  0
LINE
  5
28E3
102
{ACAD_REACTORS
330
28F5
330
2907
102
}
330
1F
100
AcDbEntity
  8
隠れ線
100
AcDbLine
 10
1875.0
 20
2619.999999999999
 30
0.0
 11
1875.0
 21
1669.999999999999
 31
0.0
  0
DIMENSION
  5
28E4
102
{ACAD_XDICTIONARY
360
28E5
102
}
102
{ACAD_REACTORS
330
28F5
102
}
330
1F
100
AcDbEntity
  8
寸法線
100
AcDbDimension
280
     0
  2
*D76
 10
1725.0
 20
1420.0
 30
0.0
 11
1800.0
 21
1458.028649386085
 31
0.0
 70
    32
 71
     5
 42
150.0
 73
     0
 74
     0
 75
     0
  3
Annotative
100
AcDbAlignedDimension
 13
1875.0
 23
1669.999999999999
 33
0.0
 14
1725.0
 24
1669.999999999999
 34
0.0
100
AcDbRotatedDimension
1001
AcadAnnotative
1000
AnnotativeData
1002
{
1070
     1
1070
     1
1002
}
  0
DIMENSION
  5
28F6
102
{ACAD_XDICTIONARY
360
28F7
102
}
102
{ACAD_REACTORS
330
2907
102
}
330
1F
100
AcDbEntity
  8
寸法線
100
AcDbDimension
280
     0
  2
*D77
 10
2325.0
 20
1420.0
 30
0.0
 11
2100.0
 21
1458.028649386084
 31
0.0
 70
    32
 71
     5
 42
450.0
 73
     0
 74
     0
 75
     0
  3
Annotative
100
AcDbAlignedDimension
 13
1875.0
 23
1669.999999999999
 33
0.0
 14
2325.0
 24
1670.0
 34
0.0
100
AcDbRotatedDimension
1001
AcadAnnotative
1000
AnnotativeData
1002
{
1070
     1
1070
     1
1002
}
  0
DIMENSION
  5
2908
102
{ACAD_XDICTIONARY
360
2909
102
}
102
{ACAD_REACTORS
330
2919
102
}
330
1F
100
AcDbEntity
  8
寸法線
100
AcDbDimension
280
     0
  2
*D80
 10
2475.0
 20
1420.000000000001
 30
0.0
 11
2400.0
 21
1458.028649386086
 31
0.0
 70
    32
 71
     5
 42
150.0
 73
     0
 74
     0
 75
     0
  3
Annotative
100
AcDbAlignedDimension
 13
2325.0
 23
1670.0
 33
0.0
 14
2475.0
 24
1670.0
 34
0.0
100
AcDbRotatedDimension
1001
AcadAnnotative
1000
AnnotativeData
1002
{
1070
     1
1070
     1
1002
}
  0
DIMENSION
  5
291A
102
{ACAD_XDICTIONARY
360
291B
102
}
102
{ACAD_REACTORS
330
292B
102
}
330
1F
100
AcDbEntity
  8
寸法線
100
AcDbDimension
280
     0
  2
*D75
 10
1224.999999999998
 20
2669.999999999999
 30
0.0
 11
1186.971350613913
 21
2169.999999999999
 31
0.0
 70
    32
 71
     5
 42
1000.0
 73
     0
 74
     0
 75
     0
  3
Annotative
100
AcDbAlignedDimension
 13
1725.0
 23
1669.999999999999
 33
0.0
 14
1724.999999999999
 24
2669.999999999999
 34
0.0
 50
90.0
100
AcDbRotatedDimension
1001
AcadAnnotative
1000
AnnotativeData
1002
{
1070
     1
1070
     1
1002
}
  0
LEADER
  5
29E0
102
{ACAD_XDICTIONARY
360
29E1
102
}
330
1F
100
AcDbEntity
  8
文字
100
AcDbLeader
  3
Annotative
 76
     2
 10
2315.371315563486
 20
2647.403018668419
 30
0.0
 10
2478.447835937793
 20
2882.024124771089
 30
0.0
1001
ACAD
1000
DSTYLE
1002
{
1070
    40
1040
0.0
1070
   147
1040
0.625
1070
    77
1070
     0
1002
}
1001
AcadAnnotative
1000
AnnotativeData
1002
{
1070
     1
1070
     1
1002
}
  0
LINE
  5
29E6
330
1F
100
AcDbEntity
  8
文字
100
AcDbLine
 10
2478.447835937793
 20
2882.024124771089
 30
0.0
 11
2807.623106087408
 21
2882.024124771089
 31
0.0
  0
TEXT
  5
29E7
102
{ACAD_XDICTIONARY
360
29E8
102
}
330
1F
100
AcDbEntity
  8
文字
100
AcDbText
 10
2478.447835937793
 20
2896.826307581457
 30
0.0
 40
50.0
  1
グレーチング
  7
Annotative
 11
2478.447835937793
 21
2882.024124771089
 31
0.0
100
AcDbText
 73
     1
1001
AcadAnnotative
1000
AnnotativeData
1002
{
1070
     1
1070
     1
1002
}
  0
VIEWPORT
  5
2A05
102
{ACAD_XDICTIONARY
360
2A06
102
}
330
29FE
100
AcDbEntity
 67
     1
  8
0
348
F5
100
AcDbViewport
 10
99.95958089828492
 20
143.435911655426
 30
0.0
 40
502.0491321536623
 41
314.1477025756836
 68
     1
 69
     1
 12
99.95958089828492
 22
143.435911655426
 13
0.0
 23
0.0
 14
10.0
 24
10.0
 15
10.0
 25
10.0
 16
0.0
 26
0.0
 36
1.0
 17
0.0
 27
0.0
 37
0.0
 42
50.0
 43
0.0
 44
0.0
 45
314.1477025756836
 50
0.0
 51
0.0
 72
  1000
 90
   557088
  1

281
     0
 71
     1
 74
     0
110
0.0
120
0.0
130
0.0
111
1.0
121
0.0
131
0.0
112
0.0
122
1.0
132
0.0
 79
     0
146
0.0
170
     0
 61
     5
292
     1
282
     1
141
0.0
142
0.0
 63
   250
421
  3355443
  0
VIEWPORT
  5
2A09
102
{ACAD_XDICTIONARY
360
2A0A
102
}
330
29FE
100
AcDbEntity
 67
     1
  8
文字
348
F5
100
AcDbViewport
 10
100.0
 20
143.5
 30
0.0
 40
210.0
 41
297.0
 68
     2
 69
     2
 12
2100.0
 22
2970.0
 13
0.0
 23
0.0
 14
10.0
 24
10.0
 15
10.0
 25
10.0
 16
0.0
 26
0.0
 36
1.0
 17
0.0
 27
0.0
 37
0.0
 42
50.0
 43
0.0
 44
0.0
 45
6011.28
 50
0.0
 51
0.0
 72
  1000
 90
   819808
  1

281
     0
 71
     1
 74
     0
110
0.0
120
0.0
130
0.0
111
1.0
121
0.0
131
0.0
112
0.0
122
1.0
132
0.0
 79
     0
146
0.0
170
     0
 61
     5
292
     1
282
     1
141
0.0
142
0.0
 63
   250
421
  3355443
  0
ENDSEC
  0
SECTION
  2
OBJECTS
  0
DICTIONARY
  5
C
330
0
100
AcDbDictionary
281
     1
  3
ACAD_CIP_PREVIOUS_PRODUCT_INFO
350
216
  3
ACAD_COLOR
350
6B
  3
ACAD_DETAILVIEWSTYLE
350
21B
  3
ACAD_GROUP
350
D
  3
ACAD_LAYOUT
350
1A
  3
ACAD_MATERIAL
350
6A
  3
ACAD_MLEADERSTYLE
350
12D
  3
ACAD_MLINESTYLE
350
17
  3
ACAD_PLOTSETTINGS
350
19
  3
ACAD_PLOTSTYLENAME
350
E
  3
ACAD_SCALELIST
350
10C
  3
ACAD_SECTIONVIEWSTYLE
350
219
  3
ACAD_TABLESTYLE
350
7E
  3
ACAD_VISUALSTYLE
350
EF
  3
ACDB_RECOMPOSE_DATA
350
3056
  3
AcDbVariableDictionary
350
5E
  0
DICTIONARY
  5
1FF
330
2
100
AcDbDictionary
280
     1
281
     1
  3
ACAD_LAYERSTATES
360
200
  0
DICTIONARY
  5
13C
330
10
100
AcDbDictionary
280
     1
281
     1
  0
DICTIONARY
  5
1CE
330
1F
100
AcDbDictionary
280
     1
281
     1
  3
ACAD_SORTENTS
360
255
  0
DICTIONARY
  5
1145
330
1144
100
AcDbDictionary
280
     1
281
     1
  3
AcDbContextDataManager
360
1146
  0
DICTIONARY
  5
114A
330
1149
100
AcDbDictionary
280
     1
281
     1
  3
AcDbContextDataManager
360
114B
  0
DICTIONARY
  5
114F
330
114E
100
AcDbDictionary
280
     1
281
     1
  3
AcDbContextDataManager
360
1150
  0
DICTIONARY
  5
1154
330
1153
100
AcDbDictionary
280
     1
281
     1
  3
AcDbContextDataManager
360
1155
  0
DICTIONARY
  5
1163
330
1162
100
AcDbDictionary
280
     1
281
     1
  3
AcDbContextDataManager
360
1164
  0
DICTIONARY
  5
25C5
330
25C4
100
AcDbDictionary
280
     1
281
     1
  3
ACAD_DIMASSOC
360
25D5
  3
AcDbContextDataManager
360
25C6
  0
DICTIONARY
  5
25DA
330
25D9
100
AcDbDictionary
280
     1
281
     1
  3
ACAD_DIMASSOC
360
25EA
  3
AcDbContextDataManager
360
25DB
  0
DICTIONARY
  5
25EC
330
25EB
100
AcDbDictionary
280
     1
281
     1
  3
ACAD_DIMASSOC
360
25FC
  3
AcDbContextDataManager
360
25ED
  0
DICTIONARY
  5
25FE
330
25FD
100
AcDbDictionary
280
     1
281
     1
  3
ACAD_DIMASSOC
360
260E
  3
AcDbContextDataManager
360
25FF
  0
DICTIONARY
  5
2636
330
2635
100
AcDbDictionary
280
     1
281
     1
  3
ACAD_DIMASSOC
360
2646
  3
AcDbContextDataManager
360
2637
  0
DICTIONARY
  5
2648
330
2647
100
AcDbDictionary
280
     1
281
     1
  3
ACAD_DIMASSOC
360
2658
  3
AcDbContextDataManager
360
2649
  0
DICTIONARY
  5
265A
330
2659
100
AcDbDictionary
280
     1
281
     1
  3
ACAD_DIMASSOC
360
266A
  3
AcDbContextDataManager
360
265B
  0
DICTIONARY
  5
266C
330
266B
100
AcDbDictionary
280
     1
281
     1
  3
ACAD_DIMASSOC
360
267C
  3
AcDbContextDataManager
360
266D
  0
DICTIONARY
  5
28E5
330
28E4
100
AcDbDictionary
280
     1
281
     1
  3
ACAD_DIMASSOC
360
28F5
  3
AcDbContextDataManager
360
28E6
  0
DICTIONARY
  5
28F7
330
28F6
100
AcDbDictionary
280
     1
281
     1
  3
ACAD_DIMASSOC
360
2907
  3
AcDbContextDataManager
360
28F8
  0
DICTIONARY
  5
2909
330
2908
100
AcDbDictionary
280
     1
281
     1
  3
ACAD_DIMASSOC
360
2919
  3
AcDbContextDataManager
360
290A
  0
DICTIONARY
  5
291B
330
291A
100
AcDbDictionary
280
     1
281
     1
  3
ACAD_DIMASSOC
360
292B
  3
AcDbContextDataManager
360
291C
  0
DICTIONARY
  5
29E1
330
29E0
100
AcDbDictionary
280
     1
281
     1
  3
AcDbContextDataManager
360
29E2
  0
DICTIONARY
  5
29E8
330
29E7
100
AcDbDictionary
280
     1
281
     1
  3
AcDbContextDataManager
360
29E9
  0
DICTIONARY
  5
2A06
330
2A05
100
AcDbDictionary
280
     1
281
     1
  3
ASDK_XREC_ANNOTATION_SCALE_INFO
360
2A07
  0
DICTIONARY
  5
2A0A
330
2A09
100
AcDbDictionary
280
     1
281
     1
  3
ASDK_XREC_ANNOTATION_SCALE_INFO
360
2A0B
  0
XRECORD
  5
216
102
{ACAD_REACTORS
330
C
102
}
330
C
100
AcDbXrecord
280
     1
300
ACDLT
300
2014
300
ACDLT_F_S
  0
DICTIONARY
  5
6B
102
{ACAD_REACTORS
330
C
102
}
330
C
100
AcDbDictionary
281
     1
  0
DICTIONARY
  5
21B
102
{ACAD_REACTORS
330
C
102
}
330
C
100
AcDbDictionary
281
     1
  3
Metric50
350
21C
  0
DICTIONARY
  5
D
102
{ACAD_REACTORS
330
C
102
}
330
C
100
AcDbDictionary
281
     1
  0
DICTIONARY
  5
1A
102
{ACAD_REACTORS
330
C
102
}
330
C
100
AcDbDictionary
281
     1
  3
20A4
350
29FF
  3
Model
350
22
  0
DICTIONARY
  5
6A
102
{ACAD_REACTORS
330
C
102
}
330
C
100
AcDbDictionary
281
     1
  3
ByBlock
350
ED
  3
ByLayer
350
EC
  3
Global
350
EE
  0
DICTIONARY
  5
12D
102
{ACAD_REACTORS
330
C
102
}
330
C
100
AcDbDictionary
281
     1
  3
Annotative
350
13B
  3
Standard
350
12E
  0
DICTIONARY
  5
17
102
{ACAD_REACTORS
330
C
102
}
330
C
100
AcDbDictionary
281
     1
  3
Standard
350
18
  0
DICTIONARY
  5
19
102
{ACAD_REACTORS
330
C
102
}
330
C
100
AcDbDictionary
281
     1
  0
ACDBDICTIONARYWDFLT
  5
E
102
{ACAD_REACTORS
330
C
102
}
330
C
100
AcDbDictionary
281
     1
  3
Normal
350
F
100
AcDbDictionaryWithDefault
340
F
  0
DICTIONARY
  5
10C
102
{ACAD_REACTORS
330
C
102
}
330
C
100
AcDbDictionary
281
     1
  3
A0
350
10D
  3
A1
350
4E3
  3
A2
350
262
  3
A3
350
4E4
  3
A4
350
4E5
  3
A5
350
4E6
  3
A6
350
4E7
  3
A7
350
4E8
  3
A8
350
4E9
  3
A9
350
4EA
  3
B0
350
4EB
  3
B1
350
4EC
  3
B2
350
4ED
  3
B3
350
4EE
  3
B4
350
4EF
  3
B5
350
4F0
  3
B6
350
4F1
  3
B7
350
4F2
  3
B8
350
4F3
  0
DICTIONARY
  5
219
102
{ACAD_REACTORS
330
C
102
}
330
C
100
AcDbDictionary
281
     1
  3
Metric50
350
21A
  0
DICTIONARY
  5
7E
102
{ACAD_REACTORS
330
C
102
}
330
C
100
AcDbDictionary
281
     1
  3
Standard
350
7F
  0
DICTIONARY
  5
EF
102
{ACAD_REACTORS
330
C
102
}
330
C
100
AcDbDictionary
281
     1
  3
2dWireframe
350
F5
  3
Basic
350
F4
  3
Brighten
350
FB
  3
ColorChange
350
FF
  3
Conceptual
350
F8
  3
Dim
350
FA
  3
EdgeColorOff
350
1E6
  3
Facepattern
350
FE
  3
Flat
350
F0
  3
FlatWithEdges
350
F1
  3
Gouraud
350
F2
  3
GouraudWithEdges
350
F3
  3
Hidden
350
F7
  3
JitterOff
350
1E4
  3
Linepattern
350
FD
  3
OverhangOff
350
1E5
  3
Realistic
350
F9
  3
Shaded
350
1F3
  3
Shaded with edges
350
1F2
  3
Shades of Gray
350
1EF
  3
Sketchy
350
1F0
  3
Thicken
350
FC
  3
Wireframe
350
F6
  3
X-Ray
350
1F1
  0
XRECORD
  5
3056
102
{ACAD_REACTORS
330
C
102
}
330
C
100
AcDbXrecord
280
     1
 90
        1
330
7F
  0
DICTIONARY
  5
5E
102
{ACAD_REACTORS
330
C
102
}
330
C
100
AcDbDictionary
281
     1
  3
CANNOSCALE
350
146
  3
CMLEADERSTYLE
350
145
  3
CTABLESTYLE
350
84
  3
CVIEWDETAILSTYLE
350
227
  3
CVIEWSECTIONSTYLE
350
228
  3
DIMASSOC
350
5F
  3
HIDETEXT
350
63
  3
LAYEREVAL
350
1AE
  3
LAYERNOTIFY
350
1AF
  3
TEXTJUSTIFY
350
31E
  0
DICTIONARY
  5
200
102
{ACAD_REACTORS
330
1FF
102
}
330
1FF
100
AcDbDictionary
281
     1
  0
SORTENTSTABLE
  5
255
102
{ACAD_REACTORS
330
1CE
102
}
330
1CE
100
AcDbSortentsTable
330
1F
331
2659
  5
27E1
331
25EB
  5
27CF
331
2738
  5
25B7
331
25B8
  5
2737
331
28D5
  5
28D7
331
2736
  5
1561
331
25BF
  5
2659
331
27E6
  5
28D2
331
2739
  5
D15
331
27E7
  5
28D1
331
28D6
  5
28D8
331
2737
  5
25B4
331
25C4
  5
27CD
331
28E0
  5
28E3
331
25B9
  5
273A
331
27E0
  5
27E3
331
2908
  5
29E6
331
25BA
  5
266B
331
27E1
  5
27E7
331
28E1
  5
28E4
331
28D7
  5
28DF
331
266B
  5
27E2
331
25FD
  5
27D0
331
28E2
  5
28F6
331
114E
  5
25BA
331
25BB
  5
2736
331
CE2
  5
D12
331
CE3
  5
25B1
331
28DF
  5
28E2
331
29E6
  5
2A79
331
25BC
  5
27CC
331
291A
  5
29E7
331
28E3
  5
2908
331
25C0
  5
273B
331
25B6
  5
2647
331
27E3
  5
28D5
331
2635
  5
27D1
331
25D9
  5
27CE
331
2647
  5
27E0
331
28D9
  5
28E1
331
29E7
  5
2A80
331
25BD
  5
2739
331
25C1
  5
2735
331
25B7
  5
2734
331
27E4
  5
28D6
331
29E0
  5
2A78
331
2734
  5
25B6
331
28E4
  5
291A
331
1149
  5
25B9
331
1153
  5
2634
331
28F6
  5
29E0
331
1144
  5
25B8
331
25BE
  5
2738
331
27E5
  5
28D3
331
2735
  5
155F
331
1162
  5
2635
  0
DICTIONARY
  5
1146
102
{ACAD_REACTORS
330
1145
102
}
330
1145
100
AcDbDictionary
281
     1
  3
ACDB_ANNOTATIONSCALES
350
1147
  0
DICTIONARY
  5
114B
102
{ACAD_REACTORS
330
114A
102
}
330
114A
100
AcDbDictionary
281
     1
  3
ACDB_ANNOTATIONSCALES
350
114C
  0
DICTIONARY
  5
1150
102
{ACAD_REACTORS
330
114F
102
}
330
114F
100
AcDbDictionary
281
     1
  3
ACDB_ANNOTATIONSCALES
350
1151
  0
DICTIONARY
  5
1155
102
{ACAD_REACTORS
330
1154
102
}
330
1154
100
AcDbDictionary
281
     1
  3
ACDB_ANNOTATIONSCALES
350
1156
  0
DICTIONARY
  5
1164
102
{ACAD_REACTORS
330
1163
102
}
330
1163
100
AcDbDictionary
281
     1
  3
ACDB_ANNOTATIONSCALES
350
1165
  0
DIMASSOC
  5
25D5
102
{ACAD_REACTORS
330
25C5
102
}
330
25C5
100
AcDbDimAssoc
330
25C4
 90
        3
 70
     0
 71
     0
  1
AcDbOsnapPointRef
 72
    13
331
25BA
 73
     2
 91
        0
 40
0.0
 10
0.0
 20
0.0
 30
2.000000000000000E+50
 75
     0
  1
AcDbOsnapPointRef
 72
    13
331
25B8
 73
     2
 91
        0
 40
0.0
 10
0.0
 20
0.0
 30
2.000000000000000E+50
 75
     0
  0
DICTIONARY
  5
25C6
102
{ACAD_REACTORS
330
25C5
102
}
330
25C5
100
AcDbDictionary
281
     1
  3
ACDB_ANNOTATIONSCALES
350
25C7
  0
DIMASSOC
  5
25EA
102
{ACAD_REACTORS
330
25DA
102
}
330
25DA
100
AcDbDimAssoc
330
25D9
 90
        3
 70
     0
 71
     0
  1
AcDbOsnapPointRef
 72
    13
331
25BD
 73
     2
 91
        0
 40
0.0
 10
0.0
 20
0.0
 30
2.000000000000000E+50
 75
     0
  1
AcDbOsnapPointRef
 72
     1
331
25BC
 73
     2
 91
        0
 40
1.0
 10
0.0
 20
0.0
 30
2.000000000000000E+50
 75
     0
  0
DICTIONARY
  5
25DB
102
{ACAD_REACTORS
330
25DA
102
}
330
25DA
100
AcDbDictionary
281
     1
  3
ACDB_ANNOTATIONSCALES
350
25DC
  0
DIMASSOC
  5
25FC
102
{ACAD_REACTORS
330
25EC
102
}
330
25EC
100
AcDbDimAssoc
330
25EB
 90
        3
 70
     0
 71
     0
  1
AcDbOsnapPointRef
 72
     1
331
25BC
 73
     2
 91
        0
 40
1.0
 10
0.0
 20
0.0
 30
2.000000000000000E+50
 75
     0
  1
AcDbOsnapPointRef
 72
     1
331
25B9
 73
     2
 91
        0
 40
1.0
 10
0.0
 20
0.0
 30
2.000000000000000E+50
 75
     0
  0
DICTIONARY
  5
25ED
102
{ACAD_REACTORS
330
25EC
102
}
330
25EC
100
AcDbDictionary
281
     1
  3
ACDB_ANNOTATIONSCALES
350
25EE
  0
DIMASSOC
  5
260E
102
{ACAD_REACTORS
330
25FE
102
}
330
25FE
100
AcDbDimAssoc
330
25FD
 90
        3
 70
     0
 71
     0
  1
AcDbOsnapPointRef
 72
     1
331
25B9
 73
     2
 91
        0
 40
1.0
 10
0.0
 20
0.0
 30
2.000000000000000E+50
 75
     0
  1
AcDbOsnapPointRef
 72
    13
331
25B8
 73
     2
 91
        0
 40
0.0
 10
0.0
 20
0.0
 30
2.000000000000000E+50
 75
     0
  0
DICTIONARY
  5
25FF
102
{ACAD_REACTORS
330
25FE
102
}
330
25FE
100
AcDbDictionary
281
     1
  3
ACDB_ANNOTATIONSCALES
350
2600
  0
DIMASSOC
  5
2646
102
{ACAD_REACTORS
330
2636
102
}
330
2636
100
AcDbDimAssoc
330
2635
 90
        3
 70
     0
 71
     0
  1
AcDbOsnapPointRef
 72
    13
331
25BD
 73
     2
 91
        0
 40
0.0
 10
0.0
 20
0.0
 30
2.000000000000000E+50
 75
     0
  1
AcDbOsnapPointRef
 72
    13
331
25B8
 73
     2
 91
        0
 40
0.0
 10
0.0
 20
0.0
 30
2.000000000000000E+50
 75
     0
  0
DICTIONARY
  5
2637
102
{ACAD_REACTORS
330
2636
102
}
330
2636
100
AcDbDictionary
281
     1
  3
ACDB_ANNOTATIONSCALES
350
2638
  0
DIMASSOC
  5
2658
102
{ACAD_REACTORS
330
2648
102
}
330
2648
100
AcDbDimAssoc
330
2647
 90
        3
 70
     0
 71
     0
  1
AcDbOsnapPointRef
 72
    13
331
25BA
 73
     2
 91
        0
 40
0.0
 10
0.0
 20
0.0
 30
2.000000000000000E+50
 75
     0
  1
AcDbOsnapPointRef
 72
     1
331
25BD
 73
     2
 91
        0
 40
1.0
 10
0.0
 20
0.0
 30
2.000000000000000E+50
 75
     0
  0
DICTIONARY
  5
2649
102
{ACAD_REACTORS
330
2648
102
}
330
2648
100
AcDbDictionary
281
     1
  3
ACDB_ANNOTATIONSCALES
350
264A
  0
DIMASSOC
  5
266A
102
{ACAD_REACTORS
330
265A
102
}
330
265A
100
AcDbDimAssoc
330
2659
 90
        3
 70
     0
 71
     0
  1
AcDbOsnapPointRef
 72
     1
331
25BD
 73
     2
 91
        0
 40
1.0
 10
0.0
 20
0.0
 30
2.000000000000000E+50
 75
     0
  1
AcDbOsnapPointRef
 72
     1
331
25B8
 73
     2
 91
        0
 40
1.0
 10
0.0
 20
0.0
 30
2.000000000000000E+50
 75
     0
  0
DICTIONARY
  5
265B
102
{ACAD_REACTORS
330
265A
102
}
330
265A
100
AcDbDictionary
281
     1
  3
ACDB_ANNOTATIONSCALES
350
265C
  0
DIMASSOC
  5
267C
102
{ACAD_REACTORS
330
266C
102
}
330
266C
100
AcDbDimAssoc
330
266B
 90
        3
 70
     0
 71
     0
  1
AcDbOsnapPointRef
 72
     1
331
25B8
 73
     2
 91
        0
 40
1.0
 10
0.0
 20
0.0
 30
2.000000000000000E+50
 75
     0
  1
AcDbOsnapPointRef
 72
    13
331
25B8
 73
     2
 91
        0
 40
0.0
 10
0.0
 20
0.0
 30
2.000000000000000E+50
 75
     0
  0
DICTIONARY
  5
266D
102
{ACAD_REACTORS
330
266C
102
}
330
266C
100
AcDbDictionary
281
     1
  3
ACDB_ANNOTATIONSCALES
350
266E
  0
DIMASSOC
  5
28F5
102
{ACAD_REACTORS
330
28E5
102
}
330
28E5
100
AcDbDimAssoc
330
28E4
 90
        3
 70
     0
 71
     0
  1
AcDbOsnapPointRef
 72
     6
331
28E3
 73
     2
 91
        0
 40
0.9999999999999987
 10
0.0
 20
0.0
 30
0.0
332
28D7
 74
     2
 92
        0
 75
     0
  1
AcDbOsnapPointRef
 72
     1
331
28D7
 73
     2
 91
        0
 40
1.0
 10
0.0
 20
0.0
 30
2.000000000000000E+50
 75
     0
  0
DICTIONARY
  5
28E6
102
{ACAD_REACTORS
330
28E5
102
}
330
28E5
100
AcDbDictionary
281
     1
  3
ACDB_ANNOTATIONSCALES
350
28E7
  0
DIMASSOC
  5
2907
102
{ACAD_REACTORS
330
28F7
102
}
330
28F7
100
AcDbDimAssoc
330
28F6
 90
        3
 70
     0
 71
     0
  1
AcDbOsnapPointRef
 72
     6
331
28E3
 73
     2
 91
        0
 40
0.9999999999999987
 10
0.0
 20
0.0
 30
0.0
332
28D7
 74
     2
 92
        0
 75
     0
  1
AcDbOsnapPointRef
 72
     1
331
28E2
 73
     2
 91
        0
 40
1.0
 10
0.0
 20
0.0
 30
2.000000000000000E+50
 75
     0
  0
DICTIONARY
  5
28F8
102
{ACAD_REACTORS
330
28F7
102
}
330
28F7
100
AcDbDictionary
281
     1
  3
ACDB_ANNOTATIONSCALES
350
28F9
  0
DIMASSOC
  5
2919
102
{ACAD_REACTORS
330
2909
102
}
330
2909
100
AcDbDimAssoc
330
2908
 90
        3
 70
     0
 71
     0
  1
AcDbOsnapPointRef
 72
     1
331
28E2
 73
     2
 91
        0
 40
1.0
 10
0.0
 20
0.0
 30
2.000000000000000E+50
 75
     0
  1
AcDbOsnapPointRef
 72
    13
331
28D7
 73
     2
 91
        0
 40
0.0
 10
0.0
 20
0.0
 30
2.000000000000000E+50
 75
     0
  0
DICTIONARY
  5
290A
102
{ACAD_REACTORS
330
2909
102
}
330
2909
100
AcDbDictionary
281
     1
  3
ACDB_ANNOTATIONSCALES
350
290B
  0
DIMASSOC
  5
292B
102
{ACAD_REACTORS
330
291B
102
}
330
291B
100
AcDbDimAssoc
330
291A
 90
        3
 70
     0
 71
     0
  1
AcDbOsnapPointRef
 72
     1
331
28D5
 73
     2
 91
        0
 40
1.0
 10
0.0
 20
0.0
 30
2.000000000000000E+50
 75
     0
  1
AcDbOsnapPointRef
 72
    13
331
28D5
 73
     2
 91
        0
 40
0.0
 10
0.0
 20
0.0
 30
2.000000000000000E+50
 75
     0
  0
DICTIONARY
  5
291C
102
{ACAD_REACTORS
330
291B
102
}
330
291B
100
AcDbDictionary
281
     1
  3
ACDB_ANNOTATIONSCALES
350
291D
  0
DICTIONARY
  5
29E2
102
{ACAD_REACTORS
330
29E1
102
}
330
29E1
100
AcDbDictionary
281
     1
  3
ACDB_ANNOTATIONSCALES
350
29E3
  0
DICTIONARY
  5
29E9
102
{ACAD_REACTORS
330
29E8
102
}
330
29E8
100
AcDbDictionary
281
     1
  3
ACDB_ANNOTATIONSCALES
350
29EA
  0
XRECORD
  5
2A07
102
{ACAD_REACTORS
330
2A06
102
}
330
2A06
100
AcDbXrecord
280
     1
 90
        1
340
10D
  0
XRECORD
  5
2A0B
102
{ACAD_REACTORS
330
2A0A
102
}
330
2A0A
100
AcDbXrecord
280
     1
 90
        1
340
4EA
  0
ACDBDETAILVIEWSTYLE
  5
21C
102
{ACAD_XDICTIONARY
360
3089
102
}
102
{ACAD_REACTORS
330
21B
102
}
330
21B
100
AcDbModelDocViewStyle
 70
     0
  3
Metric50
290
     0
100
AcDbDetailViewStyle
 70
     0
 71
     0
 90
        3
 71
     1
340
11
 62
   256
 40
5.0
340
0
 62
   256
 40
5.0
300

 40
0.0
280
     1
 71
     2
340
16
 90
       25
 62
   256
 71
     3
340
11
 62
   256
 40
5.0
 90
        0
 40
15.0
 90
        1
300
%<\AcVar ViewDetailId>% (%<\AcVar ViewScale \f "%sn">%)
 71
     4
340
16
 90
       25
 62
   256
340
16
 90
       25
 62
   256
280
     0
  0
LAYOUT
  5
29FF
102
{ACAD_REACTORS
330
1A
102
}
330
1A
100
AcDbPlotSettings
  1

  2
KONICA MINOLTA C224e PCL
  4
A4
  6

 40
5.027082920074462
 41
5.027085781097412
 42
5.027069091796875
 43
5.027069091796875
 44
209.9733276367186
 45
296.9259948730469
 46
0.0
 47
0.0
 48
0.0
 49
0.0
140
0.0
141
0.0
142
1.0
143
1.0
 70
   688
 72
     1
 73
     0
 74
     5
  7

 75
    16
147
1.0
 76
     0
 77
     2
 78
   300
148
0.0
149
0.0
100
AcDbLayout
  1
20A4
 70
     1
 71
     1
 10
-5.027082920074462
 20
-5.027085781097412
 11
204.9462447166443
 21
291.8989090919495
 12
0.0
 22
0.0
 32
0.0
 14
-5.0
 24
-5.0
 34
0.0
 15
205.0
 25
292.0
 35
0.0
146
0.0
 13
0.0
 23
0.0
 33
0.0
 16
1.0
 26
0.0
 36
0.0
 17
0.0
 27
1.0
 37
0.0
 76
     0
330
29FE
331
2A05
1001
ACAD_PSEXT
1000
KONICA MINOLTA C224e PCL
1000
KONICA MINOLTA C364SeriesPCL
1000
IP_192.168.100.51
1000

1070
     0
  0
LAYOUT
  5
22
102
{ACAD_XDICTIONARY
360
205
102
}
102
{ACAD_REACTORS
330
1A
102
}
330
1A
100
AcDbPlotSettings
  1

  2
none_device
  4
ISO_A4_(210.00_x_297.00_MM)
  6

 40
7.5
 41
20.0
 42
7.5
 43
20.0
 44
210.0
 45
297.0
 46
11.54999923706054
 47
-13.65000009536743
 48
0.0
 49
0.0
140
0.0
141
0.0
142
1.0
143
8.704084754739808
 70
 11952
 72
     1
 73
     0
 74
     0
  7

 75
     0
147
0.1148885871608098
 76
     0
 77
     2
 78
   300
148
0.0
149
0.0
100
AcDbLayout
  1
Model
 70
     1
 71
     0
 10
0.0
 20
0.0
 11
12.0
 21
9.0
 12
0.0
 22
0.0
 32
0.0
 14
0.0
 24
0.0
 34
0.0
 15
0.0
 25
0.0
 35
0.0
146
0.0
 13
0.0
 23
0.0
 33
0.0
 16
1.0
 26
0.0
 36
0.0
 17
0.0
 27
1.0
 37
0.0
 76
     0
330
1F
331
EA
1001
ACAD_PSEXT
1000
None
1000
None
1000
Not applicable
1000
The layout will not be plotted unless a new plotter configuration name is selected.
1070
     0
  0
MATERIAL
  5
ED
102
{ACAD_XDICTIONARY
360
1F9
102
}
102
{ACAD_REACTORS
330
6A
102
}
330
6A
100
AcDbMaterial
  1
ByBlock
 94
       63
  0
MATERIAL
  5
EC
102
{ACAD_XDICTIONARY
360
1F7
102
}
102
{ACAD_REACTORS
330
6A
102
}
330
6A
100
AcDbMaterial
  1
ByLayer
 94
       63
  0
MATERIAL
  5
EE
102
{ACAD_XDICTIONARY
360
173
102
}
102
{ACAD_REACTORS
330
6A
102
}
330
6A
100
AcDbMaterial
  1
Global
 43
0.0007999999797903
 43
0.0
 43
0.0
 43
0.0
 43
0.0
 43
0.0007999999797903
 43
0.0
 43
0.0
 43
0.0
 43
0.0
 43
1.0
 43
0.0
 43
0.0
 43
0.0
 43
0.0
 43
1.0
 49
0.0007999999797903
 49
0.0
 49
0.0
 49
0.0
 49
0.0
 49
0.0007999999797903
 49
0.0
 49
0.0
 49
0.0
 49
0.0
 49
1.0
 49
0.0
 49
0.0
 49
0.0
 49
0.0
 49
1.0
142
0.0007999999797903
142
0.0
142
0.0
142
0.0
142
0.0
142
0.0007999999797903
142
0.0
142
0.0
142
0.0
142
0.0
142
1.0
142
0.0
142
0.0
142
0.0
142
0.0
142
1.0
144
0.0007999999797903
144
0.0
144
0.0
144
0.0
144
0.0
144
0.0007999999797903
144
0.0
144
0.0
144
0.0
144
0.0
144
1.0
144
0.0
144
0.0
144
0.0
144
0.0
144
1.0
 94
       63
1001
ACAD
1070
    -1
1070
     3
1070
     0
1000

1071
        0
1070
     0
  0
MLEADERSTYLE
  5
13B
102
{ACAD_REACTORS
330
12D
102
}
330
12D
100
AcDbMLeaderStyle
179
     2
170
     2
171
     1
172
     0
 90
        2
 40
0.0
 41
0.0
173
     1
 91
-1056964608
340
14
 92
       -2
290
     1
 42
2.0
291
     1
 43
8.0
  3
Standard
 44
4.0
300

342
11
174
     1
178
     1
175
     1
176
     0
 93
-1056964608
 45
4.0
292
     0
297
     0
 46
4.0
 94
-1056964608
 47
1.0
 49
1.0
140
1.0
293
     1
141
0.0
294
     1
177
     0
142
1.0
295
     0
296
     1
143
3.75
271
     0
272
     9
273
     9
  0
MLEADERSTYLE
  5
12E
102
{ACAD_REACTORS
330
12D
102
}
330
12D
100
AcDbMLeaderStyle
179
     2
170
     2
171
     1
172
     0
 90
        2
 40
0.0
 41
0.0
173
     1
 91
-1056964608
340
14
 92
       -2
290
     1
 42
2.0
291
     1
 43
8.0
  3
Standard
 44
4.0
300

342
11
174
     1
178
     1
175
     1
176
     0
 93
-1056964608
 45
4.0
292
     0
297
     0
 46
4.0
 94
-1056964608
 47
1.0
 49
1.0
140
1.0
293
     1
141
0.0
294
     1
177
     0
142
1.0
295
     0
296
     0
143
3.75
271
     0
272
     9
273
     9
  0
MLINESTYLE
  5
18
102
{ACAD_REACTORS
330
17
102
}
330
17
100
AcDbMlineStyle
  2
STANDARD
 70
     0
  3

 62
   256
 51
90.0
 52
90.0
 71
     2
 49
0.5
 62
   256
  6
BYLAYER
 49
-0.5
 62
   256
  6
BYLAYER
  0
ACDBPLACEHOLDER
  5
F
102
{ACAD_REACTORS
330
E
102
}
330
E
  0
SCALE
  5
10D
102
{ACAD_REACTORS
330
10C
102
}
330
10C
100
AcDbScale
 70
     0
300
1:1
140
1.0
141
1.0
290
     1
  0
SCALE
  5
4E3
102
{ACAD_REACTORS
330
10C
102
}
330
10C
100
AcDbScale
 70
     0
300
1::25
140
1.0
141
25.0
290
     0
  0
SCALE
  5
262
102
{ACAD_REACTORS
330
10C
102
}
330
10C
100
AcDbScale
 70
     0
300
1:15
140
1.0
141
15.0
290
     0
  0
SCALE
  5
4E4
102
{ACAD_REACTORS
330
10C
102
}
330
10C
100
AcDbScale
 70
     0
300
1:2
140
1.0
141
2.0
290
     0
  0
SCALE
  5
4E5
102
{ACAD_REACTORS
330
10C
102
}
330
10C
100
AcDbScale
 70
     0
300
1:4
140
1.0
141
4.0
290
     0
  0
SCALE
  5
4E6
102
{ACAD_REACTORS
330
10C
102
}
330
10C
100
AcDbScale
 70
     0
300
1:5
140
1.0
141
5.0
290
     0
  0
SCALE
  5
4E7
102
{ACAD_REACTORS
330
10C
102
}
330
10C
100
AcDbScale
 70
     0
300
1:8
140
1.0
141
8.0
290
     0
  0
SCALE
  5
4E8
102
{ACAD_REACTORS
330
10C
102
}
330
10C
100
AcDbScale
 70
     0
300
1:10
140
1.0
141
10.0
290
     0
  0
SCALE
  5
4E9
102
{ACAD_REACTORS
330
10C
102
}
330
10C
100
AcDbScale
 70
     0
300
1:16
140
1.0
141
16.0
290
     0
  0
SCALE
  5
4EA
102
{ACAD_REACTORS
330
10C
102
}
330
10C
100
AcDbScale
 70
     0
300
1:20
140
1.0
141
20.0
290
     0
  0
SCALE
  5
4EB
102
{ACAD_REACTORS
330
10C
102
}
330
10C
100
AcDbScale
 70
     0
300
1:30
140
1.0
141
30.0
290
     0
  0
SCALE
  5
4EC
102
{ACAD_REACTORS
330
10C
102
}
330
10C
100
AcDbScale
 70
     0
300
1:40
140
1.0
141
40.0
290
     0
  0
SCALE
  5
4ED
102
{ACAD_REACTORS
330
10C
102
}
330
10C
100
AcDbScale
 70
     0
300
1:50
140
1.0
141
50.0
290
     0
  0
SCALE
  5
4EE
102
{ACAD_REACTORS
330
10C
102
}
330
10C
100
AcDbScale
 70
     0
300
1:100
140
1.0
141
100.0
290
     0
  0
SCALE
  5
4EF
102
{ACAD_REACTORS
330
10C
102
}
330
10C
100
AcDbScale
 70
     0
300
2:1
140
2.0
141
1.0
290
     0
  0
SCALE
  5
4F0
102
{ACAD_REACTORS
330
10C
102
}
330
10C
100
AcDbScale
 70
     0
300
4:1
140
4.0
141
1.0
290
     0
  0
SCALE
  5
4F1
102
{ACAD_REACTORS
330
10C
102
}
330
10C
100
AcDbScale
 70
     0
300
8:1
140
8.0
141
1.0
290
     0
  0
SCALE
  5
4F2
102
{ACAD_REACTORS
330
10C
102
}
330
10C
100
AcDbScale
 70
     0
300
10:1
140
10.0
141
1.0
290
     0
  0
SCALE
  5
4F3
102
{ACAD_REACTORS
330
10C
102
}
330
10C
100
AcDbScale
 70
     0
300
100:1
140
100.0
141
1.0
290
     0
  0
ACDBSECTIONVIEWSTYLE
  5
21A
102
{ACAD_XDICTIONARY
360
3087
102
}
102
{ACAD_REACTORS
330
219
102
}
330
219
100
AcDbModelDocViewStyle
 70
     0
  3
Metric50
290
     0
100
AcDbSectionViewStyle
 70
     0
 71
     0
 90
      102
 71
     1
340
11
 62
   256
 40
5.0
340
0
340
0
 62
   256
 40
5.0
300
I, O, Q, S, X, Z
 40
10.0
 90
        0
 40
2.5
 90
        0
 71
     2
340
16
 90
       25
 62
   256
340
16
 90
       50
 62
   256
 40
5.0
 40
2.5
 40
5.0
 71
     3
340
11
 62
   256
 40
5.0
 90
        0
 40
15.0
 90
        1
300
%<\AcVar ViewSectionStartId>%-%<\AcVar ViewSectionEndId>% (%<\AcVar ViewScale \f "%sn">%)
 71
     4
 62
   256
 62
   257
300
ANSI31
 40
1.0
 90
        0
290
     0
290
     0
 90
        6
 40
0.0
 40
1.570796326794896
 40
0.2617993877991494
 40
1.308996938995747
 40
-0.2617993877991494
 40
1.832595714594044
  0
TABLESTYLE
  5
7F
102
{ACAD_XDICTIONARY
360
162
102
}
102
{ACAD_REACTORS
330
7E
102
}
330
7E
100
AcDbTableStyle
280
     0
  3
Standard
 70
     0
 71
     0
 40
1.5
 41
1.5
280
     0
281
     0
  7
Standard
140
4.5
170
     2
 62
     0
 63
     7
283
     0
 90
      512
 91
        0
  1

274
    -2
284
     1
 64
     0
275
    -2
285
     1
 65
     0
276
    -2
286
     1
 66
     0
277
    -2
287
     1
 67
     0
278
    -2
288
     1
 68
     0
279
    -2
289
     1
 69
     0
  7
Standard
140
6.0
170
     5
 62
     0
 63
     7
283
     0
 90
      512
 91
        0
  1

274
    -2
284
     1
 64
     0
275
    -2
285
     1
 65
     0
276
    -2
286
     1
 66
     0
277
    -2
287
     1
 67
     0
278
    -2
288
     1
 68
     0
279
    -2
289
     1
 69
     0
  7
Standard
140
4.5
170
     5
 62
     0
 63
     7
283
     0
 90
      512
 91
        0
  1

274
    -2
284
     1
 64
     0
275
    -2
285
     1
 65
     0
276
    -2
286
     1
 66
     0
277
    -2
287
     1
 67
     0
278
    -2
288
     1
 68
     0
279
    -2
289
     1
 69
     0
  0
VISUALSTYLE
  5
F5
102
{ACAD_XDICTIONARY
360
3061
102
}
102
{ACAD_REACTORS
330
EF
102
}
330
EF
100
AcDbVisualStyle
  2
2dWireframe
 70
     4
177
     2
291
     0
 71
     0
176
     1
 72
     2
176
     1
 73
     1
176
     1
 90
        0
176
     1
 40
0.6
176
     1
 41
30.0
176
     1
 63
     7
421
 16777215
176
     1
 74
     1
176
     1
 91
        4
176
     1
 64
     7
176
     1
 65
   257
176
     1
 75
     1
176
     1
175
     1
176
     1
 42
1.0
176
     1
 92
        0
176
     1
 66
   257
176
     1
 43
1.0
176
     1
 76
     1
176
     1
 77
     6
176
     1
 78
     2
176
     1
 67
     7
176
     1
 79
     5
176
     1
170
     0
176
     1
171
     0
176
     1
290
     0
176
     1
 93
        1
176
     1
 44
0.0
176
     1
173
     0
176
     1
1001
ACAD
1000
AcDbSavedByObjectVersion
1070
     0
  0
VISUALSTYLE
  5
F4
102
{ACAD_XDICTIONARY
360
305F
102
}
102
{ACAD_REACTORS
330
EF
102
}
330
EF
100
AcDbVisualStyle
  2
Basic
 70
     7
177
     2
291
     1
 71
     1
176
     1
 72
     0
176
     1
 73
     1
176
     1
 90
        0
176
     1
 40
0.6
176
     1
 41
30.0
176
     1
 63
     7
421
 16777215
176
     1
 74
     0
176
     1
 91
        4
176
     1
 64
     7
176
     1
 65
   257
176
     1
 75
     1
176
     1
175
     1
176
     1
 42
1.0
176
     1
 92
        8
176
     1
 66
     7
176
     1
 43
1.0
176
     1
 76
     1
176
     1
 77
     6
176
     1
 78
     2
176
     1
 67
     7
176
     1
 79
     5
176
     1
170
     0
176
     1
171
     0
176
     1
290
     0
176
     1
 93
        1
176
     1
 44
0.0
176
     1
173
     0
176
     1
1001
ACAD
1000
AcDbSavedByObjectVersion
1070
     0
  0
VISUALSTYLE
  5
FB
102
{ACAD_XDICTIONARY
360
306D
102
}
102
{ACAD_REACTORS
330
EF
102
}
330
EF
100
AcDbVisualStyle
  2
Brighten
 70
    12
177
     2
291
     1
 71
     2
176
     1
 72
     2
176
     1
 73
     1
176
     1
 90
        0
176
     1
 40
0.6
176
     1
 41
30.0
176
     1
 63
     7
421
 16777215
176
     1
 74
     1
176
     1
 91
        4
176
     1
 64
     7
176
     1
 65
   257
176
     1
 75
     1
176
     1
175
     1
176
     1
 42
1.0
176
     1
 92
        8
176
     1
 66
     7
176
     1
 43
1.0
176
     1
 76
     1
176
     1
 77
     6
176
     1
 78
     2
176
     1
 67
     7
176
     1
 79
     5
176
     1
170
     0
176
     1
171
     0
176
     1
290
     0
176
     1
 93
        1
176
     1
 44
50.0
176
     1
173
     0
176
     1
1001
ACAD
1000
AcDbSavedByObjectVersion
1070
     0
  0
VISUALSTYLE
  5
FF
102
{ACAD_XDICTIONARY
360
3075
102
}
102
{ACAD_REACTORS
330
EF
102
}
330
EF
100
AcDbVisualStyle
  2
ColorChange
 70
    16
177
     2
291
     1
 71
     2
176
     1
 72
     2
176
     1
 73
     3
176
     1
 90
        0
176
     1
 40
0.6
176
     1
 41
30.0
176
     1
 63
     8
421
  8421504
176
     1
 74
     1
176
     1
 91
        4
176
     1
 64
     7
176
     1
 65
   257
176
     1
 75
     1
176
     1
175
     1
176
     1
 42
1.0
176
     1
 92
        8
176
     1
 66
     8
424
  8421504
176
     1
 43
1.0
176
     1
 76
     1
176
     1
 77
     6
176
     1
 78
     2
176
     1
 67
     7
176
     1
 79
     5
176
     1
170
     0
176
     1
171
     0
176
     1
290
     0
176
     1
 93
        1
176
     1
 44
0.0
176
     1
173
     0
176
     1
1001
ACAD
1000
AcDbSavedByObjectVersion
1070
     0
  0
VISUALSTYLE
  5
F8
102
{ACAD_XDICTIONARY
360
3067
102
}
102
{ACAD_REACTORS
330
EF
102
}
330
EF
100
AcDbVisualStyle
  2
Conceptual
 70
     9
177
     2
291
     0
 71
     3
176
     1
 72
     2
176
     1
 73
     1
176
     1
 90
        0
176
     1
 40
0.6
176
     1
 41
30.0
176
     1
 63
     7
421
 16777215
176
     1
 74
     2
176
     1
 91
        2
176
     1
 64
     7
176
     1
 65
   257
176
     1
 75
     1
176
     1
175
     1
176
     1
 42
40.0
176
     1
 92
        8
176
     1
 66
     7
176
     1
 43
1.0
176
     1
 76
     1
176
     1
 77
     6
176
     1
 78
     2
176
     1
 67
     7
176
     1
 79
     3
176
     1
170
     0
176
     1
171
     0
176
     1
290
     0
176
     1
 93
        1
176
     1
 44
0.0
176
     1
173
     0
176
     1
1001
ACAD
1000
AcDbSavedByObjectVersion
1070
     0
  0
VISUALSTYLE
  5
FA
102
{ACAD_XDICTIONARY
360
306B
102
}
102
{ACAD_REACTORS
330
EF
102
}
330
EF
100
AcDbVisualStyle
  2
Dim
 70
    11
177
     2
291
     1
 71
     2
176
     1
 72
     2
176
     1
 73
     1
176
     1
 90
        0
176
     1
 40
0.6
176
     1
 41
30.0
176
     1
 63
     7
421
 16777215
176
     1
 74
     1
176
     1
 91
        4
176
     1
 64
     7
176
     1
 65
   257
176
     1
 75
     1
176
     1
175
     1
176
     1
 42
1.0
176
     1
 92
        8
176
     1
 66
     7
176
     1
 43
1.0
176
     1
 76
     1
176
     1
 77
     6
176
     1
 78
     2
176
     1
 67
     7
176
     1
 79
     5
176
     1
170
     0
176
     1
171
     0
176
     1
290
     0
176
     1
 93
        1
176
     1
 44
-50.0
176
     1
173
     0
176
     1
1001
ACAD
1000
AcDbSavedByObjectVersion
1070
     0
  0
VISUALSTYLE
  5
1E6
102
{ACAD_XDICTIONARY
360
307B
102
}
102
{ACAD_REACTORS
330
EF
102
}
330
EF
100
AcDbVisualStyle
  2
EdgeColorOff
 70
    22
177
     2
291
     1
 71
     2
176
     0
 72
     2
176
     0
 73
     0
176
     0
 90
        0
176
     0
 40
0.6
176
     0
 41
30.0
176
     0
 63
     7
421
 16777215
176
     0
 74
     1
176
     0
 91
        4
176
     0
 64
     7
176
     0
 65
   257
176
     0
 75
     1
176
     0
175
     1
176
     0
 42
1.0
176
     0
 92
        8
176
     2
 66
     7
176
     0
 43
1.0
176
     0
 76
     1
176
     0
 77
     6
176
     0
 78
     2
176
     0
 67
     7
176
     0
 79
     5
176
     0
170
     0
176
     0
171
     0
176
     0
290
     0
176
     0
 93
        1
176
     0
 44
0.0
176
     0
173
     0
176
     0
1001
ACAD
1000
AcDbSavedByObjectVersion
1070
     0
  0
VISUALSTYLE
  5
FE
102
{ACAD_XDICTIONARY
360
3073
102
}
102
{ACAD_REACTORS
330
EF
102
}
330
EF
100
AcDbVisualStyle
  2
Facepattern
 70
    15
177
     2
291
     1
 71
     2
176
     1
 72
     2
176
     1
 73
     1
176
     1
 90
        0
176
     1
 40
0.6
176
     1
 41
30.0
176
     1
 63
     7
421
 16777215
176
     1
 74
     1
176
     1
 91
        4
176
     1
 64
     7
176
     1
 65
   257
176
     1
 75
     1
176
     1
175
     1
176
     1
 42
1.0
176
     1
 92
        8
176
     1
 66
     7
176
     1
 43
1.0
176
     1
 76
     1
176
     1
 77
     6
176
     1
 78
     2
176
     1
 67
     7
176
     1
 79
     5
176
     1
170
     0
176
     1
171
     0
176
     1
290
     0
176
     1
 93
        1
176
     1
 44
0.0
176
     1
173
     0
176
     1
1001
ACAD
1000
AcDbSavedByObjectVersion
1070
     0
  0
VISUALSTYLE
  5
F0
102
{ACAD_XDICTIONARY
360
3057
102
}
102
{ACAD_REACTORS
330
EF
102
}
330
EF
100
AcDbVisualStyle
  2
Flat
 70
     0
177
     2
291
     1
 71
     2
176
     1
 72
     1
176
     1
 73
     1
176
     1
 90
        2
176
     1
 40
0.6
176
     1
 41
30.0
176
     1
 63
     7
421
 16777215
176
     1
 74
     0
176
     1
 91
        0
176
     1
 64
     7
176
     1
 65
   257
176
     1
 75
     1
176
     1
175
     1
176
     1
 42
1.0
176
     1
 92
        8
176
     1
 66
     7
176
     1
 43
1.0
176
     1
 76
     1
176
     1
 77
     6
176
     1
 78
     2
176
     1
 67
     7
176
     1
 79
     5
176
     1
170
     0
176
     1
171
     0
176
     1
290
     0
176
     1
 93
       13
176
     1
 44
0.0
176
     1
173
     0
176
     1
1001
ACAD
1000
AcDbSavedByObjectVersion
1070
     0
  0
VISUALSTYLE
  5
F1
102
{ACAD_XDICTIONARY
360
3059
102
}
102
{ACAD_REACTORS
330
EF
102
}
330
EF
100
AcDbVisualStyle
  2
FlatWithEdges
 70
     1
177
     2
291
     1
 71
     2
176
     1
 72
     1
176
     1
 73
     1
176
     1
 90
        2
176
     1
 40
0.6
176
     1
 41
30.0
176
     1
 63
     7
421
 16777215
176
     1
 74
     1
176
     1
 91
        0
176
     1
 64
     7
176
     1
 65
   257
176
     1
 75
     1
176
     1
175
     1
176
     1
 42
1.0
176
     1
 92
        0
176
     1
 66
   257
176
     1
 43
1.0
176
     1
 76
     1
176
     1
 77
     6
176
     1
 78
     2
176
     1
 67
     7
176
     1
 79
     5
176
     1
170
     0
176
     1
171
     0
176
     1
290
     0
176
     1
 93
       13
176
     1
 44
0.0
176
     1
173
     0
176
     1
1001
ACAD
1000
AcDbSavedByObjectVersion
1070
     0
  0
VISUALSTYLE
  5
F2
102
{ACAD_XDICTIONARY
360
305B
102
}
102
{ACAD_REACTORS
330
EF
102
}
330
EF
100
AcDbVisualStyle
  2
Gouraud
 70
     2
177
     2
291
     1
 71
     2
176
     1
 72
     2
176
     1
 73
     1
176
     1
 90
        2
176
     1
 40
0.6
176
     1
 41
30.0
176
     1
 63
     7
421
 16777215
176
     1
 74
     0
176
     1
 91
        0
176
     1
 64
     7
176
     1
 65
   257
176
     1
 75
     1
176
     1
175
     1
176
     1
 42
1.0
176
     1
 92
        0
176
     1
 66
     7
176
     1
 43
1.0
176
     1
 76
     1
176
     1
 77
     6
176
     1
 78
     2
176
     1
 67
     7
176
     1
 79
     5
176
     1
170
     0
176
     1
171
     0
176
     1
290
     0
176
     1
 93
       13
176
     1
 44
0.0
176
     1
173
     0
176
     1
1001
ACAD
1000
AcDbSavedByObjectVersion
1070
     0
  0
VISUALSTYLE
  5
F3
102
{ACAD_XDICTIONARY
360
305D
102
}
102
{ACAD_REACTORS
330
EF
102
}
330
EF
100
AcDbVisualStyle
  2
GouraudWithEdges
 70
     3
177
     2
291
     1
 71
     2
176
     1
 72
     2
176
     1
 73
     1
176
     1
 90
        2
176
     1
 40
0.6
176
     1
 41
30.0
176
     1
 63
     7
421
 16777215
176
     1
 74
     1
176
     1
 91
        0
176
     1
 64
     7
176
     1
 65
   257
176
     1
 75
     1
176
     1
175
     1
176
     1
 42
1.0
176
     1
 92
        0
176
     1
 66
   257
176
     1
 43
1.0
176
     1
 76
     1
176
     1
 77
     6
176
     1
 78
     2
176
     1
 67
     7
176
     1
 79
     5
176
     1
170
     0
176
     1
171
     0
176
     1
290
     0
176
     1
 93
       13
176
     1
 44
0.0
176
     1
173
     0
176
     1
1001
ACAD
1000
AcDbSavedByObjectVersion
1070
     0
  0
VISUALSTYLE
  5
F7
102
{ACAD_XDICTIONARY
360
3065
102
}
102
{ACAD_REACTORS
330
EF
102
}
330
EF
100
AcDbVisualStyle
  2
Hidden
 70
     6
177
     2
291
     0
 71
     1
176
     1
 72
     2
176
     1
 73
     2
176
     1
 90
        0
176
     1
 40
0.6
176
     1
 41
30.0
176
     1
 63
     7
421
 16777215
176
     1
 74
     2
176
     1
 91
        2
176
     1
 64
     7
176
     1
 65
   257
176
     1
 75
     2
176
     1
175
     1
176
     1
 42
40.0
176
     1
 92
        0
176
     1
 66
   257
176
     1
 43
1.0
176
     1
 76
     1
176
     1
 77
     6
176
     1
 78
     2
176
     1
 67
     7
176
     1
 79
     3
176
     1
170
     0
176
     1
171
     0
176
     1
290
     0
176
     1
 93
        1
176
     1
 44
0.0
176
     1
173
     0
176
     1
1001
ACAD
1000
AcDbSavedByObjectVersion
1070
     0
  0
VISUALSTYLE
  5
1E4
102
{ACAD_XDICTIONARY
360
3077
102
}
102
{ACAD_REACTORS
330
EF
102
}
330
EF
100
AcDbVisualStyle
  2
JitterOff
 70
    20
177
     2
291
     1
 71
     2
176
     0
 72
     2
176
     0
 73
     0
176
     0
 90
        0
176
     0
 40
0.6
176
     0
 41
30.0
176
     0
 63
     7
421
 16777215
176
     0
 74
     1
176
     0
 91
        4
176
     0
 64
     7
176
     0
 65
   257
176
     0
 75
     1
176
     0
175
     1
176
     0
 42
1.0
176
     0
 92
       10
176
     2
 66
     7
176
     0
 43
1.0
176
     0
 76
     1
176
     0
 77
     6
176
     0
 78
     2
176
     0
 67
     7
176
     0
 79
     5
176
     0
170
     0
176
     0
171
     0
176
     0
290
     0
176
     0
 93
        1
176
     0
 44
0.0
176
     0
173
     0
176
     0
1001
ACAD
1000
AcDbSavedByObjectVersion
1070
     0
  0
VISUALSTYLE
  5
FD
102
{ACAD_XDICTIONARY
360
3071
102
}
102
{ACAD_REACTORS
330
EF
102
}
330
EF
100
AcDbVisualStyle
  2
Linepattern
 70
    14
177
     2
291
     1
 71
     2
176
     1
 72
     2
176
     1
 73
     1
176
     1
 90
        0
176
     1
 40
0.6
176
     1
 41
30.0
176
     1
 63
     7
421
 16777215
176
     1
 74
     1
176
     1
 91
        4
176
     1
 64
     7
176
     1
 65
   257
176
     1
 75
     7
176
     1
175
     7
176
     1
 42
1.0
176
     1
 92
        8
176
     1
 66
     7
176
     1
 43
1.0
176
     1
 76
     1
176
     1
 77
     6
176
     1
 78
     2
176
     1
 67
     7
176
     1
 79
     5
176
     1
170
     0
176
     1
171
     0
176
     1
290
     0
176
     1
 93
        1
176
     1
 44
0.0
176
     1
173
     0
176
     1
1001
ACAD
1000
AcDbSavedByObjectVersion
1070
     0
  0
VISUALSTYLE
  5
1E5
102
{ACAD_XDICTIONARY
360
3079
102
}
102
{ACAD_REACTORS
330
EF
102
}
330
EF
100
AcDbVisualStyle
  2
OverhangOff
 70
    21
177
     2
291
     1
 71
     2
176
     0
 72
     2
176
     0
 73
     0
176
     0
 90
        0
176
     0
 40
0.6
176
     0
 41
30.0
176
     0
 63
     7
421
 16777215
176
     0
 74
     1
176
     0
 91
        4
176
     0
 64
     7
176
     0
 65
   257
176
     0
 75
     1
176
     0
175
     1
176
     0
 42
1.0
176
     0
 92
        9
176
     2
 66
     7
176
     0
 43
1.0
176
     0
 76
     1
176
     0
 77
     6
176
     0
 78
     2
176
     0
 67
     7
176
     0
 79
     5
176
     0
170
     0
176
     0
171
     0
176
     0
290
     0
176
     0
 93
        1
176
     0
 44
0.0
176
     0
173
     0
176
     0
1001
ACAD
1000
AcDbSavedByObjectVersion
1070
     0
  0
VISUALSTYLE
  5
F9
102
{ACAD_XDICTIONARY
360
3069
102
}
102
{ACAD_REACTORS
330
EF
102
}
330
EF
100
AcDbVisualStyle
  2
Realistic
 70
     8
177
     2
291
     0
 71
     2
176
     1
 72
     3
176
     1
 73
     0
176
     1
 90
        2
176
     1
 40
0.6
176
     1
 41
30.0
176
     1
 63
     7
421
 16777215
176
     1
 74
     0
176
     1
 91
        0
176
     1
 64
     7
176
     1
 65
   257
176
     1
 75
     1
176
     1
175
     1
176
     1
 42
1.0
176
     1
 92
        8
176
     1
 66
   257
176
     1
 43
1.0
176
     1
 76
     1
176
     1
 77
     6
176
     1
 78
     2
176
     1
 67
     7
176
     1
 79
     3
176
     1
170
     0
176
     1
171
     0
176
     1
290
     0
176
     1
 93
       13
176
     1
 44
0.0
176
     1
173
     0
176
     1
1001
ACAD
1000
AcDbSavedByObjectVersion
1070
     0
  0
VISUALSTYLE
  5
1F3
102
{ACAD_XDICTIONARY
360
3085
102
}
102
{ACAD_REACTORS
330
EF
102
}
330
EF
100
AcDbVisualStyle
  2
Shaded
 70
    27
177
     2
291
     0
 71
     2
176
     1
 72
     2
176
     1
 73
     1
176
     1
 90
        2
176
     1
 40
0.6
176
     1
 41
30.0
176
     1
 63
     7
421
 16777215
176
     1
 74
     0
176
     1
 91
        4
176
     1
 64
     7
176
     1
 65
   257
176
     1
 75
     1
176
     1
175
     1
176
     1
 42
1.0
176
     1
 92
        8
176
     1
 66
   257
176
     1
 43
1.0
176
     1
 76
     1
176
     1
 77
     6
176
     1
 78
     2
176
     1
 67
     8
425
  7895160
176
     1
 79
     3
176
     1
170
     0
176
     1
171
     0
176
     1
290
     0
176
     1
 93
        5
176
     1
 44
0.0
176
     1
173
     0
176
     1
1001
ACAD
1000
AcDbSavedByObjectVersion
1070
     0
  0
VISUALSTYLE
  5
1F2
102
{ACAD_XDICTIONARY
360
3083
102
}
102
{ACAD_REACTORS
330
EF
102
}
330
EF
100
AcDbVisualStyle
  2
Shaded with edges
 70
    26
177
     2
291
     0
 71
     2
176
     1
 72
     2
176
     1
 73
     1
176
     1
 90
        2
176
     1
 40
0.6
176
     1
 41
30.0
176
     1
 63
     7
421
 16777215
176
     1
 74
     1
176
     1
 91
       10
176
     1
 64
     7
176
     1
 65
   257
176
     1
 75
     2
176
     1
175
     1
176
     1
 42
1.0
176
     1
 92
        8
176
     1
 66
   257
176
     1
 43
1.0
176
     1
 76
     1
176
     1
 77
     6
176
     1
 78
     2
176
     1
 67
     7
176
     1
 79
     3
176
     1
170
     0
176
     1
171
     0
176
     1
290
     0
176
     1
 93
        5
176
     1
 44
0.0
176
     1
173
     0
176
     1
1001
ACAD
1000
AcDbSavedByObjectVersion
1070
     0
  0
VISUALSTYLE
  5
1EF
102
{ACAD_XDICTIONARY
360
307D
102
}
102
{ACAD_REACTORS
330
EF
102
}
330
EF
100
AcDbVisualStyle
  2
Shades of Gray
 70
    23
177
     2
291
     0
 71
     2
176
     1
 72
     2
176
     1
 73
     3
176
     1
 90
        0
176
     1
 40
0.6
176
     1
 41
30.0
176
     1
 63
     7
421
 16777215
176
     1
 74
     2
176
     1
 91
        2
176
     1
 64
     7
176
     1
 65
     7
176
     1
 75
     1
176
     1
175
     1
176
     1
 42
40.0
176
     1
 92
        8
176
     1
 66
     7
176
     1
 43
1.0
176
     1
 76
     1
176
     1
 77
     6
176
     1
 78
     2
176
     1
 67
     7
176
     1
 79
     3
176
     1
170
     0
176
     1
171
     0
176
     1
290
     0
176
     1
 93
        1
176
     1
 44
0.0
176
     1
173
     0
176
     1
1001
ACAD
1000
AcDbSavedByObjectVersion
1070
     0
  0
VISUALSTYLE
  5
1F0
102
{ACAD_XDICTIONARY
360
307F
102
}
102
{ACAD_REACTORS
330
EF
102
}
330
EF
100
AcDbVisualStyle
  2
Sketchy
 70
    24
177
     2
291
     0
 71
     1
176
     1
 72
     2
176
     1
 73
     2
176
     1
 90
        0
176
     1
 40
0.6
176
     1
 41
30.0
176
     1
 63
     7
421
 16777215
176
     1
 74
     2
176
     1
 91
        2
176
     1
 64
     7
176
     1
 65
     7
176
     1
 75
     1
176
     1
175
     1
176
     1
 42
40.0
176
     1
 92
       11
176
     1
 66
     7
176
     1
 43
1.0
176
     1
 76
     1
176
     1
 77
     6
176
     1
 78
     2
176
     1
 67
     7
176
     1
 79
     6
176
     1
170
     0
176
     1
171
     0
176
     1
290
     0
176
     1
 93
        1
176
     1
 44
0.0
176
     1
173
     0
176
     1
1001
ACAD
1000
AcDbSavedByObjectVersion
1070
     0
  0
VISUALSTYLE
  5
FC
102
{ACAD_XDICTIONARY
360
306F
102
}
102
{ACAD_REACTORS
330
EF
102
}
330
EF
100
AcDbVisualStyle
  2
Thicken
 70
    13
177
     2
291
     1
 71
     2
176
     1
 72
     2
176
     1
 73
     1
176
     1
 90
        0
176
     1
 40
0.6
176
     1
 41
30.0
176
     1
 63
     7
421
 16777215
176
     1
 74
     1
176
     1
 91
        4
176
     1
 64
     7
176
     1
 65
   257
176
     1
 75
     1
176
     1
175
     1
176
     1
 42
1.0
176
     1
 92
       12
176
     1
 66
     7
176
     1
 43
1.0
176
     1
 76
     1
176
     1
 77
     6
176
     1
 78
     2
176
     1
 67
     7
176
     1
 79
     5
176
     1
170
     0
176
     1
171
     0
176
     1
290
     0
176
     1
 93
        1
176
     1
 44
0.0
176
     1
173
     0
176
     1
1001
ACAD
1000
AcDbSavedByObjectVersion
1070
     0
  0
VISUALSTYLE
  5
F6
102
{ACAD_XDICTIONARY
360
3063
102
}
102
{ACAD_REACTORS
330
EF
102
}
330
EF
100
AcDbVisualStyle
  2
Wireframe
 70
     5
177
     2
291
     0
 71
     0
176
     1
 72
     2
176
     1
 73
     0
176
     1
 90
        0
176
     1
 40
0.6
176
     1
 41
30.0
176
     1
 63
     7
421
 16777215
176
     1
 74
     1
176
     1
 91
        4
176
     1
 64
     7
176
     1
 65
   257
176
     1
 75
     1
176
     1
175
     1
176
     1
 42
1.0
176
     1
 92
        0
176
     1
 66
   257
176
     1
 43
1.0
176
     1
 76
     1
176
     1
 77
     6
176
     1
 78
     2
176
     1
 67
     7
176
     1
 79
     3
176
     1
170
     0
176
     1
171
     0
176
     1
290
     0
176
     1
 93
        1
176
     1
 44
0.0
176
     1
173
     0
176
     1
1001
ACAD
1000
AcDbSavedByObjectVersion
1070
     0
  0
VISUALSTYLE
  5
1F1
102
{ACAD_XDICTIONARY
360
3081
102
}
102
{ACAD_REACTORS
330
EF
102
}
330
EF
100
AcDbVisualStyle
  2
X-Ray
 70
    25
177
     2
291
     0
 71
     2
176
     1
 72
     2
176
     1
 73
     1
176
     1
 90
        1
176
     1
 40
0.5
176
     1
 41
30.0
176
     1
 63
     7
421
 16777215
176
     1
 74
     1
176
     1
 91
        0
176
     1
 64
     7
176
     1
 65
   257
176
     1
 75
     1
176
     1
175
     1
176
     1
 42
1.0
176
     1
 92
        8
176
     1
 66
     7
176
     1
 43
1.0
176
     1
 76
     1
176
     1
 77
     6
176
     1
 78
     2
176
     1
 67
     7
176
     1
 79
     3
176
     1
170
     0
176
     1
171
     0
176
     1
290
     0
176
     1
 93
       13
176
     1
 44
0.0
176
     1
173
     0
176
     1
1001
ACAD
1000
AcDbSavedByObjectVersion
1070
     0
  0
DICTIONARYVAR
  5
146
102
{ACAD_REACTORS
330
5E
102
}
330
5E
100
DictionaryVariables
280
     0
  1
1:20
  0
DICTIONARYVAR
  5
145
102
{ACAD_REACTORS
330
5E
102
}
330
5E
100
DictionaryVariables
280
     0
  1
Annotative
  0
DICTIONARYVAR
  5
84
102
{ACAD_REACTORS
330
5E
102
}
330
5E
100
DictionaryVariables
280
     0
  1
STANDARD
  0
DICTIONARYVAR
  5
227
102
{ACAD_REACTORS
330
5E
102
}
330
5E
100
DictionaryVariables
280
     0
  1
Metric50
  0
DICTIONARYVAR
  5
228
102
{ACAD_REACTORS
330
5E
102
}
330
5E
100
DictionaryVariables
280
     0
  1
Metric50
  0
DICTIONARYVAR
  5
5F
102
{ACAD_REACTORS
330
5E
102
}
330
5E
100
DictionaryVariables
280
     0
  1
2
  0
DICTIONARYVAR
  5
63
102
{ACAD_REACTORS
330
5E
102
}
330
5E
100
DictionaryVariables
280
     0
  1
1
  0
DICTIONARYVAR
  5
1AE
102
{ACAD_REACTORS
330
5E
102
}
330
5E
100
DictionaryVariables
280
     0
  1
0
  0
DICTIONARYVAR
  5
1AF
102
{ACAD_REACTORS
330
5E
102
}
330
5E
100
DictionaryVariables
280
     0
  1
0
  0
DICTIONARYVAR
  5
31E
102
{ACAD_REACTORS
330
5E
102
}
330
5E
100
DictionaryVariables
280
     0
  1
左下
  0
DICTIONARY
  5
1147
102
{ACAD_REACTORS
330
1146
102
}
330
1146
100
AcDbDictionary
281
     1
  3
*A1
350
1148
  3
*A2
350
23D5
  3
*A3
350
267D
  0
DICTIONARY
  5
114C
102
{ACAD_REACTORS
330
114B
102
}
330
114B
100
AcDbDictionary
281
     1
  3
*A1
350
114D
  3
*A2
350
23D6
  3
*A3
350
267E
  0
DICTIONARY
  5
1151
102
{ACAD_REACTORS
330
1150
102
}
330
1150
100
AcDbDictionary
281
     1
  3
*A1
350
1152
  3
*A2
350
23D7
  3
*A3
350
267F
  0
DICTIONARY
  5
1156
102
{ACAD_REACTORS
330
1155
102
}
330
1155
100
AcDbDictionary
281
     1
  3
*A1
350
1157
  3
*A2
350
23D8
  3
*A3
350
2680
  0
DICTIONARY
  5
1165
102
{ACAD_REACTORS
330
1164
102
}
330
1164
100
AcDbDictionary
281
     1
  3
*A1
350
1166
  3
*A2
350
23DB
  3
*A3
350
2683
  0
DICTIONARY
  5
25C7
102
{ACAD_REACTORS
330
25C6
102
}
330
25C6
100
AcDbDictionary
281
     1
  3
*A1
350
25C8
  3
*A2
350
2699
  0
DICTIONARY
  5
25DC
102
{ACAD_REACTORS
330
25DB
102
}
330
25DB
100
AcDbDictionary
281
     1
  3
*A1
350
25DD
  3
*A2
350
26AF
  0
DICTIONARY
  5
25EE
102
{ACAD_REACTORS
330
25ED
102
}
330
25ED
100
AcDbDictionary
281
     1
  3
*A1
350
25EF
  3
*A2
350
26C5
  0
DICTIONARY
  5
2600
102
{ACAD_REACTORS
330
25FF
102
}
330
25FF
100
AcDbDictionary
281
     1
  3
*A1
350
2601
  3
*A2
350
26DB
  0
DICTIONARY
  5
2638
102
{ACAD_REACTORS
330
2637
102
}
330
2637
100
AcDbDictionary
281
     1
  3
*A1
350
2639
  3
*A2
350
26F1
  0
DICTIONARY
  5
264A
102
{ACAD_REACTORS
330
2649
102
}
330
2649
100
AcDbDictionary
281
     1
  3
*A1
350
264B
  3
*A2
350
2707
  0
DICTIONARY
  5
265C
102
{ACAD_REACTORS
330
265B
102
}
330
265B
100
AcDbDictionary
281
     1
  3
*A1
350
265D
  3
*A2
350
271D
  0
DICTIONARY
  5
266E
102
{ACAD_REACTORS
330
266D
102
}
330
266D
100
AcDbDictionary
281
     1
  3
*A1
350
266F
  3
*A2
350
2733
  0
DICTIONARY
  5
28E7
102
{ACAD_REACTORS
330
28E6
102
}
330
28E6
100
AcDbDictionary
281
     1
  3
*A1
350
28E8
  0
DICTIONARY
  5
28F9
102
{ACAD_REACTORS
330
28F8
102
}
330
28F8
100
AcDbDictionary
281
     1
  3
*A1
350
28FA
  0
DICTIONARY
  5
290B
102
{ACAD_REACTORS
330
290A
102
}
330
290A
100
AcDbDictionary
281
     1
  3
*A1
350
290C
  0
DICTIONARY
  5
291D
102
{ACAD_REACTORS
330
291C
102
}
330
291C
100
AcDbDictionary
281
     1
  3
*A1
350
291E
  0
DICTIONARY
  5
29E3
102
{ACAD_REACTORS
330
29E2
102
}
330
29E2
100
AcDbDictionary
281
     1
  3
*A1
350
29E4
  0
DICTIONARY
  5
29EA
102
{ACAD_REACTORS
330
29E9
102
}
330
29E9
100
AcDbDictionary
281
     1
  3
*A1
350
29EB
  0
DICTIONARY
  5
3089
330
21C
100
AcDbDictionary
280
     1
281
     1
  3
ACAD_XREC_ROUNDTRIP
360
308A
  0
DICTIONARY
  5
205
330
22
100
AcDbDictionary
280
     1
281
     1
  0
DICTIONARY
  5
1F9
330
ED
100
AcDbDictionary
280
     1
281
     1
  3
FBXASSET
360
1FA
  0
DICTIONARY
  5
1F7
330
EC
100
AcDbDictionary
280
     1
281
     1
  3
FBXASSET
360
1F8
  0
DICTIONARY
  5
173
330
EE
100
AcDbDictionary
280
     1
281
     1
  3
BUMPTILE
360
175
  3
DIFFUSETILE
360
174
  3
FBXASSET
360
1FB
  3
OPACITYTILE
360
176
  3
REFLECTIONTILE
360
177
  0
DICTIONARY
  5
3087
330
21A
100
AcDbDictionary
280
     1
281
     1
  3
ACAD_XREC_ROUNDTRIP
360
3088
  0
DICTIONARY
  5
162
330
7F
100
AcDbDictionary
280
     1
281
     1
  3
ACAD_ROUNDTRIP_2008_TABLESTYLE_CELLSTYLEMAP
360
3055
  0
DICTIONARY
  5
3061
330
F5
100
AcDbDictionary
280
     1
281
     1
  3
ACAD_XREC_ROUNDTRIP
360
3062
  0
DICTIONARY
  5
305F
330
F4
100
AcDbDictionary
280
     1
281
     1
  3
ACAD_XREC_ROUNDTRIP
360
3060
  0
DICTIONARY
  5
306D
330
FB
100
AcDbDictionary
280
     1
281
     1
  3
ACAD_XREC_ROUNDTRIP
360
306E
  0
DICTIONARY
  5
3075
330
FF
100
AcDbDictionary
280
     1
281
     1
  3
ACAD_XREC_ROUNDTRIP
360
3076
  0
DICTIONARY
  5
3067
330
F8
100
AcDbDictionary
280
     1
281
     1
  3
ACAD_XREC_ROUNDTRIP
360
3068
  0
DICTIONARY
  5
306B
330
FA
100
AcDbDictionary
280
     1
281
     1
  3
ACAD_XREC_ROUNDTRIP
360
306C
  0
DICTIONARY
  5
307B
330
1E6
100
AcDbDictionary
280
     1
281
     1
  3
ACAD_XREC_ROUNDTRIP
360
307C
  0
DICTIONARY
  5
3073
330
FE
100
AcDbDictionary
280
     1
281
     1
  3
ACAD_XREC_ROUNDTRIP
360
3074
  0
DICTIONARY
  5
3057
330
F0
100
AcDbDictionary
280
     1
281
     1
  3
ACAD_XREC_ROUNDTRIP
360
3058
  0
DICTIONARY
  5
3059
330
F1
100
AcDbDictionary
280
     1
281
     1
  3
ACAD_XREC_ROUNDTRIP
360
305A
  0
DICTIONARY
  5
305B
330
F2
100
AcDbDictionary
280
     1
281
     1
  3
ACAD_XREC_ROUNDTRIP
360
305C
  0
DICTIONARY
  5
305D
330
F3
100
AcDbDictionary
280
     1
281
     1
  3
ACAD_XREC_ROUNDTRIP
360
305E
  0
DICTIONARY
  5
3065
330
F7
100
AcDbDictionary
280
     1
281
     1
  3
ACAD_XREC_ROUNDTRIP
360
3066
  0
DICTIONARY
  5
3077
330
1E4
100
AcDbDictionary
280
     1
281
     1
  3
ACAD_XREC_ROUNDTRIP
360
3078
  0
DICTIONARY
  5
3071
330
FD
100
AcDbDictionary
280
     1
281
     1
  3
ACAD_XREC_ROUNDTRIP
360
3072
  0
DICTIONARY
  5
3079
330
1E5
100
AcDbDictionary
280
     1
281
     1
  3
ACAD_XREC_ROUNDTRIP
360
307A
  0
DICTIONARY
  5
3069
330
F9
100
AcDbDictionary
280
     1
281
     1
  3
ACAD_XREC_ROUNDTRIP
360
306A
  0
DICTIONARY
  5
3085
330
1F3
100
AcDbDictionary
280
     1
281
     1
  3
ACAD_XREC_ROUNDTRIP
360
3086
  0
DICTIONARY
  5
3083
330
1F2
100
AcDbDictionary
280
     1
281
     1
  3
ACAD_XREC_ROUNDTRIP
360
3084
  0
DICTIONARY
  5
307D
330
1EF
100
AcDbDictionary
280
     1
281
     1
  3
ACAD_XREC_ROUNDTRIP
360
307E
  0
DICTIONARY
  5
307F
330
1F0
100
AcDbDictionary
280
     1
281
     1
  3
ACAD_XREC_ROUNDTRIP
360
3080
  0
DICTIONARY
  5
306F
330
FC
100
AcDbDictionary
280
     1
281
     1
  3
ACAD_XREC_ROUNDTRIP
360
3070
  0
DICTIONARY
  5
3063
330
F6
100
AcDbDictionary
280
     1
281
     1
  3
ACAD_XREC_ROUNDTRIP
360
3064
  0
DICTIONARY
  5
3081
330
1F1
100
AcDbDictionary
280
     1
281
     1
  3
ACAD_XREC_ROUNDTRIP
360
3082
  0
ACDB_TEXTOBJECTCONTEXTDATA_CLASS
  5
1148
102
{ACAD_REACTORS
330
1147
102
}
330
1147
100
AcDbObjectContextData
 70
     4
290
     1
100
AcDbAnnotScaleObjectContextData
340
4E8
 70
     4
 50
0.0
 10
2048.303206002728
 20
1806.990839490288
 11
2100.0
 21
1817.904891332034
  0
ACDB_TEXTOBJECTCONTEXTDATA_CLASS
  5
23D5
102
{ACAD_REACTORS
330
1147
102
}
330
1147
100
AcDbObjectContextData
 70
     4
290
     0
100
AcDbAnnotScaleObjectContextData
340
262
 70
     4
 50
0.0
 10
2022.454809004093
 20
1801.533813569415
 11
2100.0
 21
1817.904891332034
  0
ACDB_TEXTOBJECTCONTEXTDATA_CLASS
  5
267D
102
{ACAD_REACTORS
330
1147
102
}
330
1147
100
AcDbObjectContextData
 70
     4
290
     0
100
AcDbAnnotScaleObjectContextData
340
4EA
 70
     4
 50
0.0
 10
2696.606412005457
 20
528.1718963165075
 11
2800.0
 21
550.0
  0
ACDB_TEXTOBJECTCONTEXTDATA_CLASS
  5
114D
102
{ACAD_REACTORS
330
114C
102
}
330
114C
100
AcDbObjectContextData
 70
     4
290
     1
100
AcDbAnnotScaleObjectContextData
340
4E8
 70
     1
 50
0.0
 10
2573.303206002729
 20
1805.404891332034
 11
2625.0
 21
1817.904891332034
  0
ACDB_TEXTOBJECTCONTEXTDATA_CLASS
  5
23D6
102
{ACAD_REACTORS
330
114C
102
}
330
114C
100
AcDbObjectContextData
 70
     4
290
     0
100
AcDbAnnotScaleObjectContextData
340
262
 70
     1
 50
0.0
 10
2547.454809004093
 20
1799.154891332034
 11
2625.0
 21
1817.904891332034
  0
ACDB_TEXTOBJECTCONTEXTDATA_CLASS
  5
267E
102
{ACAD_REACTORS
330
114C
102
}
330
114C
100
AcDbObjectContextData
 70
     4
290
     0
100
AcDbAnnotScaleObjectContextData
340
4EA
 70
     1
 50
0.0
 10
3396.606412005457
 20
525.0
 11
3500.0
 21
550.0
  0
ACDB_TEXTOBJECTCONTEXTDATA_CLASS
  5
1152
102
{ACAD_REACTORS
330
1151
102
}
330
1151
100
AcDbObjectContextData
 70
     4
290
     1
100
AcDbAnnotScaleObjectContextData
340
4E8
 70
     1
 50
0.0
 10
2059.413369713507
 20
1700.404891332034
 11
2100.0
 21
1712.904891332034
  0
ACDB_TEXTOBJECTCONTEXTDATA_CLASS
  5
23D7
102
{ACAD_REACTORS
330
1151
102
}
330
1151
100
AcDbObjectContextData
 70
     4
290
     0
100
AcDbAnnotScaleObjectContextData
340
262
 70
     1
 50
0.0
 10
2039.120054570259
 20
1694.154891332034
 11
2100.0
 21
1712.904891332034
  0
ACDB_TEXTOBJECTCONTEXTDATA_CLASS
  5
267F
102
{ACAD_REACTORS
330
1151
102
}
330
1151
100
AcDbObjectContextData
 70
     4
290
     0
100
AcDbAnnotScaleObjectContextData
340
4EA
 70
     1
 50
0.0
 10
2718.826739427012
 20
385.0
 11
2800.0
 21
410.0
  0
ACDB_TEXTOBJECTCONTEXTDATA_CLASS
  5
1157
102
{ACAD_REACTORS
330
1156
102
}
330
1156
100
AcDbObjectContextData
 70
     4
290
     1
100
AcDbAnnotScaleObjectContextData
340
4E8
 70
     1
 50
0.0
 10
2556.531377899045
 20
1700.404891332034
 11
2625.0
 21
1712.904891332034
  0
ACDB_TEXTOBJECTCONTEXTDATA_CLASS
  5
23D8
102
{ACAD_REACTORS
330
1156
102
}
330
1156
100
AcDbObjectContextData
 70
     4
290
     0
100
AcDbAnnotScaleObjectContextData
340
262
 70
     1
 50
0.0
 10
2522.297066848568
 20
1694.154891332034
 11
2625.0
 21
1712.904891332034
  0
ACDB_TEXTOBJECTCONTEXTDATA_CLASS
  5
2680
102
{ACAD_REACTORS
330
1156
102
}
330
1156
100
AcDbObjectContextData
 70
     4
290
     0
100
AcDbAnnotScaleObjectContextData
340
4EA
 70
     1
 50
0.0
 10
3363.06275579809
 20
385.0
 11
3500.0
 21
410.0
  0
ACDB_TEXTOBJECTCONTEXTDATA_CLASS
  5
1166
102
{ACAD_REACTORS
330
1165
102
}
330
1165
100
AcDbObjectContextData
 70
     4
290
     1
100
AcDbAnnotScaleObjectContextData
340
4E8
 70
     1
 50
0.0
 10
2205.482605729878
 20
1630.404891332034
 11
2475.0
 21
1642.904891332034
  0
ACDB_TEXTOBJECTCONTEXTDATA_CLASS
  5
23DB
102
{ACAD_REACTORS
330
1165
102
}
330
1165
100
AcDbObjectContextData
 70
     4
290
     0
100
AcDbAnnotScaleObjectContextData
340
262
 70
     1
 50
0.0
 10
2070.723908594816
 20
1624.154891332034
 11
2475.0
 21
1642.904891332034
  0
ACDB_TEXTOBJECTCONTEXTDATA_CLASS
  5
2683
102
{ACAD_REACTORS
330
1165
102
}
330
1165
100
AcDbObjectContextData
 70
     4
290
     0
100
AcDbAnnotScaleObjectContextData
340
4EA
 70
     1
 50
0.0
 10
2760.965211459755
 20
245.0
 11
3300.0
 21
270.0
  0
ACDB_ALDIMOBJECTCONTEXTDATA_CLASS
  5
25C8
102
{ACAD_REACTORS
330
25C7
102
}
330
25C7
100
AcDbObjectContextData
 70
     4
290
     1
100
AcDbAnnotScaleObjectContextData
340
262
100
AcDbDimensionObjectContextData
  2
*D61
293
     0
 10
1800.0
 20
4643.521487039564
294
     1
140
0.0
298
     0
291
     0
 70
     0
292
     0
 71
     0
280
     0
295
     0
296
     0
297
     0
100
AcDbAlignedDimensionObjectContextData
 11
1725.0
 21
4615.000000000001
 31
0.0
  0
ACDB_ALDIMOBJECTCONTEXTDATA_CLASS
  5
2699
102
{ACAD_REACTORS
330
25C7
102
}
330
25C7
100
AcDbObjectContextData
 70
     4
290
     0
100
AcDbAnnotScaleObjectContextData
340
4EA
100
AcDbDimensionObjectContextData
  2
*D62
293
     0
 10
1800.0
 20
4678.028649386085
294
     1
140
0.0
298
     0
291
     0
 70
     0
292
     0
 71
     0
280
     0
295
     0
296
     0
297
     0
100
AcDbAlignedDimensionObjectContextData
 11
1725.0
 21
4640.000000000001
 31
0.0
  0
ACDB_ALDIMOBJECTCONTEXTDATA_CLASS
  5
25DD
102
{ACAD_REACTORS
330
25DC
102
}
330
25DC
100
AcDbObjectContextData
 70
     4
290
     1
100
AcDbAnnotScaleObjectContextData
340
262
100
AcDbDimensionObjectContextData
  2
*D71
293
     0
 10
2100.0
 20
4643.521487039559
294
     1
140
0.0
298
     0
291
     0
 70
     0
292
     0
 71
     0
280
     0
295
     0
296
     0
297
     0
100
AcDbAlignedDimensionObjectContextData
 11
2325.0
 21
4614.999999999996
 31
0.0
  0
ACDB_ALDIMOBJECTCONTEXTDATA_CLASS
  5
26AF
102
{ACAD_REACTORS
330
25DC
102
}
330
25DC
100
AcDbObjectContextData
 70
     4
290
     0
100
AcDbAnnotScaleObjectContextData
340
4EA
100
AcDbDimensionObjectContextData
  2
*D72
293
     0
 10
2100.0
 20
4678.028649386081
294
     1
140
0.0
298
     0
291
     0
 70
     0
292
     0
 71
     0
280
     0
295
     0
296
     0
297
     0
100
AcDbAlignedDimensionObjectContextData
 11
2325.0
 21
4639.999999999996
 31
0.0
  0
ACDB_ALDIMOBJECTCONTEXTDATA_CLASS
  5
25EF
102
{ACAD_REACTORS
330
25EE
102
}
330
25EE
100
AcDbObjectContextData
 70
     4
290
     1
100
AcDbAnnotScaleObjectContextData
340
262
100
AcDbDimensionObjectContextData
  2
*D78
293
     0
 10
2400.0
 20
4643.521487039563
294
     1
140
0.0
298
     0
291
     0
 70
     0
292
     0
 71
     0
280
     0
295
     0
296
     0
297
     0
100
AcDbAlignedDimensionObjectContextData
 11
2475.0
 21
4615.0
 31
0.0
  0
ACDB_ALDIMOBJECTCONTEXTDATA_CLASS
  5
26C5
102
{ACAD_REACTORS
330
25EE
102
}
330
25EE
100
AcDbObjectContextData
 70
     4
290
     0
100
AcDbAnnotScaleObjectContextData
340
4EA
100
AcDbDimensionObjectContextData
  2
*D79
293
     0
 10
2400.0
 20
4678.028649386084
294
     1
140
0.0
298
     0
291
     0
 70
     0
292
     0
 71
     0
280
     0
295
     0
296
     0
297
     0
100
AcDbAlignedDimensionObjectContextData
 11
2475.0
 21
4640.0
 31
0.0
  0
ACDB_ALDIMOBJECTCONTEXTDATA_CLASS
  5
2601
102
{ACAD_REACTORS
330
2600
102
}
330
2600
100
AcDbObjectContextData
 70
     4
290
     1
100
AcDbAnnotScaleObjectContextData
340
262
100
AcDbDimensionObjectContextData
  2
*D63
293
     0
 10
2100.0
 20
4868.521487039563
294
     1
140
0.0
298
     0
291
     0
 70
     0
292
     0
 71
     0
280
     0
295
     0
296
     0
297
     0
100
AcDbAlignedDimensionObjectContextData
 11
1725.0
 21
4840.0
 31
0.0
  0
ACDB_ALDIMOBJECTCONTEXTDATA_CLASS
  5
26DB
102
{ACAD_REACTORS
330
2600
102
}
330
2600
100
AcDbObjectContextData
 70
     4
290
     0
100
AcDbAnnotScaleObjectContextData
340
4EA
100
AcDbDimensionObjectContextData
  2
*D64
293
     0
 10
2100.0
 20
4903.028649386085
294
     1
140
0.0
298
     0
291
     0
 70
     0
292
     0
 71
     0
280
     0
295
     0
296
     0
297
     0
100
AcDbAlignedDimensionObjectContextData
 11
1725.0
 21
4865.0
 31
0.0
  0
ACDB_ALDIMOBJECTCONTEXTDATA_CLASS
  5
2639
102
{ACAD_REACTORS
330
2638
102
}
330
2638
100
AcDbObjectContextData
 70
     4
290
     1
100
AcDbAnnotScaleObjectContextData
340
262
100
AcDbDimensionObjectContextData
  2
*D65
293
     0
 10
1471.478512960436
 20
4315.0
294
     1
140
0.0
298
     0
291
     0
 70
     0
292
     0
 71
     0
280
     0
295
     0
296
     0
297
     0
100
AcDbAlignedDimensionObjectContextData
 11
1500.0
 21
4390.0
 31
0.0
  0
ACDB_ALDIMOBJECTCONTEXTDATA_CLASS
  5
26F1
102
{ACAD_REACTORS
330
2638
102
}
330
2638
100
AcDbObjectContextData
 70
     4
290
     0
100
AcDbAnnotScaleObjectContextData
340
4EA
100
AcDbDimensionObjectContextData
  2
*D66
293
     0
 10
1436.971350613915
 20
4315.0
294
     1
140
0.0
298
     0
291
     0
 70
     0
292
     0
 71
     0
280
     0
295
     0
296
     0
297
     0
100
AcDbAlignedDimensionObjectContextData
 11
1475.0
 21
4390.0
 31
0.0
  0
ACDB_ALDIMOBJECTCONTEXTDATA_CLASS
  5
264B
102
{ACAD_REACTORS
330
264A
102
}
330
264A
100
AcDbObjectContextData
 70
     4
290
     1
100
AcDbAnnotScaleObjectContextData
340
262
100
AcDbDimensionObjectContextData
  2
*D73
293
     0
 10
1471.478512960436
 20
4015.000000000001
294
     1
140
0.0
298
     0
291
     0
 70
     0
292
     0
 71
     0
280
     0
295
     0
296
     0
297
     0
100
AcDbAlignedDimensionObjectContextData
 11
1500.0
 21
3790.000000000001
 31
0.0
  0
ACDB_ALDIMOBJECTCONTEXTDATA_CLASS
  5
2707
102
{ACAD_REACTORS
330
264A
102
}
330
264A
100
AcDbObjectContextData
 70
     4
290
     0
100
AcDbAnnotScaleObjectContextData
340
4EA
100
AcDbDimensionObjectContextData
  2
*D74
293
     0
 10
1436.971350613915
 20
4015.000000000001
294
     1
140
0.0
298
     0
291
     0
 70
     0
292
     0
 71
     0
280
     0
295
     0
296
     0
297
     0
100
AcDbAlignedDimensionObjectContextData
 11
1475.000000000001
 21
3790.000000000001
 31
0.0
  0
ACDB_ALDIMOBJECTCONTEXTDATA_CLASS
  5
265D
102
{ACAD_REACTORS
330
265C
102
}
330
265C
100
AcDbObjectContextData
 70
     4
290
     1
100
AcDbAnnotScaleObjectContextData
340
262
100
AcDbDimensionObjectContextData
  2
*D67
293
     0
 10
1471.478512960436
 20
3715.000000000002
294
     1
140
0.0
298
     0
291
     0
 70
     0
292
     0
 71
     0
280
     0
295
     0
296
     0
297
     0
100
AcDbAlignedDimensionObjectContextData
 11
1500.0
 21
3640.000000000001
 31
0.0
  0
ACDB_ALDIMOBJECTCONTEXTDATA_CLASS
  5
271D
102
{ACAD_REACTORS
330
265C
102
}
330
265C
100
AcDbObjectContextData
 70
     4
290
     0
100
AcDbAnnotScaleObjectContextData
340
4EA
100
AcDbDimensionObjectContextData
  2
*D68
293
     0
 10
1436.971350613915
 20
3715.000000000002
294
     1
140
0.0
298
     0
291
     0
 70
     0
292
     0
 71
     0
280
     0
295
     0
296
     0
297
     0
100
AcDbAlignedDimensionObjectContextData
 11
1475.0
 21
3640.000000000001
 31
0.0
  0
ACDB_ALDIMOBJECTCONTEXTDATA_CLASS
  5
266F
102
{ACAD_REACTORS
330
266E
102
}
330
266E
100
AcDbObjectContextData
 70
     4
290
     1
100
AcDbAnnotScaleObjectContextData
340
262
100
AcDbDimensionObjectContextData
  2
*D69
293
     0
 10
1246.478512960436
 20
4015.000000000001
294
     1
140
0.0
298
     0
291
     0
 70
     0
292
     0
 71
     0
280
     0
295
     0
296
     0
297
     0
100
AcDbAlignedDimensionObjectContextData
 11
1275.0
 21
4390.000000000001
 31
0.0
  0
ACDB_ALDIMOBJECTCONTEXTDATA_CLASS
  5
2733
102
{ACAD_REACTORS
330
266E
102
}
330
266E
100
AcDbObjectContextData
 70
     4
290
     0
100
AcDbAnnotScaleObjectContextData
340
4EA
100
AcDbDimensionObjectContextData
  2
*D70
293
     0
 10
1186.971350613915
 20
4015.000000000001
294
     1
140
0.0
298
     0
291
     0
 70
     0
292
     0
 71
     0
280
     0
295
     0
296
     0
297
     0
100
AcDbAlignedDimensionObjectContextData
 11
1225.0
 21
4390.000000000001
 31
0.0
  0
ACDB_ALDIMOBJECTCONTEXTDATA_CLASS
  5
28E8
102
{ACAD_REACTORS
330
28E7
102
}
330
28E7
100
AcDbObjectContextData
 70
     4
290
     1
100
AcDbAnnotScaleObjectContextData
340
4EA
100
AcDbDimensionObjectContextData
  2
*D76
293
     0
 10
1800.0
 20
1458.028649386085
294
     1
140
0.0
298
     0
291
     0
 70
     0
292
     0
 71
     0
280
     0
295
     0
296
     0
297
     0
100
AcDbAlignedDimensionObjectContextData
 11
1725.0
 21
1420.0
 31
0.0
  0
ACDB_ALDIMOBJECTCONTEXTDATA_CLASS
  5
28FA
102
{ACAD_REACTORS
330
28F9
102
}
330
28F9
100
AcDbObjectContextData
 70
     4
290
     1
100
AcDbAnnotScaleObjectContextData
340
4EA
100
AcDbDimensionObjectContextData
  2
*D77
293
     0
 10
2100.0
 20
1458.028649386084
294
     1
140
0.0
298
     0
291
     0
 70
     0
292
     0
 71
     0
280
     0
295
     0
296
     0
297
     0
100
AcDbAlignedDimensionObjectContextData
 11
2325.0
 21
1420.0
 31
0.0
  0
ACDB_ALDIMOBJECTCONTEXTDATA_CLASS
  5
290C
102
{ACAD_REACTORS
330
290B
102
}
330
290B
100
AcDbObjectContextData
 70
     4
290
     1
100
AcDbAnnotScaleObjectContextData
340
4EA
100
AcDbDimensionObjectContextData
  2
*D80
293
     0
 10
2400.0
 20
1458.028649386086
294
     1
140
0.0
298
     0
291
     0
 70
     0
292
     0
 71
     0
280
     0
295
     0
296
     0
297
     0
100
AcDbAlignedDimensionObjectContextData
 11
2475.0
 21
1420.000000000001
 31
0.0
  0
ACDB_ALDIMOBJECTCONTEXTDATA_CLASS
  5
291E
102
{ACAD_REACTORS
330
291D
102
}
330
291D
100
AcDbObjectContextData
 70
     4
290
     1
100
AcDbAnnotScaleObjectContextData
340
4EA
100
AcDbDimensionObjectContextData
  2
*D75
293
     0
 10
1186.971350613913
 20
2169.999999999999
294
     1
140
0.0
298
     0
291
     0
 70
     0
292
     0
 71
     0
280
     0
295
     0
296
     0
297
     0
100
AcDbAlignedDimensionObjectContextData
 11
1224.999999999998
 21
2669.999999999999
 31
0.0
  0
ACDB_LEADEROBJECTCONTEXTDATA_CLASS
  5
29E4
102
{ACAD_REACTORS
330
29E3
102
}
330
29E3
100
AcDbObjectContextData
 70
     4
290
     1
100
AcDbAnnotScaleObjectContextData
340
4EA
 70
     2
 10
2315.371315563486
 20
2647.403018668419
 30
0.0
 10
2478.447835937793
 20
2882.024124771089
 30
0.0
 11
1.0
 21
0.0
 31
0.0
290
     1
 12
0.0
 22
0.0
 32
0.0
 13
0.0
 23
0.0
 33
0.0
  0
ACDB_TEXTOBJECTCONTEXTDATA_CLASS
  5
29EB
102
{ACAD_REACTORS
330
29EA
102
}
330
29EA
100
AcDbObjectContextData
 70
     4
290
     1
100
AcDbAnnotScaleObjectContextData
340
4EA
 70
     0
 50
0.0
 10
2478.447835937793
 20
2896.826307581457
 11
2478.447835937793
 21
2882.024124771089
  0
XRECORD
  5
308A
102
{ACAD_REACTORS
330
3089
102
}
330
3089
100
AcDbXrecord
280
     1
102
DISPLAYNAME
  1
Metric50
102
FLAGS
 90
        0
  0
XRECORD
  5
1FA
102
{ACAD_REACTORS
330
1F9
102
}
330
1F9
100
AcDbXrecord
280
     1
 70
     1
 90
429727718
  1
D62C5603-E3A1-4AEA-B7FB-FE5D8D0755AF
310
504B03040A0000080000CC70623B3DEE336E79000000790000001B0000006175746F6465736B2D64657369676E2D7061636B6167652E786D6C3C3F786D6C2076657273696F6E3D22312E302220656E636F64696E673D227574662D3822203F3E3C666F726D6174733E3C666F726D61743E687474703A2F2F736368656D612E
310
6175746F6465736B2E636F6D2F64657369676E2D7061636B6167652F323030393C2F666F726D61743E3C2F666F726D6174733E504B0304140006080800CC70623BD486FD9CA0000000F4000000130000005B436F6E74656E745F54797065735D2E786D6C7D8EC10E82300C865F65E91D8A1E8C310C0EEA1BF002731658846E
310
D98AC1B77784ABF1D8FE5FBFBF75BBCE937A534CCEB38643598122B6FEE978D0B0485F9C41B54DDD7D022595594E1A469170414C76A4D9A4D207E29CF43ECE46F218070CC6BECC4078ACAA135ACF422C856C0E68EA1BF5669944DDD7BCDE7B1F8E415D77AECB980613C2E4AC91FC167A2B244592486606FC29C8FD7F045B9A
310
EF7053A7E60B504B0304140006080800CC70623B853B8169EB0000007C01000008000000636F72652E786D6C8D90416EC3201045AF62CDB6C206821CC7C244919D9CA01740401C94182C03558F5F9C3852BBEB6A467FFE9B197D7EFC9E1EC5975982F5AE035262288C535E5B377690E21535501C055FBC8FBF6C503839990E
310
5619041F179FE64D52DE45E362569DD7661365082642A11EB9E920A89B99642953CC8E702F67A9EE7234257977194EC9EAE275C4EABCCF5EAD5940D4AC6F0E35A568B8F43562CD7046CD199FD07E60174276A7BE677B5EADB0E0D14EEFFB6A31321A0D82627C4084204C3F096B71DD52F6819B16635EADF63F509AF53FA164
310
5DDCD1EDDD17164090FCC8732078B56691CB33A85CD7DCC40F504B0304140006080800CC70623B55019EA25F0000007C00000007000000636E782E786D6C4DCB3B0E80201045D1AD90E915ED2CF8AC45050C11660C8261F98AB1B07AC9C97D42D718D865D3E909258CFD00CCE24AC6E326A164D74DC0B4128928FF32603847
310
2BA13128B1252AC747C6BAB984FC68F0B87FE8960A5C09FE86CFB69FBA01504B0304140006080800CC70623BDBABAAF470010000D40300000C0000006662782F636F72652E786D6CC553D16E823014FD95A6AF4B694182CC941A83FA05FB810A9511A125A5257EFE2E82712ECEB8A7F100CD39F7F69E734AF9FADC366850B6
310
AF8DCE7018308C942E4C59EB2AC3DE1D498AD15A706B8CFB56869196ADCAF00863C12B6B7C374385D14E6907A836A59A41D9F7CA615434B0C8705F7CAA5606D23BA8E84F41278B93AC54100640439DE0BDB320004D43C63716C7C399D30917DCFBBA9CD9BA8469F5B156168B24CED3F7248AC8769F27244EB73B92EED8862C
310
B7F13E0C179B3C8F979C8ECD82BBBABDAA2BAC924E9558448CBD9330242CFA08E3154B5651FCC6D215639C8EE5774DBE2B5F6CF2B5768B68963BB5F5588420E442FC700B1139D4CB01F450C1E918227C2E09DF070D8140C84E1E9AAB8F1340832A9CB13130A5F1376A908D57309505ECF2A0DF179C4E9D30F5B239B87E3823
310
7A79C6F31DE1A8A5AEC08474B03C7837EAE4938639B44E5932B833D2C6B6B279CDC613877FA26EE21F4A2A4C63EC7F29A2F301D1F9F7A0E37D145F504B0304140006080800CC70623B9C113CC27E0000009D0000000B0000006662782F636E782E786D6C4DCCDF0A83201C86E15B91DFB94BFB330DD428C8FB886521330DA7
310
6397BF1A1DECE883878F57749FCDA1B7892F1BBC047A23808C7F84D9FA55424E0BE6803A256208E9EF06C84F9B91703228B1C690F78B66B34CD9A5439DF5CF0BFBF65E35BCA1B8D6A5C6F540381E886698B5741C695F9503EBA150A2F8958E3DC3EA0B504B0304140006080800CC70623B7DF2F77C2A010000120200003100
310
00006662782F41393633353835312D344632462D344230382D423046372D3739314545314133324237412F636F72652E786D6C8D51DB8EC22014FC15C2939B0D2DB4B45643319AE817EC0F6041255A68B86CFCFC856D4D76DF7CE190393373060EDB3DC707F856CE6B6B7A480A0C81328395DA5C7B18C3057510EC3873D686
310
3F34088C18550F330C39BB3A1BA7051AAC09CA84841A2BD5020AEF55806078A44B0FFD7053A328440C89E1EFC52486BBB8AA8214A99D789CF9E05200300FC927E4FB4D5B375D43103D5527440FB843077C5AA3F5861C8F645F5787F59E95B390B318B55CE45AA638FAA2957BD7248B390B7A7CC51F9C124149C82B8C378810
310
84AB2F42B7B8DD56F413775B8C5999E9FF4471926F8AA236A1AE96B8B3CC434E5839373893369E1FAF30EA395917409EB7F26AF8801C171837A4A6AC9C89E9F9C9B1A58BA30FD6A5EF5DDDCF894B9AD9B6A59C957943A9FCAE2FD5BC4DFE03504B0304140006080800CC70623BAD7543B64E01000033030000300000006662
310
782F41393633353835312D344632462D344230382D423046372D3739314545314133324237412F636E782E786D6CD593CD6EC32010845F0571AD6CE3D48AD20813A9873E410FBD12D82434182C7EAAE6EDBB2424CD25871E7B41D6EC30B3FA84F9E67BB2E40B4234DE8DB46F1925E094D7C6ED479AD3AE5951B2113C789FEE
310
6C943839C1488B4C05DF079FE72A69D8C96C13AAD6B8631503449F83828872B949AC57D26200B826A308D316B4064D6E46FCDA41C05550DC9E483A00797BFD207EFB092A45DE9514C1BBD22178396BD39D891265658C238DEA00936C654E5E433CB65A26D9F6EDB5EBC14EBF49A45CB856E66048291F6939A9A81BB5C89177
310
38143CA680F4AA299D66A042CEB3354A2684DC9D8D178FE0D9B8B41CAAD720F880EE7EF93C0C18769E099ECC04D5A102C8049A8A05632F4DDF376CF1DE0F6BB65C2F8627B65A33C6BB62177CEBBDAD973006829F89F22E814B54F4BC2BE347F8AA8F681390B50FA73F804400B5F542E796F19FF974E7F78DB802FE05E20750
310
4B0304140006080800CC70623BE75B7789680500003C100000340000006662782F41393633353835312D344632462D344230382D423046372D3739314545314133324237412F6F626A656374732E786D6CAD575B8F9B3818FD2B887D06C22499CB8AA1CA655245D5B455A356FB305264C061D8018C6C3393D95FBFC7600890
310
A4CD5EF210B0B1BFEBF98E3F7B1FF6596ABC522E1296DF9BAE3D320D9A872C4AF2F8DE2CE5CEBA358D0FBEC719939D65A691938CDE9B6ADAF4BD98B3B2D05311DD91329583D9D5FC0F438434A7A611A644887B5384CF34233629258BA878B12322891DEFF6B66BD70BFB62634E8AE781D082709A4B588AF91C528CDA28B73F
310
1C998EEF39EABBEFA97FBD6A7C7E9553F9D3D79FE442923C3C523610337627CB87ABE99D359D4CC6D6E4FACAB5E6ABF9D2726FC6A3C5F56271377BB88362213924694B38DD99FE47C48627A1E7D49F5A8BB5E1A74C0A599ED3B0F21F1E56366B89112D681E218F0915D0D6F17AD41FBA2A369DCF6335D62ABBD39779D5DDD1
310
11D4D8DE3CBB96B2E04FB8202E41051754A1AA8E8F76B4C6DFE810B580B1547F4B84911149794252234D024EF8BBE963A95AE27B3D310A9D5C215C7960FAEE415ED75694C6AFB17BCACA5D99A60A9AA65F217B0BFC53292ACB92BF283FAD0D3621576592CB5BED907C2FA8E9DF794E35E97BEA31BED21FEB401ABB94C44839
310
DCACBF0E1C5DA8DA5B2F4DFFD32AD86F543D9E565E7056502E157C00AD2671CD534549AB752FCA9CDA00677A313F04E51B22FF19E57B300579E3C97EB29F682D92935CEC18CF901B7B54FD8C51F362B56FC72FE0B3C1EAE335EDCCBF5AEC39ADB17DC238973F804BA5E6F6BFE7AF1FB32E523BE9F3BD571418E3631DCA4D48
310
5250CF639223210A9446CA30052EDF057BD35F8329C1ECD84552BF0DC8D18BE7BCE23BFE6BD960AB4A7DE79923A103BEBD80F911CBAA2C60DB19B01CF164A5583B772EE6D3FFA56666CBCDA74DC97724A48F9A58967497E489C4D979006FD7A05E227A1EBDD0F737C623387A9C844D3709995625106D157315F8B8392CD4E0
310
A0B9A720C4BE9829CEF37EA1E13111214D53925356365ADA634861B52519DD27A00AEB808EAF0628E6F435519D446F45CF2C9CF5214F0A15B2F6D06B79DA3EE3CBF7F56780D2F4E7EF73A0F5E5B02A38D07DC852C6B7C1FBB6664213E0C39E3EBA7FF4E1AD23EA2829407C85E586727488B751B2DB9502BC7B228A3FD68B6E
310
A65A22397E690AA8D158D7E404EC8CDA235CC3B7D1898680131CEC2CDF2638C65196279577750F15884AEE19F94199155B92B13297978469D4F8D358DF0AEF7631E28DC8F0D9F437D5D39A83B2231A1D52D543813A824EF8D44BCFF2FA6A31BD1E8DAD87F1CCB526B3879935BF59CDADD5C37479BB1CDD4CA7B3556B516589
310
EF352754B706114D9C885EC9131DE6EFEB43D99AFE2391C2F958179413D7CFEF6B1B6DB1E7600F00DE6E5C67454A339A4BA2E0FBA85ED26F045D454F463DBFCE484C2F90F2E5E3666003662ED8F755951A7D1BECD5B30B550B2785C8E7320B7292A4838DDA71BBC863ED7613CAF659337A3354231D4FF4A182A54904C2898C
310
98B28C4AD0CE056CCF332A80986E571EE9DBC305BB5FEB7E509220A58D25CF042D712A806AC0AD0C657FDEF80D2D9CEAA2EE4D1C76F60BFE74219A06527D6F82DF6412526107381E55E353090704D085B52408A8913C4ED159D79BDA71BB4BC506F4831350EB6F975CD22D69BF7AC49B91A2C0A9DDA3D5CA36AD20FC478E37
310
E61844E2352865EBCB61A275A65283CAAA9DD27703B4102F5AF51EF5F573B75CBB5AD38BC845F7A49F82A0966A49C2E3EA5EA0ECD326CD965F1DB402C6FA8B51A4658C5C5E2EC9E214602E55810345408596591009A82E7E7FFACA19EEA299B14A0081A705CB3296EBC14CDF658DCD336EA6D1136881AAEB87B81AB9EE53D5
310
F5EB8BC8362082DA24122F98680A4E7930C01A0079749CEA14382A0783E5EBA5A10F8C098456A03D6A4AEB6BB881E2513747552A5DB22C7EDAF83BD5528081A365F7FF06504B0304140006080000CC70623B000000000000000000000000350000006662782F41393633353835312D344632462D344230382D423046372D37
310
39314545314133324237412F76657274696365732E62696E504B0304140006080800CC70623BF270F1330600000004000000360000006662782F41393633353835312D344632462D344230382D423046372D3739314545314133324237412F747269616E676C65732E62696E636660600000504B0304140006080000CC7062
310
3B000000000000000000000000370000006662782F41393633353835312D344632462D344230382D423046372D3739314545314133324237412F617474726962757465732E62696E504B0304140006080800CC70623B08DA0BD19000000041010000360000006662782F41393633353835312D344632462D344230382D4230
310
46372D3739314545314133324237412F6469726563746F72792E786D6C858F410AC3201045AF22B36F53E9A60B35CBEEBAE80D244E44489C6234F4F835464A48035D0DF398FF9F8AF63D0E6CC63039F212F8F9020C7D47C6792B21C5FE7403D62A1188E2E60C98D7234A5830286103A55745067B9D86B8A3CF9C7F90C11DE6
310
07FB144396D7B6A82D282E9A152AD114D5EF2CB866EEE831B8EEA07A7BB5A8D7D61A2BAAEB7FD5F70921FF497D00504B0304140006080800CC70623BEDD1DC58FD000000A00100003B0000006662782F41393633353835312D344632462D344230382D423046372D3739314545314133324237412F7265736F75726365732F
310
636F72652E786D6C8D504B6E833010BD0A9A6D65B00922041947112427E8052C33A156828DFCA97AFC9A40A576D7CDCCE87D344F8F9FBFE667F689CE6B6B3A6039850C8DB2A336530731DC4903D95970676DF82583CCC8193B5861107C72362E3BA4AC096842428D1D7107A5F7182053CF7474E0D507CE32973124857FE48B
310
540F3961CEF244279DE03EB81420DB9EAC1384436FA353E879B1B182C7A8C75DA3C7F453DF353A1075D537A7BA6464B8F535A99AE14A9A2BBD90E350DD183B5CFABE3AF262350B1EF4FC9351399401471025A527C218A1E53BAB5A5AB765F5469B96525EACF23FA6B88CFF34456DC2A1DCE36E360F82A5202F42F062ED2BAD
310
579969AFDD8A6F504B010214000A0000080000CC70623B3DEE336E79000000790000001B00000000000000000000000000000000006175746F6465736B2D64657369676E2D7061636B6167652E786D6C504B01021400140006080800CC70623BD486FD9CA0000000F40000001300000000000000000000000000B20000005B
310
436F6E74656E745F54797065735D2E786D6C504B01021400140006080800CC70623B853B8169EB0000007C010000080000000000000000000000000083010000636F72652E786D6C504B01021400140006080800CC70623B55019EA25F0000007C000000070000000000000000000000000094020000636E782E786D6C504B
310
01021400140006080800CC70623BDBABAAF470010000D40300000C00000000000000000000000000180300006662782F636F72652E786D6C504B01021400140006080800CC70623B9C113CC27E0000009D0000000B00000000000000000000000000B20400006662782F636E782E786D6C504B01021400140006080800CC70
310
623B7DF2F77C2A010000120200003100000000000000000000000000590500006662782F41393633353835312D344632462D344230382D423046372D3739314545314133324237412F636F72652E786D6C504B01021400140006080800CC70623BAD7543B64E010000330300003000000000000000000000000000D2060000
310
6662782F41393633353835312D344632462D344230382D423046372D3739314545314133324237412F636E782E786D6C504B01021400140006080800CC70623BE75B7789680500003C10000034000000000000000000000000006E0800006662782F41393633353835312D344632462D344230382D423046372D3739314545
310
314133324237412F6F626A656374732E786D6C504B01021400140006080000CC70623B0000000000000000000000003500000000000000000000000000280E00006662782F41393633353835312D344632462D344230382D423046372D3739314545314133324237412F76657274696365732E62696E504B01021400140006
310
080800CC70623BF270F133060000000400000036000000000000000000000000007B0E00006662782F41393633353835312D344632462D344230382D423046372D3739314545314133324237412F747269616E676C65732E62696E504B01021400140006080000CC70623B0000000000000000000000003700000000000000
310
000000000000D50E00006662782F41393633353835312D344632462D344230382D423046372D3739314545314133324237412F617474726962757465732E62696E504B01021400140006080800CC70623B08DA0BD1900000004101000036000000000000000000000000002A0F00006662782F41393633353835312D344632
310
462D344230382D423046372D3739314545314133324237412F6469726563746F72792E786D6C504B01021400140006080800CC70623BEDD1DC58FD000000A00100003B000000000000000000000000000E1000006662782F41393633353835312D344632462D344230382D423046372D3739314545314133324237412F7265
310
736F75726365732F636F72652E786D6C504B0506000000000E000E0080040000641100000000
  0
XRECORD
  5
1F8
102
{ACAD_REACTORS
330
1F7
102
}
330
1F7
100
AcDbXrecord
280
     1
 70
     1
 90
429727718
  1
30362254-06B7-45E0-A893-8CFA70E3D6BC
310
504B03040A0000080000CC70623B3DEE336E79000000790000001B0000006175746F6465736B2D64657369676E2D7061636B6167652E786D6C3C3F786D6C2076657273696F6E3D22312E302220656E636F64696E673D227574662D3822203F3E3C666F726D6174733E3C666F726D61743E687474703A2F2F736368656D612E
310
6175746F6465736B2E636F6D2F64657369676E2D7061636B6167652F323030393C2F666F726D61743E3C2F666F726D6174733E504B0304140006080800CC70623BD486FD9CA0000000F4000000130000005B436F6E74656E745F54797065735D2E786D6C7D8EC10E82300C865F65E91D8A1E8C310C0EEA1BF002731658846E
310
D98AC1B77784ABF1D8FE5FBFBF75BBCE937A534CCEB38643598122B6FEE978D0B0485F9C41B54DDD7D022595594E1A469170414C76A4D9A4D207E29CF43ECE46F218070CC6BECC4078ACAA135ACF422C856C0E68EA1BF5669944DDD7BCDE7B1F8E415D77AECB980613C2E4AC91FC167A2B244592486606FC29C8FD7F045B9A
310
EF7053A7E60B504B0304140006080800CC70623B1EC5D7A3EB0000007C01000008000000636F72652E786D6C8D90416EC3201045AF82665B6103C6756C6122AB4D4ED00B204C5C94182C03558F5F9C3852BBEB6A467FFE9B197D71FC9E6FE8CBACC17AD7032D0820E3B41FAD9B7A48F1820F808E52ACDEC75F36404ECDA687
310
4D0629A6D5A76597B477D1B89855E747B38B2A041301E95B6E7A08FAD3CCAA50296647B8168BD2573599823EBB0CA76447F43862C7BCCF5EAC59410E4DDD9C7973C2755553CCCFA4C603E3040F1565ED3B1FDE4E432BCA0D9622DAF9795FAF464533826484B498524CD807E51D79ED187F21878E10516EF63F505AC67F42C9
310
BA58B1FDDD071640D2FCC87D2045B96591CB3DA85CB7DCE40F504B0304140006080800CC70623B55019EA25F0000007C00000007000000636E782E786D6C4DCB3B0E80201045D1AD90E915ED2CF8AC45050C11660C8261F98AB1B07AC9C97D42D718D865D3E909258CFD00CCE24AC6E326A164D74DC0B4128928FF32603847
310
2BA13128B1252AC747C6BAB984FC68F0B87FE8960A5C09FE86CFB69FBA01504B0304140006080800CC70623B8C9102E971010000D40300000C0000006662782F636F72652E786D6CC5535B6E833010BC8AE5DF0A6C08340F1947A84D4ED00B38C6A128602363A31CBFCB234A53A551FA553EC09AD9F5CE8C31DB9E9B1AF5CA
310
7695D1198E428A91D2D214952E33ECDD315861B4E5CC1AE3BE9561A445A3323CC098B3D21ADFCE9034DA29ED00D5A6503328BA4E398C640D8B0C77F253352214DE4145770A5B214FA2546114020D759C75CE8200340D19DE981F0F6746269C33EFAB6266AB02A655C74A59CCF365BADC27CB5D902ED22848F6340DF238A141
310
BE88E2F57B92BFEDF23523433367AE6A2EEAA455C2A902F398D2751045018D3FA264435F3771F242571B4A1919CA6F9A7C5B3CD9E42BED16F12C776AEB308F40C848FC700B1139D4891EF410CEC810227CC6846F8386402064270EF5C5C709A05E49676C024C61FC95EA45ED154CA5211D1FF4FB8291A913A68E9B83EBBB33
310
E2A7673CDE118E5AE8124C0807CB8377834E366998436B950D7A7746DAD846D4CFD978E0F04FD455FC5D49D2D4C6FE9722321F10997F0F32DC47FE05504B0304140006080800CC70623BFFEA85907E0000009D0000000B0000006662782F636E782E786D6C4DCCD10A83201886E15B91FFDC95D95A811AB6F23E625948A6C3
310
E9D8E5AF46073BFAE0E1E365ED67B3E8ADC3CB78C7815C7240DA3DFC64DCC221C519D7805AC182F7F1EF06C88D9BE6703008B6049F9E274D7A1E938DBB5AE3D6131B2589BA0D3D965551E0B2EA732C9B9A624AAEB41E3A557677029960D9AFB4EF11165F504B0304140006080800CC70623B4FEEA4082C0100001202000031
310
0000006662782F39464131463745442D413632322D343644302D413938332D3331353338454246344243312F636F72652E786D6C8D515B6EC32010BC0AE2AB55850DD871ED0813254D72825EC00192A2C460F1A872FC42ED48ED5F7E00CDCECCCEB26C731F6FE05B39AFADE921293004CA082BB5B9F43086336A21D870E6AC
310
0D7F68109861543DCC30E4ECE26C9C164858139409093556AA051CBC570102714B8F1E7AF1A5C6A11862480C7F2DA6415C878B2A4891CA89C7990F2E050073937C42DE1DB7E4F87ED8A36D4329AA9B3D46DBAEAD504556557BD81DEBDD0761E52CE42C462D17B996298E3E6BE59E35C962CE821E1FF18553435012728A7187
310
0841987E927A8D9B35ADDF70BBC6989599FE4F1427F9A4286A132ABAC49D651EF234CD5CE04CDA78BA3DC2A8FB645D00B9DF8B57E215725C60BCA2A463E54C4CE327C7A65E1C7DB02E7DEFCBF594B864C5CA6CDBD49C957943E9FA5D5FBAF336F90F504B0304140006080800CC70623BAD7543B64E01000033030000300000
310
006662782F39464131463745442D413632322D343644302D413938332D3331353338454246344243312F636E782E786D6CD593CD6EC32010845F0571AD6CE3D48AD20813A9873E410FBD12D82434182C7EAAE6EDBB2424CD25871E7B41D6EC30B3FA84F9E67BB2E40B4234DE8DB46F1925E094D7C6ED479AD3AE5951B2113C
310
789FEE6C943839C1488B4C05DF079FE72A69D8C96C13AAD6B8631503449F83828872B949AC57D26200B826A308D316B4064D6E46FCDA41C05550DC9E483A00797BFD207EFB092A45DE9514C1BBD22178396BD39D891265658C238DEA00936C654E5E433CB65A26D9F6EDB5EBC14EBF49A45CB856E66048291F6939A9A81BB5
310
C8917738143CA680F4AA299D66A042CEB3354A2684DC9D8D178FE0D9B8B41CAAD720F880EE7EF93C0C18769E099ECC04D5A102C8049A8A05632F4DDF376CF1DE0F6BB65C2F8627B65A33C6BB62177CEBBDAD973006829F89F22E814B54F4BC2BE347F8AA8F681390B50FA73F804400B5F542E796F19FF974E7F78DB802FE05
310
E207504B0304140006080800CC70623B16AB87BA640500003C100000340000006662782F39464131463745442D413632322D343644302D413938332D3331353338454246344243312F6F626A656374732E786D6CAD575B6FA33818FD2B887DE6924B3BED8A326A92B68A663B534DD4D13E548A0C38942D60649B369D5FBFC7
310
600890A493BDE42160637FD7F31D7FF63E6FB3D478A55C242CBF3247B66B1A340F5994E4F19559CA8D75611A9F7D8F33263BCB4C232719BD32D5B4E97B316765A1A722BA21652A07B3B7B33F0D11D29C9A46981221AE4C113ED38CD8A4942CA2E2C58E882476BCD9DA23BB5ED8171B73523C0F841684D35CC252CCE79062D4
310
468DFA43D7747CCF51DF7D4FFDEB5593E3AB9CCA9FBEFE241792E4E19EB28198C968BAB8199F5D5A67D3E9C49A9E8F47D6EC76B6B0469F26EEFC7C3EBFBCBEB98462213924694B38DD98FE1D62C393D073EA4FADC5DAF04326852CCF6958F90F0F2B9BB5C48816348F90C7840A68EB78EDF68723159BCEE7891A6B95DDE9D3
310
BCEAEEE8086A6C6F9E5D4B59F0175C10A7A0820BAA5055C7473B5AE3CFDD452D602CD5DF12616444529E90D448938013FE6EFA58AA96F85E4F8C42275708571E98FE6827AF6B2B4AE3D7D83D64E5A64C53054DD3AF90BD06FEA9149565C94FCA0F6B834DC85599E4F2423B24DF0B6AFA979E534DFA9E7A4CC6FA631D486393
310
921829879BF5D781A373557BCB85E97FB90DB62B558F8795179C15944B051F40AB495CF35451D26A4727654E6D8033BD98EF82F21D91FF8AF2DD9982BCF1643BDD4EB516C9492E368C67C88DED563FC36D5EACF66DFF057C3658BDBFA69DF9578B3DA735B64F18C7F20770A9D45CFCF7FCF563D6456A277DBEF78A02637CA2
310
43B90A490AEAB94F72244481D24819A6C0E59B606BFA4B3025981DBB48EAB701D97BF19C577CC77F2D1B6C55A9EF3C732474C0B727303F625995056C3B02963D9EAC146BE78EC5FCEC7FA999EBC5EACBAAE41B12D27B4D2C0BBA49F244E2ECDC81B76B502F113D8F5EE8FB1BE3111CDD4FC2AA9B844CAB1288B68AB90A7CDC
310
1C166AB0D3DC5310625FCC14E779BFD0709F8890A629C9292B1B2DED31A4B0DA928CEE135085754027E3018A397D4D5427D15BD1330B677DC8934285AC3DF45A9EB68FF8F2B8FC0A509AFEECFD0FF2DE25CC6047F7214B195F07EFEB9A094D800F7BFAE8FED187B78EA8A3A400F115961BCAD1215E47C966530AF0EE8128FE
310
58CEBB996A8964FFA529A046635D9353B0336A8F700DDF46271A024E70B0B37C9DE01847591E54DED53D54202AB947E4076556AC49C6CA5C9E1226B7F1A7B1BE15DEED62C41B91E1B3E9AFAAA735036547343A925075041DF0A9979E893B391F8FCFA6967B3EFB644DCF6E5CEBFAE272625DCC6FAF3FB93793C5F90CE1EF57
310
407342756B10D1C489E8953CD1617E5CEECAD6F4EF8914CE5D5D504E5C3F1F9736DA62CFC11E00BCDDB8CC8A9466349744C1F75EBDA4DF09BA8A9E8C7A7E9991989E20E5DBDD6A6003664ED8F7A04A8DBE0DF6EAD9B9AA858342E47399053949D2C146EDB85DE4B176BB0965FBAC19BD19AA918E27FA50C1D22402E144464C
310
59462568E704B6E71915404CB72B8FF4EDE184DDAF753F284990D2C6926782963815403548A70C657FDEF80D2D9CEAA2AE4C1C76F60BFE74219A06527D6582DF6412526107381E55E353090704D085B52408D0933C4ED159D79BDA71BB4BC506F4831350EB6F979CD22D69BF7AC49B91A2C0A9DDA3D5CA36AD20FC478E37E6
310
1844E2352865EBCB6EA275A652E3836BE04EFB400BF1A2556F515F1FBB35B2AB35BD889C744FFA1004B5544B121E57F70215746DD2F5E2C1412B602CBF19455AC6C8E5E9922C4E01E65215385004546899059180EAFCF7A707CE7017CD8CDB0410789AB32C63B91E5CEBBBACB17AC6CD347A022D5075FD106377347AAABA7E
310
7D11590744509B44E205134DC1290F06580320F78E537D3D73540E06CB970B431F185308AD40BBD794D6D77003C5A36E8EAA54BA64597CD8F83BD552A080A365F7FF06504B0304140006080000CC70623B000000000000000000000000350000006662782F39464131463745442D413632322D343644302D413938332D3331
310
353338454246344243312F76657274696365732E62696E504B0304140006080800CC70623BF270F1330600000004000000360000006662782F39464131463745442D413632322D343644302D413938332D3331353338454246344243312F747269616E676C65732E62696E636660600000504B0304140006080000CC70623B
310
000000000000000000000000370000006662782F39464131463745442D413632322D343644302D413938332D3331353338454246344243312F617474726962757465732E62696E504B0304140006080800CC70623B08DA0BD19000000041010000360000006662782F39464131463745442D413632322D343644302D413938
310
332D3331353338454246344243312F6469726563746F72792E786D6C858F410AC3201045AF22B36F53E9A60B35CBEEBAE80D244E44489C6234F4F835464A48035D0DF398FF9F8AF63D0E6CC63039F212F8F9020C7D47C6792B21C5FE7403D62A1188E2E60C98D7234A5830286103A55745067B9D86B8A3CF9C7F90C11DE607
310
FB144396D7B6A82D282E9A152AD114D5EF2CB866EEE831B8EEA07A7BB5A8D7D61A2BAAEB7FD5F70921FF497D00504B0304140006080800CC70623B0D6EF93BFE000000A00100003B0000006662782F39464131463745442D413632322D343644302D413938332D3331353338454246344243312F7265736F75726365732F63
310
6F72652E786D6C8D50596E833010BD0A9ADFCA60B334011947A8694ED00B586642AC041B79A97AFC9A40A5F6AF3F33A3B7689E1E3F7DCD8FEC139DD7D6F4C0720A191A65476DA61E62B892236427C19DB5E1970C322367EC618541F0C9D9B8EC90B226A009093576C41D94DE63804C3DD2D18357379C652E63480A7FCF17A9
310
EE72C29CE5894E3AC17D702940B63D59270887DE46A7D0F36263058F518FBB468FE9A7BE6A7420864373B8D4873369AA8691FA421B3294352543C5CAF65C0F6FEF43CB8BD52C78D0F34F46E550061C419494B6843142CB0F5677F4B52BEB177AEC28E5C52AFF638ACBF84F53D42654E51E77B379102C05791282176B5F693D
310
CB4C7BED567C03504B010214000A0000080000CC70623B3DEE336E79000000790000001B00000000000000000000000000000000006175746F6465736B2D64657369676E2D7061636B6167652E786D6C504B01021400140006080800CC70623BD486FD9CA0000000F40000001300000000000000000000000000B20000005B
310
436F6E74656E745F54797065735D2E786D6C504B01021400140006080800CC70623B1EC5D7A3EB0000007C010000080000000000000000000000000083010000636F72652E786D6C504B01021400140006080800CC70623B55019EA25F0000007C000000070000000000000000000000000094020000636E782E786D6C504B
310
01021400140006080800CC70623B8C9102E971010000D40300000C00000000000000000000000000180300006662782F636F72652E786D6C504B01021400140006080800CC70623BFFEA85907E0000009D0000000B00000000000000000000000000B30400006662782F636E782E786D6C504B01021400140006080800CC70
310
623B4FEEA4082C0100001202000031000000000000000000000000005A0500006662782F39464131463745442D413632322D343644302D413938332D3331353338454246344243312F636F72652E786D6C504B01021400140006080800CC70623BAD7543B64E010000330300003000000000000000000000000000D5060000
310
6662782F39464131463745442D413632322D343644302D413938332D3331353338454246344243312F636E782E786D6C504B01021400140006080800CC70623B16AB87BA640500003C1000003400000000000000000000000000710800006662782F39464131463745442D413632322D343644302D413938332D3331353338
310
454246344243312F6F626A656374732E786D6C504B01021400140006080000CC70623B0000000000000000000000003500000000000000000000000000270E00006662782F39464131463745442D413632322D343644302D413938332D3331353338454246344243312F76657274696365732E62696E504B01021400140006
310
080800CC70623BF270F133060000000400000036000000000000000000000000007A0E00006662782F39464131463745442D413632322D343644302D413938332D3331353338454246344243312F747269616E676C65732E62696E504B01021400140006080000CC70623B0000000000000000000000003700000000000000
310
000000000000D40E00006662782F39464131463745442D413632322D343644302D413938332D3331353338454246344243312F617474726962757465732E62696E504B01021400140006080800CC70623B08DA0BD190000000410100003600000000000000000000000000290F00006662782F39464131463745442D413632
310
322D343644302D413938332D3331353338454246344243312F6469726563746F72792E786D6C504B01021400140006080800CC70623B0D6EF93BFE000000A00100003B000000000000000000000000000D1000006662782F39464131463745442D413632322D343644302D413938332D3331353338454246344243312F7265
310
736F75726365732F636F72652E786D6C504B0506000000000E000E0080040000641100000000
  0
XRECORD
  5
175
102
{ACAD_REACTORS
330
173
102
}
330
173
100
AcDbXrecord
280
     1
270
     1
271
     1
  0
XRECORD
  5
174
102
{ACAD_REACTORS
330
173
102
}
330
173
100
AcDbXrecord
280
     1
270
     1
271
     1
  0
XRECORD
  5
1FB
102
{ACAD_REACTORS
330
173
102
}
330
173
100
AcDbXrecord
280
     1
 70
     0
 90
1673772943
  1
ECE7A1D2-D628-4531-984C-D00F80459256
310
504B03040A0000080000CC70623B3DEE336E79000000790000001B0000006175746F6465736B2D64657369676E2D7061636B6167652E786D6C3C3F786D6C2076657273696F6E3D22312E302220656E636F64696E673D227574662D3822203F3E3C666F726D6174733E3C666F726D61743E687474703A2F2F736368656D612E
310
6175746F6465736B2E636F6D2F64657369676E2D7061636B6167652F323030393C2F666F726D61743E3C2F666F726D6174733E504B0304140006080800CC70623BD486FD9CA0000000F4000000130000005B436F6E74656E745F54797065735D2E786D6C7D8EC10E82300C865F65E91D8A1E8C310C0EEA1BF002731658846E
310
D98AC1B77784ABF1D8FE5FBFBF75BBCE937A534CCEB38643598122B6FEE978D0B0485F9C41B54DDD7D022595594E1A469170414C76A4D9A4D207E29CF43ECE46F218070CC6BECC4078ACAA135ACF422C856C0E68EA1BF5669944DDD7BCDE7B1F8E415D77AECB980613C2E4AC91FC167A2B244592486606FC29C8FD7F045B9A
310
EF7053A7E60B504B0304140006080800CC70623BD9DDAED0EC0000007C01000008000000636F72652E786D6C8D90416EC3201045AF82665B61836D9CD8C2444DD39CA01740405C94182C03558F5F9C3852BBEB6A467FFE9B197D7EF89E6EE8CB2CC17A37002D0820E394D7D68D03A478C17B4007C117EFE32F1B20272733C0
310
2A83E0E3E2D3BC49CABB685CCCAAF3DA6CA20CC14440EA969B0182FA34932C648AD911AEC52CD5558EA6A0CF2EC329598D1E47ACCEFBECC59A050463A7EA5833865FEBDD0E37353BE3EE8DBDE3F6786A48D375FBF6CC78B9C282473B3DEFABC5C86834888A900E538A49F5419B9EB47DD5BC907D4F082F57FB1F28CDFA9F50
310
B22ED6D5F6EE030B20687EE43E10BC5CB3C8E51E54AE6B6EE207504B0304140006080800CC70623B55019EA25F0000007C00000007000000636E782E786D6C4DCB3B0E80201045D1AD90E915ED2CF8AC45050C11660C8261F98AB1B07AC9C97D42D718D865D3E909258CFD00CCE24AC6E326A164D74DC0B4128928FF326038
310
472BA13128B1252AC747C6BAB984FC68F0B87FE8960A5C09FE86CFB69FBA01504B0304140006080800CC70623BA24EB22D72010000D40300000C0000006662782F636F72652E786D6CC5535B6E833010BC8AE5DF0A6C5E49888CA3A6694ED00B38E05014B091B1518EDFE511A5A9D228FD2A1F60CDEC7A67C6986DCE4D8D7A
310
69BA4AAB0C073EC548AA5C17952A33ECECD15B61B4E1CC686DBF9561A44423333CC098B3D268D7CE50AE9595CA02AA74216750749DB418E5352C32DCE59FB211BE70162ABA93DF8AFC244AE9073ED050C759670D0840D390E18DF9F1706664C23973AE2A66B62A605A75ACA4C13C4976E1364A12EF355A2EBD384AF65EFA96
310
BC7B8BED2EA6719AAE16FB8491A199335B351775B991C2CA02F390D2D40B028F861F41BCA68B7518BFD0D59A524686F29B26D7164F36B94AD9289CE54E6D1DE6010819891F6E21228B3AD1831EC219194284CF98F06DD01008846CC5A1BEF83801D4CBDC6A1303536877A57A513B0953A94FC707FDBE6064EA84A9E3E6E0FA
310
EE8CF0E9198F7784A316AA0413C2C2F2E0ECA0934D1AE6D05A69BCDE9E91D2A611F573361E38FC1375157F5752AE6B6DFE4B11990F88CCBF0719EE23FF02504B0304140006080800CC70623B408A7D3B7C0000009D0000000B0000006662782F636E782E786D6C4DCCD10A83201886E15B91FFDC552A92A0064DBC8F581632
310
D3703A76F9ABD1C18E3E78F878E5F0D9027ABBFCF2292AE86E2D20171F69F6715550CB827B40839639A5F2770314A7CD293819B45C73AAFB45B35BA61ACAA1C1C7E7855C58C15BC331339661262CC762340413D68D77DA5B42298546CBE6573AF60CEB2F504B0304140006080800CC70623B449FB9BD290100001202000031
310
0000006662782F36394639363044362D344446342D343946362D394244322D3234314243333846323333332F636F72652E786D6C8D515B6EC32010BC0AE22B55850D98B871848994463E412FE002495162B07854397EA176A4F62F3F2C9A9D991D587EB84F37F0AD7D30CEF6905418026DA553C65E7A98E219ED203808EE9D
310
8B7F6810D871D23D2C3014FCE25D9A57483A1BB58D19B54EE9151C43D0110279CB971E06F9A5A7B11A53CC8C70ADE6515EC78BAE4895DB992778883E0700CB907242D17643D7E2538BD869608875438BBAE38922CAC8F1BDD90DB4691A5E2F42C153326A951B95E398B3D1FE599322163C9AE9115F7A3D46ADA0A018778810
310
84E907617BDCEE297BC5BB3DC6BC2EF47FA234AB2745C9D8D8D035EE220B50105E2F0DC1954B9FB747187D9F9D8FA0CCDB042D5FA0C015C65B42DF78BD10F3F3B363CB56C7109DCFDFBBB97E662ED92EB62D13BC2E1BCAE5777DB9966D8A1F504B0304140006080800CC70623BAD7543B64E01000033030000300000006662
310
782F36394639363044362D344446342D343946362D394244322D3234314243333846323333332F636E782E786D6CD593CD6EC32010845F0571AD6CE3D48AD20813A9873E410FBD12D82434182C7EAAE6EDBB2424CD25871E7B41D6EC30B3FA84F9E67BB2E40B4234DE8DB46F1925E094D7C6ED479AD3AE5951B2113C789FEE
310
6C943839C1488B4C05DF079FE72A69D8C96C13AAD6B8631503449F83828872B949AC57D26200B826A308D316B4064D6E46FCDA41C05550DC9E483A00797BFD207EFB092A45DE9514C1BBD22178396BD39D891265658C238DEA00936C654E5E433CB65A26D9F6EDB5EBC14EBF49A45CB856E66048291F6939A9A81BB5C89177
310
38143CA680F4AA299D66A042CEB3354A2684DC9D8D178FE0D9B8B41CAAD720F880EE7EF93C0C18769E099ECC04D5A102C8049A8A05632F4DDF376CF1DE0F6BB65C2F8627B65A33C6BB62177CEBBDAD973006829F89F22E814B54F4BC2BE347F8AA8F681390B50FA73F804400B5F542E796F19FF974E7F78DB802FE05E20750
310
4B0304140006080800CC70623B8D05915C650500003B100000340000006662782F36394639363044362D344446342D343946362D394244322D3234314243333846323333332F6F626A656374732E786D6CAD575B6FA33814FE2B887D06429276DA1565D4266D158D3A339A6846FB502932E050B66023DB74D2FDF5FB190C01
310
9276B2973C046C8ECFF53B17071F77456EBD502133CEAE6CDF9DD81665314F32965ED995DA3A17B6F5310C04E7AA47665B8C14F4CAD6DB7618A48257A5D94AE89654B91AEDDEDDFC61C998326A5B714EA4BCB265FC440BE2924AF184CA6737218AB8E976E7FA6E4338649B0A523E8D98964450A6A029F619B8588D52FE7039
310
B1BD30F0F4F730D0FF866AF6369557DB33949F31A9088B0F848DD8CCFCF9F2767A76E99CCDE733677E3EF59D9BBB9BA5E37F984D16E78BC5E5F5ED25044B25C0C96822E8D60EEFE11B91C581D77CEA34368A1F5329E68CD1B8B61F16D63A1B8E092D294B10C78C4A48EB593D192E7DED9BDEE7995E1B91FDEDD3ACEA9FE831
310
6A756F9F7D4D79F4274C90A7A04248AA51D5F8C718DAE06FB2F75AC4796EBE65D22A88A22223B995679120E2D50E41AA49C260C046A35368846B0BECD0DFF3EBEB8AD4F835768F69B9ADF25C43D30E6B646F807FAA64AD59F61715C7A54127C4AACA98BA3006A9D792DAE165E0D59B61A01FB3A9F9D838D2DAE62445C86166
310
F37564E842E7DE6A69879FEEA2DD5AE7E371E1A5E025154AC307D06A03D73EB5978C58FFA4C8E9033066E0F3BD53BEC1F39F91BE7B55103791EDE6BBB991A2046172CB4581D8B893FA674DDA17A77B3B7C413D1B511FD2743BFF8A38F03A658705E3ADF8015C3A3417FF3D7E439FF591DA0B5F18BC20C1B8981957AE6392A3
310
F43C640C01D1A0B4728E2DD4F26DB4B3C3152A252A3B4E913CEC1C72F012782FF88EFF8637AA552DBEF76408E8A8DE9E50F9E1CB3A2DA0DB1B6039A893B56063DC5B3E3FFB5F72E67AB9FEB4AEC496C4F4C1149625DD662C53E89D7BF0F6151A046260D1337DFDC94502430F83B0EE07A130A224BCAD7DAE1D9FB6CD422FF6
310
920702629C4BB9AE79C12F243C6432A6794E18E5552BA56B431AAB5D91317302B2B071E86C3A42B1A02F999E24061403B5D0EB639195DA655DD3EBEAB4FB862DDF579F014AD0E73C22F99E28DA57FB98E75C6CA2D74D53086D600F4786E0FE3144B771A8A7B900F03594DB8A633CBC49B2EDB69228BB479CF863B5E807AAAB
310
23872F6DFEB4129B949CA33823F58830E86D65621E10047D9DB34D862E8EAC3C2ABC2F7B2C40D67CDFE01F5545B92105AF983AC54D93D69E56FB8E797F88913F898A9FEC705D3F9D1B54EC8426FB500D40A03BD0119B06E1B95DDC7EB8F6975367793EBD70E66733DFB9BC982F9CE564727731999F5D4ECFCE3B8D6A4DC2A0
310
6D50FD148437D110834A64C6CDDF57FBACB5C307A2A477DFE4939736CFEF2B175371E0E10CF0DD1D5C15654E0BCA14D1E87DD02FF93782A162C0A3D95F1524A52770F972BF1EE9809D13CE7DD599467F8ECE9ADD85CE85A34CD45355448C64F9E8A031DC2D596ACC6E5DD93D9B82DE2EF5CAF81363A8E47996A0DE24564A79
310
4115AACE09C55E14540231FDA13C319787134EBF34E3A022514E5B4D9E0826E25C02D5805B15ABE1BEF51B26383D445DD9E875EE33FE4C22DA16427D65A3BCA92CA6D28DD01DF5DC53330704308475351050232CCD31583787BA75774AFB06E5070DD0C8EF484E19968C5D83BA5B90B244D31E54D55A372320FE4786B7EA58
310
44E135AA5467CB7EA333A61683CC6A8C3257034C10CF46F40EF9F5BE59BE5BD30C3C72D235E95D10345C1D45445A5F0BB47E46A5EBE5570F9380B5FA629579952296A773720405982B9DE04011506178964401AA8BDF1FBF0A8EAB6861DD6580C0E38217056766716DAEB2D6FA0917D3E4116581EADB879C4E7CFFB11EFACD
310
3D641311495D92C8676CB409A72D18610D803CE8A626049E8EC1887CB5B44CC39883690DDA8399B4B9855B481E7D71D4A9D22F96E5BB73BF5793020C02137BF837504B0304140006080000CC70623B000000000000000000000000350000006662782F36394639363044362D344446342D343946362D394244322D32343142
310
43333846323333332F76657274696365732E62696E504B0304140006080800CC70623BF270F1330600000004000000360000006662782F36394639363044362D344446342D343946362D394244322D3234314243333846323333332F747269616E676C65732E62696E636660600000504B0304140006080000CC70623B0000
310
00000000000000000000370000006662782F36394639363044362D344446342D343946362D394244322D3234314243333846323333332F617474726962757465732E62696E504B0304140006080800CC70623B08DA0BD19000000041010000360000006662782F36394639363044362D344446342D343946362D394244322D
310
3234314243333846323333332F6469726563746F72792E786D6C858F410AC3201045AF22B36F53E9A60B35CBEEBAE80D244E44489C6234F4F835464A48035D0DF398FF9F8AF63D0E6CC63039F212F8F9020C7D47C6792B21C5FE7403D62A1188E2E60C98D7234A5830286103A55745067B9D86B8A3CF9C7F90C11DE607FB14
310
4396D7B6A82D282E9A152AD114D5EF2CB866EEE831B8EEA07A7BB5A8D7D61A2BAAEB7FD5F70921FF497D00504B0304140006080800CC70623BCA768048FE000000A00100003B0000006662782F36394639363044362D344446342D343946362D394244322D3234314243333846323333332F7265736F75726365732F636F72
310
652E786D6C8D50596E833010BD0A9ADFCA60D600328E9AA639412F609909B1126CE4A5EAF16B0295DABFFECC8CDEA2797AECF8353F924FB44E193D409E5248504B332A3D0D10FC95B4901C39B3C6F85F3248B49871801506CE266BC2B243D2688FDA47549B11775038871E12F988C7004EDE7016A9083E2ADC3D5D84BC8B09
310
D33C8D74D471E6BC8D0192EDC93A815B742658898E651BCB59086ADC356A8C3FD555A1055ED7E7E254D615792D0F075295F585746FF53B694EE78A565DD736979A65AB9933AFE69F8CD2A2F038022F28ED489E135A7CE4554F9BBEA85E68DB53CAB255FEC71496F19FA6A0B42F8B3DEE6673C0F318E4497096AD7DC5F52C33
310
EEB55BFE0D504B010214000A0000080000CC70623B3DEE336E79000000790000001B00000000000000000000000000000000006175746F6465736B2D64657369676E2D7061636B6167652E786D6C504B01021400140006080800CC70623BD486FD9CA0000000F40000001300000000000000000000000000B20000005B436F
310
6E74656E745F54797065735D2E786D6C504B01021400140006080800CC70623BD9DDAED0EC0000007C010000080000000000000000000000000083010000636F72652E786D6C504B01021400140006080800CC70623B55019EA25F0000007C000000070000000000000000000000000095020000636E782E786D6C504B0102
310
1400140006080800CC70623BA24EB22D72010000D40300000C00000000000000000000000000190300006662782F636F72652E786D6C504B01021400140006080800CC70623B408A7D3B7C0000009D0000000B00000000000000000000000000B50400006662782F636E782E786D6C504B01021400140006080800CC70623B
310
449FB9BD290100001202000031000000000000000000000000005A0500006662782F36394639363044362D344446342D343946362D394244322D3234314243333846323333332F636F72652E786D6C504B01021400140006080800CC70623BAD7543B64E010000330300003000000000000000000000000000D20600006662
310
782F36394639363044362D344446342D343946362D394244322D3234314243333846323333332F636E782E786D6C504B01021400140006080800CC70623B8D05915C650500003B10000034000000000000000000000000006E0800006662782F36394639363044362D344446342D343946362D394244322D32343142433338
310
46323333332F6F626A656374732E786D6C504B01021400140006080000CC70623B0000000000000000000000003500000000000000000000000000250E00006662782F36394639363044362D344446342D343946362D394244322D3234314243333846323333332F76657274696365732E62696E504B010214001400060808
310
00CC70623BF270F13306000000040000003600000000000000000000000000780E00006662782F36394639363044362D344446342D343946362D394244322D3234314243333846323333332F747269616E676C65732E62696E504B01021400140006080000CC70623B00000000000000000000000037000000000000000000
310
00000000D20E00006662782F36394639363044362D344446342D343946362D394244322D3234314243333846323333332F617474726962757465732E62696E504B01021400140006080800CC70623B08DA0BD190000000410100003600000000000000000000000000270F00006662782F36394639363044362D344446342D
310
343946362D394244322D3234314243333846323333332F6469726563746F72792E786D6C504B01021400140006080800CC70623BCA768048FE000000A00100003B000000000000000000000000000B1000006662782F36394639363044362D344446342D343946362D394244322D3234314243333846323333332F7265736F
310
75726365732F636F72652E786D6C504B0506000000000E000E0080040000621100000000
  0
XRECORD
  5
176
102
{ACAD_REACTORS
330
173
102
}
330
173
100
AcDbXrecord
280
     1
270
     1
271
     1
  0
XRECORD
  5
177
102
{ACAD_REACTORS
330
173
102
}
330
173
100
AcDbXrecord
280
     1
270
     1
271
     1
  0
XRECORD
  5
3088
102
{ACAD_REACTORS
330
3087
102
}
330
3087
100
AcDbXrecord
280
     1
102
DISPLAYNAME
  1
Metric50
102
FLAGS
 90
        0
  0
CELLSTYLEMAP
  5
3055
102
{ACAD_REACTORS
330
162
102
}
330
162
100
AcDbCellStyleMap
 90
        3
300
CELLSTYLE
  1
TABLEFORMAT_BEGIN
 90
        5
170
     1
 91
        0
 92
    32768
 62
   257
 93
        1
300
CONTENTFORMAT
  1
CONTENTFORMAT_BEGIN
 90
        0
 91
        0
 92
      512
 93
        0
300

 40
0.0
140
1.0
 94
        5
 62
     0
340
11
144
6.0
309
CONTENTFORMAT_END
171
     1
301
MARGIN
  1
CELLMARGIN_BEGIN
 40
1.5
 40
1.5
 40
1.5
 40
1.5
 40
0.18
 40
0.18
309
CELLMARGIN_END
 94
        6
 95
        1
302
GRIDFORMAT
  1
GRIDFORMAT_BEGIN
 90
        0
 91
        1
 62
     0
 92
       -2
340
14
 93
        0
 40
1.125
309
GRIDFORMAT_END
 95
        2
302
GRIDFORMAT
  1
GRIDFORMAT_BEGIN
 90
        0
 91
        1
 62
     0
 92
       -2
340
14
 93
        0
 40
1.125
309
GRIDFORMAT_END
 95
        4
302
GRIDFORMAT
  1
GRIDFORMAT_BEGIN
 90
        0
 91
        1
 62
     0
 92
       -2
340
14
 93
        0
 40
1.125
309
GRIDFORMAT_END
 95
        8
302
GRIDFORMAT
  1
GRIDFORMAT_BEGIN
 90
        0
 91
        1
 62
     0
 92
       -2
340
14
 93
        0
 40
1.125
309
GRIDFORMAT_END
 95
       16
302
GRIDFORMAT
  1
GRIDFORMAT_BEGIN
 90
        0
 91
        1
 62
     0
 92
       -2
340
14
 93
        0
 40
1.125
309
GRIDFORMAT_END
 95
       32
302
GRIDFORMAT
  1
GRIDFORMAT_BEGIN
 90
        0
 91
        1
 62
     0
 92
       -2
340
14
 93
        0
 40
1.125
309
GRIDFORMAT_END
309
TABLEFORMAT_END
  1
CELLSTYLE_BEGIN
 90
        1
 91
        1
300
_TITLE
309
CELLSTYLE_END
300
CELLSTYLE
  1
TABLEFORMAT_BEGIN
 90
        5
170
     1
 91
        0
 92
        0
 62
   257
 93
        1
300
CONTENTFORMAT
  1
CONTENTFORMAT_BEGIN
 90
        0
 91
        0
 92
      512
 93
        0
300

 40
0.0
140
1.0
 94
        5
 62
     0
340
11
144
4.5
309
CONTENTFORMAT_END
171
     1
301
MARGIN
  1
CELLMARGIN_BEGIN
 40
1.5
 40
1.5
 40
1.5
 40
1.5
 40
0.18
 40
0.18
309
CELLMARGIN_END
 94
        6
 95
        1
302
GRIDFORMAT
  1
GRIDFORMAT_BEGIN
 90
        0
 91
        1
 62
     0
 92
       -2
340
14
 93
        0
 40
1.125
309
GRIDFORMAT_END
 95
        2
302
GRIDFORMAT
  1
GRIDFORMAT_BEGIN
 90
        0
 91
        1
 62
     0
 92
       -2
340
14
 93
        0
 40
1.125
309
GRIDFORMAT_END
 95
        4
302
GRIDFORMAT
  1
GRIDFORMAT_BEGIN
 90
        0
 91
        1
 62
     0
 92
       -2
340
14
 93
        0
 40
1.125
309
GRIDFORMAT_END
 95
        8
302
GRIDFORMAT
  1
GRIDFORMAT_BEGIN
 90
        0
 91
        1
 62
     0
 92
       -2
340
14
 93
        0
 40
1.125
309
GRIDFORMAT_END
 95
       16
302
GRIDFORMAT
  1
GRIDFORMAT_BEGIN
 90
        0
 91
        1
 62
     0
 92
       -2
340
14
 93
        0
 40
1.125
309
GRIDFORMAT_END
 95
       32
302
GRIDFORMAT
  1
GRIDFORMAT_BEGIN
 90
        0
 91
        1
 62
     0
 92
       -2
340
14
 93
        0
 40
1.125
309
GRIDFORMAT_END
309
TABLEFORMAT_END
  1
CELLSTYLE_BEGIN
 90
        2
 91
        1
300
_HEADER
309
CELLSTYLE_END
300
CELLSTYLE
  1
TABLEFORMAT_BEGIN
 90
        5
170
     1
 91
        0
 92
        0
 62
   257
 93
        1
300
CONTENTFORMAT
  1
CONTENTFORMAT_BEGIN
 90
        0
 91
        0
 92
      512
 93
        0
300

 40
0.0
140
1.0
 94
        2
 62
     0
340
11
144
4.5
309
CONTENTFORMAT_END
171
     1
301
MARGIN
  1
CELLMARGIN_BEGIN
 40
1.5
 40
1.5
 40
1.5
 40
1.5
 40
0.18
 40
0.18
309
CELLMARGIN_END
 94
        6
 95
        1
302
GRIDFORMAT
  1
GRIDFORMAT_BEGIN
 90
        0
 91
        1
 62
     0
 92
       -2
340
14
 93
        0
 40
1.125
309
GRIDFORMAT_END
 95
        2
302
GRIDFORMAT
  1
GRIDFORMAT_BEGIN
 90
        0
 91
        1
 62
     0
 92
       -2
340
14
 93
        0
 40
1.125
309
GRIDFORMAT_END
 95
        4
302
GRIDFORMAT
  1
GRIDFORMAT_BEGIN
 90
        0
 91
        1
 62
     0
 92
       -2
340
14
 93
        0
 40
1.125
309
GRIDFORMAT_END
 95
        8
302
GRIDFORMAT
  1
GRIDFORMAT_BEGIN
 90
        0
 91
        1
 62
     0
 92
       -2
340
14
 93
        0
 40
1.125
309
GRIDFORMAT_END
 95
       16
302
GRIDFORMAT
  1
GRIDFORMAT_BEGIN
 90
        0
 91
        1
 62
     0
 92
       -2
340
14
 93
        0
 40
1.125
309
GRIDFORMAT_END
 95
       32
302
GRIDFORMAT
  1
GRIDFORMAT_BEGIN
 90
        0
 91
        1
 62
     0
 92
       -2
340
14
 93
        0
 40
1.125
309
GRIDFORMAT_END
309
TABLEFORMAT_END
  1
CELLSTYLE_BEGIN
 90
        3
 91
        2
300
_DATA
309
CELLSTYLE_END
  0
XRECORD
  5
3062
102
{ACAD_REACTORS
330
3061
102
}
330
3061
100
AcDbXrecord
280
     1
102
RTVSPost2010Prop28
280
     1
102
RTVSPost2010PropOp28
 70
     1
102
RTVSPost2010Prop29
280
     1
102
RTVSPost2010PropOp29
 70
     1
102
RTVSPost2010Prop30
280
     0
102
RTVSPost2010PropOp30
 70
     1
102
RTVSPost2010Prop31
280
     0
102
RTVSPost2010PropOp31
 70
     1
102
RTVSPost2010Prop32
280
     0
102
RTVSPost2010PropOp32
 70
     1
102
RTVSPost2010Prop33
280
     0
102
RTVSPost2010PropOp33
 70
     1
102
RTVSPost2010Prop34
280
     0
102
RTVSPost2010PropOp34
 70
     1
102
RTVSPost2010Prop35
280
     0
102
RTVSPost2010PropOp35
 70
     1
102
RTVSPost2010Prop36
280
     0
102
RTVSPost2010PropOp36
 70
     1
102
RTVSPost2010Prop37
 90
       50
102
RTVSPost2010PropOp37
 70
     1
102
RTVSPost2010Prop38
140
0.0
102
RTVSPost2010PropOp38
 70
     1
102
RTVSPost2010Prop39
140
1.0
102
RTVSPost2010PropOp39
 70
     1
102
RTVSPost2010Prop40
 90
        0
102
RTVSPost2010PropOp40
 70
     1
102
RTVSPost2010Prop41ColorIndex
 90
       18
102
RTVSPost2010Prop41ColorRGB
 90
        0
102
RTVSPost2010PropOp41
 70
     1
102
RTVSPost2010Prop42
 90
       50
102
RTVSPost2010PropOp42
 70
     1
102
RTVSPost2010Prop43
 90
        3
102
RTVSPost2010PropOp43
 70
     1
102
RTVSPost2010Prop44ColorIndex
 90
        5
102
RTVSPost2010Prop44ColorRGB
 90
      255
102
RTVSPost2010PropOp44
 70
     1
102
RTVSPost2010Prop45
280
     0
102
RTVSPost2010PropOp45
 70
     1
102
RTVSPost2010Prop46
 90
       50
102
RTVSPost2010PropOp46
 70
     1
102
RTVSPost2010Prop47
 90
       50
102
RTVSPost2010PropOp47
 70
     1
102
RTVSPost2010Prop48
 90
       50
102
RTVSPost2010PropOp48
 70
     1
102
RTVSPost2010Prop49
280
     0
102
RTVSPost2010PropOp49
 70
     1
102
RTVSPost2010Prop50
 90
       50
102
RTVSPost2010PropOp50
 70
     1
102
RTVSPost2010Prop51ColorIndex
 90
      256
102
RTVSPost2010Prop51ColorRGB
 90
-16777216
102
RTVSPost2010PropOp51
 70
     0
102
RTVSPost2010Prop52
140
1.0
102
RTVSPost2010PropOp52
 70
     0
102
RTVSPost2010Prop53
 90
        2
102
RTVSPost2010PropOp53
 70
     1
102
RTVSPost2010Prop54
  1
strokes_ogs.tif
102
RTVSPost2010PropOp54
 70
     1
102
RTVSPost2010Prop55
280
     0
102
RTVSPost2010PropOp55
 70
     1
102
RTVSPost2010Prop56
140
1.0
102
RTVSPost2010PropOp56
 70
     1
102
RTVSPost2010Prop57
140
1.0
102
RTVSPost2010PropOp57
 70
     1
  0
XRECORD
  5
3060
102
{ACAD_REACTORS
330
305F
102
}
330
305F
100
AcDbXrecord
280
     1
102
RTVSPost2010Prop28
280
     0
102
RTVSPost2010PropOp28
 70
     1
102
RTVSPost2010Prop29
280
     1
102
RTVSPost2010PropOp29
 70
     1
102
RTVSPost2010Prop30
280
     1
102
RTVSPost2010PropOp30
 70
     1
102
RTVSPost2010Prop31
280
     0
102
RTVSPost2010PropOp31
 70
     1
102
RTVSPost2010Prop32
280
     0
102
RTVSPost2010PropOp32
 70
     1
102
RTVSPost2010Prop33
280
     0
102
RTVSPost2010PropOp33
 70
     1
102
RTVSPost2010Prop34
280
     0
102
RTVSPost2010PropOp34
 70
     1
102
RTVSPost2010Prop35
280
     0
102
RTVSPost2010PropOp35
 70
     1
102
RTVSPost2010Prop36
280
     0
102
RTVSPost2010PropOp36
 70
     1
102
RTVSPost2010Prop37
 90
       50
102
RTVSPost2010PropOp37
 70
     1
102
RTVSPost2010Prop38
140
0.0
102
RTVSPost2010PropOp38
 70
     1
102
RTVSPost2010Prop39
140
1.0
102
RTVSPost2010PropOp39
 70
     1
102
RTVSPost2010Prop40
 90
        0
102
RTVSPost2010PropOp40
 70
     1
102
RTVSPost2010Prop41ColorIndex
 90
       18
102
RTVSPost2010Prop41ColorRGB
 90
        0
102
RTVSPost2010PropOp41
 70
     1
102
RTVSPost2010Prop42
 90
       50
102
RTVSPost2010PropOp42
 70
     1
102
RTVSPost2010Prop43
 90
        3
102
RTVSPost2010PropOp43
 70
     1
102
RTVSPost2010Prop44ColorIndex
 90
        5
102
RTVSPost2010Prop44ColorRGB
 90
      255
102
RTVSPost2010PropOp44
 70
     1
102
RTVSPost2010Prop45
280
     0
102
RTVSPost2010PropOp45
 70
     1
102
RTVSPost2010Prop46
 90
       50
102
RTVSPost2010PropOp46
 70
     1
102
RTVSPost2010Prop47
 90
       50
102
RTVSPost2010PropOp47
 70
     1
102
RTVSPost2010Prop48
 90
       50
102
RTVSPost2010PropOp48
 70
     1
102
RTVSPost2010Prop49
280
     0
102
RTVSPost2010PropOp49
 70
     1
102
RTVSPost2010Prop50
 90
       50
102
RTVSPost2010PropOp50
 70
     1
102
RTVSPost2010Prop51ColorIndex
 90
      256
102
RTVSPost2010Prop51ColorRGB
 90
-16777216
102
RTVSPost2010PropOp51
 70
     0
102
RTVSPost2010Prop52
140
1.0
102
RTVSPost2010PropOp52
 70
     0
102
RTVSPost2010Prop53
 90
        2
102
RTVSPost2010PropOp53
 70
     1
102
RTVSPost2010Prop54
  1
strokes_ogs.tif
102
RTVSPost2010PropOp54
 70
     1
102
RTVSPost2010Prop55
280
     0
102
RTVSPost2010PropOp55
 70
     1
102
RTVSPost2010Prop56
140
1.0
102
RTVSPost2010PropOp56
 70
     1
102
RTVSPost2010Prop57
140
1.0
102
RTVSPost2010PropOp57
 70
     1
  0
XRECORD
  5
306E
102
{ACAD_REACTORS
330
306D
102
}
330
306D
100
AcDbXrecord
280
     1
102
RTVSPost2010Prop28
280
     0
102
RTVSPost2010PropOp28
 70
     1
102
RTVSPost2010Prop29
280
     1
102
RTVSPost2010PropOp29
 70
     1
102
RTVSPost2010Prop30
280
     1
102
RTVSPost2010PropOp30
 70
     1
102
RTVSPost2010Prop31
280
     0
102
RTVSPost2010PropOp31
 70
     1
102
RTVSPost2010Prop32
280
     0
102
RTVSPost2010PropOp32
 70
     1
102
RTVSPost2010Prop33
280
     0
102
RTVSPost2010PropOp33
 70
     1
102
RTVSPost2010Prop34
280
     0
102
RTVSPost2010PropOp34
 70
     1
102
RTVSPost2010Prop35
280
     0
102
RTVSPost2010PropOp35
 70
     1
102
RTVSPost2010Prop36
280
     0
102
RTVSPost2010PropOp36
 70
     1
102
RTVSPost2010Prop37
 90
       50
102
RTVSPost2010PropOp37
 70
     1
102
RTVSPost2010Prop38
140
0.0
102
RTVSPost2010PropOp38
 70
     1
102
RTVSPost2010Prop39
140
1.0
102
RTVSPost2010PropOp39
 70
     1
102
RTVSPost2010Prop40
 90
        0
102
RTVSPost2010PropOp40
 70
     1
102
RTVSPost2010Prop41ColorIndex
 90
       18
102
RTVSPost2010Prop41ColorRGB
 90
        0
102
RTVSPost2010PropOp41
 70
     1
102
RTVSPost2010Prop42
 90
       50
102
RTVSPost2010PropOp42
 70
     1
102
RTVSPost2010Prop43
 90
        3
102
RTVSPost2010PropOp43
 70
     1
102
RTVSPost2010Prop44ColorIndex
 90
        5
102
RTVSPost2010Prop44ColorRGB
 90
      255
102
RTVSPost2010PropOp44
 70
     1
102
RTVSPost2010Prop45
280
     0
102
RTVSPost2010PropOp45
 70
     1
102
RTVSPost2010Prop46
 90
       50
102
RTVSPost2010PropOp46
 70
     1
102
RTVSPost2010Prop47
 90
       50
102
RTVSPost2010PropOp47
 70
     1
102
RTVSPost2010Prop48
 90
       50
102
RTVSPost2010PropOp48
 70
     1
102
RTVSPost2010Prop49
280
     0
102
RTVSPost2010PropOp49
 70
     1
102
RTVSPost2010Prop50
 90
       50
102
RTVSPost2010PropOp50
 70
     1
102
RTVSPost2010Prop51ColorIndex
 90
      256
102
RTVSPost2010Prop51ColorRGB
 90
-16777216
102
RTVSPost2010PropOp51
 70
     0
102
RTVSPost2010Prop52
140
1.0
102
RTVSPost2010PropOp52
 70
     0
102
RTVSPost2010Prop53
 90
        2
102
RTVSPost2010PropOp53
 70
     1
102
RTVSPost2010Prop54
  1
strokes_ogs.tif
102
RTVSPost2010PropOp54
 70
     1
102
RTVSPost2010Prop55
280
     0
102
RTVSPost2010PropOp55
 70
     1
102
RTVSPost2010Prop56
140
1.0
102
RTVSPost2010PropOp56
 70
     1
102
RTVSPost2010Prop57
140
1.0
102
RTVSPost2010PropOp57
 70
     1
  0
XRECORD
  5
3076
102
{ACAD_REACTORS
330
3075
102
}
330
3075
100
AcDbXrecord
280
     1
102
RTVSPost2010Prop28
280
     0
102
RTVSPost2010PropOp28
 70
     1
102
RTVSPost2010Prop29
280
     1
102
RTVSPost2010PropOp29
 70
     1
102
RTVSPost2010Prop30
280
     1
102
RTVSPost2010PropOp30
 70
     1
102
RTVSPost2010Prop31
280
     0
102
RTVSPost2010PropOp31
 70
     1
102
RTVSPost2010Prop32
280
     0
102
RTVSPost2010PropOp32
 70
     1
102
RTVSPost2010Prop33
280
     0
102
RTVSPost2010PropOp33
 70
     1
102
RTVSPost2010Prop34
280
     0
102
RTVSPost2010PropOp34
 70
     1
102
RTVSPost2010Prop35
280
     0
102
RTVSPost2010PropOp35
 70
     1
102
RTVSPost2010Prop36
280
     0
102
RTVSPost2010PropOp36
 70
     1
102
RTVSPost2010Prop37
 90
       50
102
RTVSPost2010PropOp37
 70
     1
102
RTVSPost2010Prop38
140
0.0
102
RTVSPost2010PropOp38
 70
     1
102
RTVSPost2010Prop39
140
1.0
102
RTVSPost2010PropOp39
 70
     1
102
RTVSPost2010Prop40
 90
        0
102
RTVSPost2010PropOp40
 70
     1
102
RTVSPost2010Prop41ColorIndex
 90
       18
102
RTVSPost2010Prop41ColorRGB
 90
        0
102
RTVSPost2010PropOp41
 70
     1
102
RTVSPost2010Prop42
 90
       50
102
RTVSPost2010PropOp42
 70
     1
102
RTVSPost2010Prop43
 90
        3
102
RTVSPost2010PropOp43
 70
     1
102
RTVSPost2010Prop44ColorIndex
 90
        5
102
RTVSPost2010Prop44ColorRGB
 90
      255
102
RTVSPost2010PropOp44
 70
     1
102
RTVSPost2010Prop45
280
     0
102
RTVSPost2010PropOp45
 70
     1
102
RTVSPost2010Prop46
 90
       50
102
RTVSPost2010PropOp46
 70
     1
102
RTVSPost2010Prop47
 90
       50
102
RTVSPost2010PropOp47
 70
     1
102
RTVSPost2010Prop48
 90
       50
102
RTVSPost2010PropOp48
 70
     1
102
RTVSPost2010Prop49
280
     0
102
RTVSPost2010PropOp49
 70
     1
102
RTVSPost2010Prop50
 90
       50
102
RTVSPost2010PropOp50
 70
     1
102
RTVSPost2010Prop51ColorIndex
 90
      256
102
RTVSPost2010Prop51ColorRGB
 90
-16777216
102
RTVSPost2010PropOp51
 70
     0
102
RTVSPost2010Prop52
140
1.0
102
RTVSPost2010PropOp52
 70
     0
102
RTVSPost2010Prop53
 90
        2
102
RTVSPost2010PropOp53
 70
     1
102
RTVSPost2010Prop54
  1
strokes_ogs.tif
102
RTVSPost2010PropOp54
 70
     1
102
RTVSPost2010Prop55
280
     0
102
RTVSPost2010PropOp55
 70
     1
102
RTVSPost2010Prop56
140
1.0
102
RTVSPost2010PropOp56
 70
     1
102
RTVSPost2010Prop57
140
1.0
102
RTVSPost2010PropOp57
 70
     1
  0
XRECORD
  5
3068
102
{ACAD_REACTORS
330
3067
102
}
330
3067
100
AcDbXrecord
280
     1
102
RTVSPost2010Prop28
280
     0
102
RTVSPost2010PropOp28
 70
     1
102
RTVSPost2010Prop29
280
     1
102
RTVSPost2010PropOp29
 70
     1
102
RTVSPost2010Prop30
280
     1
102
RTVSPost2010PropOp30
 70
     1
102
RTVSPost2010Prop31
280
     0
102
RTVSPost2010PropOp31
 70
     1
102
RTVSPost2010Prop32
280
     0
102
RTVSPost2010PropOp32
 70
     1
102
RTVSPost2010Prop33
280
     0
102
RTVSPost2010PropOp33
 70
     1
102
RTVSPost2010Prop34
280
     0
102
RTVSPost2010PropOp34
 70
     1
102
RTVSPost2010Prop35
280
     0
102
RTVSPost2010PropOp35
 70
     1
102
RTVSPost2010Prop36
280
     0
102
RTVSPost2010PropOp36
 70
     1
102
RTVSPost2010Prop37
 90
       50
102
RTVSPost2010PropOp37
 70
     1
102
RTVSPost2010Prop38
140
0.0
102
RTVSPost2010PropOp38
 70
     1
102
RTVSPost2010Prop39
140
1.0
102
RTVSPost2010PropOp39
 70
     1
102
RTVSPost2010Prop40
 90
        0
102
RTVSPost2010PropOp40
 70
     1
102
RTVSPost2010Prop41ColorIndex
 90
       18
102
RTVSPost2010Prop41ColorRGB
 90
        0
102
RTVSPost2010PropOp41
 70
     1
102
RTVSPost2010Prop42
 90
       50
102
RTVSPost2010PropOp42
 70
     1
102
RTVSPost2010Prop43
 90
        3
102
RTVSPost2010PropOp43
 70
     1
102
RTVSPost2010Prop44ColorIndex
 90
        5
102
RTVSPost2010Prop44ColorRGB
 90
      255
102
RTVSPost2010PropOp44
 70
     1
102
RTVSPost2010Prop45
280
     0
102
RTVSPost2010PropOp45
 70
     1
102
RTVSPost2010Prop46
 90
       50
102
RTVSPost2010PropOp46
 70
     1
102
RTVSPost2010Prop47
 90
       50
102
RTVSPost2010PropOp47
 70
     1
102
RTVSPost2010Prop48
 90
       50
102
RTVSPost2010PropOp48
 70
     1
102
RTVSPost2010Prop49
280
     0
102
RTVSPost2010PropOp49
 70
     1
102
RTVSPost2010Prop50
 90
       50
102
RTVSPost2010PropOp50
 70
     1
102
RTVSPost2010Prop51ColorIndex
 90
      256
102
RTVSPost2010Prop51ColorRGB
 90
-16777216
102
RTVSPost2010PropOp51
 70
     0
102
RTVSPost2010Prop52
140
1.0
102
RTVSPost2010PropOp52
 70
     0
102
RTVSPost2010Prop53
 90
        2
102
RTVSPost2010PropOp53
 70
     1
102
RTVSPost2010Prop54
  1
strokes_ogs.tif
102
RTVSPost2010PropOp54
 70
     1
102
RTVSPost2010Prop55
280
     0
102
RTVSPost2010PropOp55
 70
     1
102
RTVSPost2010Prop56
140
1.0
102
RTVSPost2010PropOp56
 70
     1
102
RTVSPost2010Prop57
140
1.0
102
RTVSPost2010PropOp57
 70
     1
  0
XRECORD
  5
306C
102
{ACAD_REACTORS
330
306B
102
}
330
306B
100
AcDbXrecord
280
     1
102
RTVSPost2010Prop28
280
     0
102
RTVSPost2010PropOp28
 70
     1
102
RTVSPost2010Prop29
280
     1
102
RTVSPost2010PropOp29
 70
     1
102
RTVSPost2010Prop30
280
     1
102
RTVSPost2010PropOp30
 70
     1
102
RTVSPost2010Prop31
280
     0
102
RTVSPost2010PropOp31
 70
     1
102
RTVSPost2010Prop32
280
     0
102
RTVSPost2010PropOp32
 70
     1
102
RTVSPost2010Prop33
280
     0
102
RTVSPost2010PropOp33
 70
     1
102
RTVSPost2010Prop34
280
     0
102
RTVSPost2010PropOp34
 70
     1
102
RTVSPost2010Prop35
280
     0
102
RTVSPost2010PropOp35
 70
     1
102
RTVSPost2010Prop36
280
     0
102
RTVSPost2010PropOp36
 70
     1
102
RTVSPost2010Prop37
 90
       50
102
RTVSPost2010PropOp37
 70
     1
102
RTVSPost2010Prop38
140
0.0
102
RTVSPost2010PropOp38
 70
     1
102
RTVSPost2010Prop39
140
1.0
102
RTVSPost2010PropOp39
 70
     1
102
RTVSPost2010Prop40
 90
        0
102
RTVSPost2010PropOp40
 70
     1
102
RTVSPost2010Prop41ColorIndex
 90
       18
102
RTVSPost2010Prop41ColorRGB
 90
        0
102
RTVSPost2010PropOp41
 70
     1
102
RTVSPost2010Prop42
 90
       50
102
RTVSPost2010PropOp42
 70
     1
102
RTVSPost2010Prop43
 90
        3
102
RTVSPost2010PropOp43
 70
     1
102
RTVSPost2010Prop44ColorIndex
 90
        5
102
RTVSPost2010Prop44ColorRGB
 90
      255
102
RTVSPost2010PropOp44
 70
     1
102
RTVSPost2010Prop45
280
     0
102
RTVSPost2010PropOp45
 70
     1
102
RTVSPost2010Prop46
 90
       50
102
RTVSPost2010PropOp46
 70
     1
102
RTVSPost2010Prop47
 90
       50
102
RTVSPost2010PropOp47
 70
     1
102
RTVSPost2010Prop48
 90
       50
102
RTVSPost2010PropOp48
 70
     1
102
RTVSPost2010Prop49
280
     0
102
RTVSPost2010PropOp49
 70
     1
102
RTVSPost2010Prop50
 90
       50
102
RTVSPost2010PropOp50
 70
     1
102
RTVSPost2010Prop51ColorIndex
 90
      256
102
RTVSPost2010Prop51ColorRGB
 90
-16777216
102
RTVSPost2010PropOp51
 70
     0
102
RTVSPost2010Prop52
140
1.0
102
RTVSPost2010PropOp52
 70
     0
102
RTVSPost2010Prop53
 90
        2
102
RTVSPost2010PropOp53
 70
     1
102
RTVSPost2010Prop54
  1
strokes_ogs.tif
102
RTVSPost2010PropOp54
 70
     1
102
RTVSPost2010Prop55
280
     0
102
RTVSPost2010PropOp55
 70
     1
102
RTVSPost2010Prop56
140
1.0
102
RTVSPost2010PropOp56
 70
     1
102
RTVSPost2010Prop57
140
1.0
102
RTVSPost2010PropOp57
 70
     1
  0
XRECORD
  5
307C
102
{ACAD_REACTORS
330
307B
102
}
330
307B
100
AcDbXrecord
280
     1
102
RTVSPost2010Prop28
280
     0
102
RTVSPost2010PropOp28
 70
     1
102
RTVSPost2010Prop29
280
     1
102
RTVSPost2010PropOp29
 70
     1
102
RTVSPost2010Prop30
280
     1
102
RTVSPost2010PropOp30
 70
     1
102
RTVSPost2010Prop31
280
     0
102
RTVSPost2010PropOp31
 70
     1
102
RTVSPost2010Prop32
280
     0
102
RTVSPost2010PropOp32
 70
     1
102
RTVSPost2010Prop33
280
     0
102
RTVSPost2010PropOp33
 70
     1
102
RTVSPost2010Prop34
280
     0
102
RTVSPost2010PropOp34
 70
     1
102
RTVSPost2010Prop35
280
     0
102
RTVSPost2010PropOp35
 70
     1
102
RTVSPost2010Prop36
280
     0
102
RTVSPost2010PropOp36
 70
     1
102
RTVSPost2010Prop37
 90
       50
102
RTVSPost2010PropOp37
 70
     1
102
RTVSPost2010Prop38
140
0.0
102
RTVSPost2010PropOp38
 70
     1
102
RTVSPost2010Prop39
140
1.0
102
RTVSPost2010PropOp39
 70
     1
102
RTVSPost2010Prop40
 90
        0
102
RTVSPost2010PropOp40
 70
     1
102
RTVSPost2010Prop41ColorIndex
 90
       18
102
RTVSPost2010Prop41ColorRGB
 90
        0
102
RTVSPost2010PropOp41
 70
     1
102
RTVSPost2010Prop42
 90
       50
102
RTVSPost2010PropOp42
 70
     1
102
RTVSPost2010Prop43
 90
        3
102
RTVSPost2010PropOp43
 70
     1
102
RTVSPost2010Prop44ColorIndex
 90
        5
102
RTVSPost2010Prop44ColorRGB
 90
      255
102
RTVSPost2010PropOp44
 70
     1
102
RTVSPost2010Prop45
280
     0
102
RTVSPost2010PropOp45
 70
     1
102
RTVSPost2010Prop46
 90
       50
102
RTVSPost2010PropOp46
 70
     1
102
RTVSPost2010Prop47
 90
       50
102
RTVSPost2010PropOp47
 70
     1
102
RTVSPost2010Prop48
 90
       50
102
RTVSPost2010PropOp48
 70
     1
102
RTVSPost2010Prop49
280
     0
102
RTVSPost2010PropOp49
 70
     1
102
RTVSPost2010Prop50
 90
       50
102
RTVSPost2010PropOp50
 70
     1
102
RTVSPost2010Prop51ColorIndex
 90
      256
102
RTVSPost2010Prop51ColorRGB
 90
-16777216
102
RTVSPost2010PropOp51
 70
     0
102
RTVSPost2010Prop52
140
1.0
102
RTVSPost2010PropOp52
 70
     0
102
RTVSPost2010Prop53
 90
        2
102
RTVSPost2010PropOp53
 70
     1
102
RTVSPost2010Prop54
  1
strokes_ogs.tif
102
RTVSPost2010PropOp54
 70
     1
102
RTVSPost2010Prop55
280
     0
102
RTVSPost2010PropOp55
 70
     1
102
RTVSPost2010Prop56
140
1.0
102
RTVSPost2010PropOp56
 70
     1
102
RTVSPost2010Prop57
140
1.0
102
RTVSPost2010PropOp57
 70
     1
  0
XRECORD
  5
3074
102
{ACAD_REACTORS
330
3073
102
}
330
3073
100
AcDbXrecord
280
     1
102
RTVSPost2010Prop28
280
     0
102
RTVSPost2010PropOp28
 70
     1
102
RTVSPost2010Prop29
280
     1
102
RTVSPost2010PropOp29
 70
     1
102
RTVSPost2010Prop30
280
     1
102
RTVSPost2010PropOp30
 70
     1
102
RTVSPost2010Prop31
280
     0
102
RTVSPost2010PropOp31
 70
     1
102
RTVSPost2010Prop32
280
     0
102
RTVSPost2010PropOp32
 70
     1
102
RTVSPost2010Prop33
280
     0
102
RTVSPost2010PropOp33
 70
     1
102
RTVSPost2010Prop34
280
     0
102
RTVSPost2010PropOp34
 70
     1
102
RTVSPost2010Prop35
280
     0
102
RTVSPost2010PropOp35
 70
     1
102
RTVSPost2010Prop36
280
     0
102
RTVSPost2010PropOp36
 70
     1
102
RTVSPost2010Prop37
 90
       50
102
RTVSPost2010PropOp37
 70
     1
102
RTVSPost2010Prop38
140
0.0
102
RTVSPost2010PropOp38
 70
     1
102
RTVSPost2010Prop39
140
1.0
102
RTVSPost2010PropOp39
 70
     1
102
RTVSPost2010Prop40
 90
        0
102
RTVSPost2010PropOp40
 70
     1
102
RTVSPost2010Prop41ColorIndex
 90
       18
102
RTVSPost2010Prop41ColorRGB
 90
        0
102
RTVSPost2010PropOp41
 70
     1
102
RTVSPost2010Prop42
 90
       50
102
RTVSPost2010PropOp42
 70
     1
102
RTVSPost2010Prop43
 90
        3
102
RTVSPost2010PropOp43
 70
     1
102
RTVSPost2010Prop44ColorIndex
 90
        5
102
RTVSPost2010Prop44ColorRGB
 90
      255
102
RTVSPost2010PropOp44
 70
     1
102
RTVSPost2010Prop45
280
     0
102
RTVSPost2010PropOp45
 70
     1
102
RTVSPost2010Prop46
 90
       50
102
RTVSPost2010PropOp46
 70
     1
102
RTVSPost2010Prop47
 90
       50
102
RTVSPost2010PropOp47
 70
     1
102
RTVSPost2010Prop48
 90
       50
102
RTVSPost2010PropOp48
 70
     1
102
RTVSPost2010Prop49
280
     0
102
RTVSPost2010PropOp49
 70
     1
102
RTVSPost2010Prop50
 90
       50
102
RTVSPost2010PropOp50
 70
     1
102
RTVSPost2010Prop51ColorIndex
 90
      256
102
RTVSPost2010Prop51ColorRGB
 90
-16777216
102
RTVSPost2010PropOp51
 70
     0
102
RTVSPost2010Prop52
140
1.0
102
RTVSPost2010PropOp52
 70
     0
102
RTVSPost2010Prop53
 90
        2
102
RTVSPost2010PropOp53
 70
     1
102
RTVSPost2010Prop54
  1
strokes_ogs.tif
102
RTVSPost2010PropOp54
 70
     1
102
RTVSPost2010Prop55
280
     0
102
RTVSPost2010PropOp55
 70
     1
102
RTVSPost2010Prop56
140
1.0
102
RTVSPost2010PropOp56
 70
     1
102
RTVSPost2010Prop57
140
1.0
102
RTVSPost2010PropOp57
 70
     1
  0
XRECORD
  5
3058
102
{ACAD_REACTORS
330
3057
102
}
330
3057
100
AcDbXrecord
280
     1
102
RTVSPost2010Prop28
280
     0
102
RTVSPost2010PropOp28
 70
     1
102
RTVSPost2010Prop29
280
     1
102
RTVSPost2010PropOp29
 70
     1
102
RTVSPost2010Prop30
280
     1
102
RTVSPost2010PropOp30
 70
     1
102
RTVSPost2010Prop31
280
     0
102
RTVSPost2010PropOp31
 70
     1
102
RTVSPost2010Prop32
280
     0
102
RTVSPost2010PropOp32
 70
     1
102
RTVSPost2010Prop33
280
     0
102
RTVSPost2010PropOp33
 70
     1
102
RTVSPost2010Prop34
280
     0
102
RTVSPost2010PropOp34
 70
     1
102
RTVSPost2010Prop35
280
     0
102
RTVSPost2010PropOp35
 70
     1
102
RTVSPost2010Prop36
280
     0
102
RTVSPost2010PropOp36
 70
     1
102
RTVSPost2010Prop37
 90
       50
102
RTVSPost2010PropOp37
 70
     1
102
RTVSPost2010Prop38
140
0.0
102
RTVSPost2010PropOp38
 70
     1
102
RTVSPost2010Prop39
140
1.0
102
RTVSPost2010PropOp39
 70
     1
102
RTVSPost2010Prop40
 90
        0
102
RTVSPost2010PropOp40
 70
     1
102
RTVSPost2010Prop41ColorIndex
 90
       18
102
RTVSPost2010Prop41ColorRGB
 90
        0
102
RTVSPost2010PropOp41
 70
     1
102
RTVSPost2010Prop42
 90
       50
102
RTVSPost2010PropOp42
 70
     1
102
RTVSPost2010Prop43
 90
        3
102
RTVSPost2010PropOp43
 70
     1
102
RTVSPost2010Prop44ColorIndex
 90
        5
102
RTVSPost2010Prop44ColorRGB
 90
      255
102
RTVSPost2010PropOp44
 70
     1
102
RTVSPost2010Prop45
280
     0
102
RTVSPost2010PropOp45
 70
     1
102
RTVSPost2010Prop46
 90
       50
102
RTVSPost2010PropOp46
 70
     1
102
RTVSPost2010Prop47
 90
       50
102
RTVSPost2010PropOp47
 70
     1
102
RTVSPost2010Prop48
 90
       50
102
RTVSPost2010PropOp48
 70
     1
102
RTVSPost2010Prop49
280
     0
102
RTVSPost2010PropOp49
 70
     1
102
RTVSPost2010Prop50
 90
       50
102
RTVSPost2010PropOp50
 70
     1
102
RTVSPost2010Prop51ColorIndex
 90
      256
102
RTVSPost2010Prop51ColorRGB
 90
-16777216
102
RTVSPost2010PropOp51
 70
     0
102
RTVSPost2010Prop52
140
1.0
102
RTVSPost2010PropOp52
 70
     0
102
RTVSPost2010Prop53
 90
        2
102
RTVSPost2010PropOp53
 70
     1
102
RTVSPost2010Prop54
  1
strokes_ogs.tif
102
RTVSPost2010PropOp54
 70
     1
102
RTVSPost2010Prop55
280
     0
102
RTVSPost2010PropOp55
 70
     1
102
RTVSPost2010Prop56
140
1.0
102
RTVSPost2010PropOp56
 70
     1
102
RTVSPost2010Prop57
140
1.0
102
RTVSPost2010PropOp57
 70
     1
  0
XRECORD
  5
305A
102
{ACAD_REACTORS
330
3059
102
}
330
3059
100
AcDbXrecord
280
     1
102
RTVSPost2010Prop28
280
     0
102
RTVSPost2010PropOp28
 70
     1
102
RTVSPost2010Prop29
280
     1
102
RTVSPost2010PropOp29
 70
     1
102
RTVSPost2010Prop30
280
     1
102
RTVSPost2010PropOp30
 70
     1
102
RTVSPost2010Prop31
280
     0
102
RTVSPost2010PropOp31
 70
     1
102
RTVSPost2010Prop32
280
     0
102
RTVSPost2010PropOp32
 70
     1
102
RTVSPost2010Prop33
280
     0
102
RTVSPost2010PropOp33
 70
     1
102
RTVSPost2010Prop34
280
     0
102
RTVSPost2010PropOp34
 70
     1
102
RTVSPost2010Prop35
280
     0
102
RTVSPost2010PropOp35
 70
     1
102
RTVSPost2010Prop36
280
     0
102
RTVSPost2010PropOp36
 70
     1
102
RTVSPost2010Prop37
 90
       50
102
RTVSPost2010PropOp37
 70
     1
102
RTVSPost2010Prop38
140
0.0
102
RTVSPost2010PropOp38
 70
     1
102
RTVSPost2010Prop39
140
1.0
102
RTVSPost2010PropOp39
 70
     1
102
RTVSPost2010Prop40
 90
        0
102
RTVSPost2010PropOp40
 70
     1
102
RTVSPost2010Prop41ColorIndex
 90
       18
102
RTVSPost2010Prop41ColorRGB
 90
        0
102
RTVSPost2010PropOp41
 70
     1
102
RTVSPost2010Prop42
 90
       50
102
RTVSPost2010PropOp42
 70
     1
102
RTVSPost2010Prop43
 90
        3
102
RTVSPost2010PropOp43
 70
     1
102
RTVSPost2010Prop44ColorIndex
 90
        5
102
RTVSPost2010Prop44ColorRGB
 90
      255
102
RTVSPost2010PropOp44
 70
     1
102
RTVSPost2010Prop45
280
     0
102
RTVSPost2010PropOp45
 70
     1
102
RTVSPost2010Prop46
 90
       50
102
RTVSPost2010PropOp46
 70
     1
102
RTVSPost2010Prop47
 90
       50
102
RTVSPost2010PropOp47
 70
     1
102
RTVSPost2010Prop48
 90
       50
102
RTVSPost2010PropOp48
 70
     1
102
RTVSPost2010Prop49
280
     0
102
RTVSPost2010PropOp49
 70
     1
102
RTVSPost2010Prop50
 90
       50
102
RTVSPost2010PropOp50
 70
     1
102
RTVSPost2010Prop51ColorIndex
 90
      256
102
RTVSPost2010Prop51ColorRGB
 90
-16777216
102
RTVSPost2010PropOp51
 70
     0
102
RTVSPost2010Prop52
140
1.0
102
RTVSPost2010PropOp52
 70
     0
102
RTVSPost2010Prop53
 90
        2
102
RTVSPost2010PropOp53
 70
     1
102
RTVSPost2010Prop54
  1
strokes_ogs.tif
102
RTVSPost2010PropOp54
 70
     1
102
RTVSPost2010Prop55
280
     0
102
RTVSPost2010PropOp55
 70
     1
102
RTVSPost2010Prop56
140
1.0
102
RTVSPost2010PropOp56
 70
     1
102
RTVSPost2010Prop57
140
1.0
102
RTVSPost2010PropOp57
 70
     1
  0
XRECORD
  5
305C
102
{ACAD_REACTORS
330
305B
102
}
330
305B
100
AcDbXrecord
280
     1
102
RTVSPost2010Prop28
280
     0
102
RTVSPost2010PropOp28
 70
     1
102
RTVSPost2010Prop29
280
     1
102
RTVSPost2010PropOp29
 70
     1
102
RTVSPost2010Prop30
280
     1
102
RTVSPost2010PropOp30
 70
     1
102
RTVSPost2010Prop31
280
     0
102
RTVSPost2010PropOp31
 70
     1
102
RTVSPost2010Prop32
280
     0
102
RTVSPost2010PropOp32
 70
     1
102
RTVSPost2010Prop33
280
     0
102
RTVSPost2010PropOp33
 70
     1
102
RTVSPost2010Prop34
280
     0
102
RTVSPost2010PropOp34
 70
     1
102
RTVSPost2010Prop35
280
     0
102
RTVSPost2010PropOp35
 70
     1
102
RTVSPost2010Prop36
280
     0
102
RTVSPost2010PropOp36
 70
     1
102
RTVSPost2010Prop37
 90
       50
102
RTVSPost2010PropOp37
 70
     1
102
RTVSPost2010Prop38
140
0.0
102
RTVSPost2010PropOp38
 70
     1
102
RTVSPost2010Prop39
140
1.0
102
RTVSPost2010PropOp39
 70
     1
102
RTVSPost2010Prop40
 90
        0
102
RTVSPost2010PropOp40
 70
     1
102
RTVSPost2010Prop41ColorIndex
 90
       18
102
RTVSPost2010Prop41ColorRGB
 90
        0
102
RTVSPost2010PropOp41
 70
     1
102
RTVSPost2010Prop42
 90
       50
102
RTVSPost2010PropOp42
 70
     1
102
RTVSPost2010Prop43
 90
        3
102
RTVSPost2010PropOp43
 70
     1
102
RTVSPost2010Prop44ColorIndex
 90
        5
102
RTVSPost2010Prop44ColorRGB
 90
      255
102
RTVSPost2010PropOp44
 70
     1
102
RTVSPost2010Prop45
280
     0
102
RTVSPost2010PropOp45
 70
     1
102
RTVSPost2010Prop46
 90
       50
102
RTVSPost2010PropOp46
 70
     1
102
RTVSPost2010Prop47
 90
       50
102
RTVSPost2010PropOp47
 70
     1
102
RTVSPost2010Prop48
 90
       50
102
RTVSPost2010PropOp48
 70
     1
102
RTVSPost2010Prop49
280
     0
102
RTVSPost2010PropOp49
 70
     1
102
RTVSPost2010Prop50
 90
       50
102
RTVSPost2010PropOp50
 70
     1
102
RTVSPost2010Prop51ColorIndex
 90
      256
102
RTVSPost2010Prop51ColorRGB
 90
-16777216
102
RTVSPost2010PropOp51
 70
     0
102
RTVSPost2010Prop52
140
1.0
102
RTVSPost2010PropOp52
 70
     0
102
RTVSPost2010Prop53
 90
        2
102
RTVSPost2010PropOp53
 70
     1
102
RTVSPost2010Prop54
  1
strokes_ogs.tif
102
RTVSPost2010PropOp54
 70
     1
102
RTVSPost2010Prop55
280
     0
102
RTVSPost2010PropOp55
 70
     1
102
RTVSPost2010Prop56
140
1.0
102
RTVSPost2010PropOp56
 70
     1
102
RTVSPost2010Prop57
140
1.0
102
RTVSPost2010PropOp57
 70
     1
  0
XRECORD
  5
305E
102
{ACAD_REACTORS
330
305D
102
}
330
305D
100
AcDbXrecord
280
     1
102
RTVSPost2010Prop28
280
     0
102
RTVSPost2010PropOp28
 70
     1
102
RTVSPost2010Prop29
280
     1
102
RTVSPost2010PropOp29
 70
     1
102
RTVSPost2010Prop30
280
     1
102
RTVSPost2010PropOp30
 70
     1
102
RTVSPost2010Prop31
280
     0
102
RTVSPost2010PropOp31
 70
     1
102
RTVSPost2010Prop32
280
     0
102
RTVSPost2010PropOp32
 70
     1
102
RTVSPost2010Prop33
280
     0
102
RTVSPost2010PropOp33
 70
     1
102
RTVSPost2010Prop34
280
     0
102
RTVSPost2010PropOp34
 70
     1
102
RTVSPost2010Prop35
280
     0
102
RTVSPost2010PropOp35
 70
     1
102
RTVSPost2010Prop36
280
     0
102
RTVSPost2010PropOp36
 70
     1
102
RTVSPost2010Prop37
 90
       50
102
RTVSPost2010PropOp37
 70
     1
102
RTVSPost2010Prop38
140
0.0
102
RTVSPost2010PropOp38
 70
     1
102
RTVSPost2010Prop39
140
1.0
102
RTVSPost2010PropOp39
 70
     1
102
RTVSPost2010Prop40
 90
        0
102
RTVSPost2010PropOp40
 70
     1
102
RTVSPost2010Prop41ColorIndex
 90
       18
102
RTVSPost2010Prop41ColorRGB
 90
        0
102
RTVSPost2010PropOp41
 70
     1
102
RTVSPost2010Prop42
 90
       50
102
RTVSPost2010PropOp42
 70
     1
102
RTVSPost2010Prop43
 90
        3
102
RTVSPost2010PropOp43
 70
     1
102
RTVSPost2010Prop44ColorIndex
 90
        5
102
RTVSPost2010Prop44ColorRGB
 90
      255
102
RTVSPost2010PropOp44
 70
     1
102
RTVSPost2010Prop45
280
     0
102
RTVSPost2010PropOp45
 70
     1
102
RTVSPost2010Prop46
 90
       50
102
RTVSPost2010PropOp46
 70
     1
102
RTVSPost2010Prop47
 90
       50
102
RTVSPost2010PropOp47
 70
     1
102
RTVSPost2010Prop48
 90
       50
102
RTVSPost2010PropOp48
 70
     1
102
RTVSPost2010Prop49
280
     0
102
RTVSPost2010PropOp49
 70
     1
102
RTVSPost2010Prop50
 90
       50
102
RTVSPost2010PropOp50
 70
     1
102
RTVSPost2010Prop51ColorIndex
 90
      256
102
RTVSPost2010Prop51ColorRGB
 90
-16777216
102
RTVSPost2010PropOp51
 70
     0
102
RTVSPost2010Prop52
140
1.0
102
RTVSPost2010PropOp52
 70
     0
102
RTVSPost2010Prop53
 90
        2
102
RTVSPost2010PropOp53
 70
     1
102
RTVSPost2010Prop54
  1
strokes_ogs.tif
102
RTVSPost2010PropOp54
 70
     1
102
RTVSPost2010Prop55
280
     0
102
RTVSPost2010PropOp55
 70
     1
102
RTVSPost2010Prop56
140
1.0
102
RTVSPost2010PropOp56
 70
     1
102
RTVSPost2010Prop57
140
1.0
102
RTVSPost2010PropOp57
 70
     1
  0
XRECORD
  5
3066
102
{ACAD_REACTORS
330
3065
102
}
330
3065
100
AcDbXrecord
280
     1
102
RTVSPost2010Prop28
280
     0
102
RTVSPost2010PropOp28
 70
     1
102
RTVSPost2010Prop29
280
     1
102
RTVSPost2010PropOp29
 70
     1
102
RTVSPost2010Prop30
280
     1
102
RTVSPost2010PropOp30
 70
     1
102
RTVSPost2010Prop31
280
     0
102
RTVSPost2010PropOp31
 70
     1
102
RTVSPost2010Prop32
280
     0
102
RTVSPost2010PropOp32
 70
     1
102
RTVSPost2010Prop33
280
     0
102
RTVSPost2010PropOp33
 70
     1
102
RTVSPost2010Prop34
280
     0
102
RTVSPost2010PropOp34
 70
     1
102
RTVSPost2010Prop35
280
     0
102
RTVSPost2010PropOp35
 70
     1
102
RTVSPost2010Prop36
280
     0
102
RTVSPost2010PropOp36
 70
     1
102
RTVSPost2010Prop37
 90
       50
102
RTVSPost2010PropOp37
 70
     1
102
RTVSPost2010Prop38
140
0.0
102
RTVSPost2010PropOp38
 70
     1
102
RTVSPost2010Prop39
140
1.0
102
RTVSPost2010PropOp39
 70
     1
102
RTVSPost2010Prop40
 90
        0
102
RTVSPost2010PropOp40
 70
     1
102
RTVSPost2010Prop41ColorIndex
 90
       18
102
RTVSPost2010Prop41ColorRGB
 90
        0
102
RTVSPost2010PropOp41
 70
     1
102
RTVSPost2010Prop42
 90
       50
102
RTVSPost2010PropOp42
 70
     1
102
RTVSPost2010Prop43
 90
        3
102
RTVSPost2010PropOp43
 70
     1
102
RTVSPost2010Prop44ColorIndex
 90
        5
102
RTVSPost2010Prop44ColorRGB
 90
      255
102
RTVSPost2010PropOp44
 70
     1
102
RTVSPost2010Prop45
280
     0
102
RTVSPost2010PropOp45
 70
     1
102
RTVSPost2010Prop46
 90
       50
102
RTVSPost2010PropOp46
 70
     1
102
RTVSPost2010Prop47
 90
       50
102
RTVSPost2010PropOp47
 70
     1
102
RTVSPost2010Prop48
 90
       50
102
RTVSPost2010PropOp48
 70
     1
102
RTVSPost2010Prop49
280
     0
102
RTVSPost2010PropOp49
 70
     1
102
RTVSPost2010Prop50
 90
       50
102
RTVSPost2010PropOp50
 70
     1
102
RTVSPost2010Prop51ColorIndex
 90
      256
102
RTVSPost2010Prop51ColorRGB
 90
-16777216
102
RTVSPost2010PropOp51
 70
     0
102
RTVSPost2010Prop52
140
1.0
102
RTVSPost2010PropOp52
 70
     0
102
RTVSPost2010Prop53
 90
        2
102
RTVSPost2010PropOp53
 70
     1
102
RTVSPost2010Prop54
  1
strokes_ogs.tif
102
RTVSPost2010PropOp54
 70
     1
102
RTVSPost2010Prop55
280
     0
102
RTVSPost2010PropOp55
 70
     1
102
RTVSPost2010Prop56
140
1.0
102
RTVSPost2010PropOp56
 70
     1
102
RTVSPost2010Prop57
140
1.0
102
RTVSPost2010PropOp57
 70
     1
  0
XRECORD
  5
3078
102
{ACAD_REACTORS
330
3077
102
}
330
3077
100
AcDbXrecord
280
     1
102
RTVSPost2010Prop28
280
     0
102
RTVSPost2010PropOp28
 70
     1
102
RTVSPost2010Prop29
280
     1
102
RTVSPost2010PropOp29
 70
     1
102
RTVSPost2010Prop30
280
     1
102
RTVSPost2010PropOp30
 70
     1
102
RTVSPost2010Prop31
280
     0
102
RTVSPost2010PropOp31
 70
     1
102
RTVSPost2010Prop32
280
     0
102
RTVSPost2010PropOp32
 70
     1
102
RTVSPost2010Prop33
280
     0
102
RTVSPost2010PropOp33
 70
     1
102
RTVSPost2010Prop34
280
     0
102
RTVSPost2010PropOp34
 70
     1
102
RTVSPost2010Prop35
280
     0
102
RTVSPost2010PropOp35
 70
     1
102
RTVSPost2010Prop36
280
     0
102
RTVSPost2010PropOp36
 70
     1
102
RTVSPost2010Prop37
 90
       50
102
RTVSPost2010PropOp37
 70
     1
102
RTVSPost2010Prop38
140
0.0
102
RTVSPost2010PropOp38
 70
     1
102
RTVSPost2010Prop39
140
1.0
102
RTVSPost2010PropOp39
 70
     1
102
RTVSPost2010Prop40
 90
        0
102
RTVSPost2010PropOp40
 70
     1
102
RTVSPost2010Prop41ColorIndex
 90
       18
102
RTVSPost2010Prop41ColorRGB
 90
        0
102
RTVSPost2010PropOp41
 70
     1
102
RTVSPost2010Prop42
 90
       50
102
RTVSPost2010PropOp42
 70
     1
102
RTVSPost2010Prop43
 90
        3
102
RTVSPost2010PropOp43
 70
     1
102
RTVSPost2010Prop44ColorIndex
 90
        5
102
RTVSPost2010Prop44ColorRGB
 90
      255
102
RTVSPost2010PropOp44
 70
     1
102
RTVSPost2010Prop45
280
     0
102
RTVSPost2010PropOp45
 70
     1
102
RTVSPost2010Prop46
 90
       50
102
RTVSPost2010PropOp46
 70
     1
102
RTVSPost2010Prop47
 90
       50
102
RTVSPost2010PropOp47
 70
     1
102
RTVSPost2010Prop48
 90
       50
102
RTVSPost2010PropOp48
 70
     1
102
RTVSPost2010Prop49
280
     0
102
RTVSPost2010PropOp49
 70
     1
102
RTVSPost2010Prop50
 90
       50
102
RTVSPost2010PropOp50
 70
     1
102
RTVSPost2010Prop51ColorIndex
 90
      256
102
RTVSPost2010Prop51ColorRGB
 90
-16777216
102
RTVSPost2010PropOp51
 70
     0
102
RTVSPost2010Prop52
140
1.0
102
RTVSPost2010PropOp52
 70
     0
102
RTVSPost2010Prop53
 90
        2
102
RTVSPost2010PropOp53
 70
     1
102
RTVSPost2010Prop54
  1
strokes_ogs.tif
102
RTVSPost2010PropOp54
 70
     1
102
RTVSPost2010Prop55
280
     0
102
RTVSPost2010PropOp55
 70
     1
102
RTVSPost2010Prop56
140
1.0
102
RTVSPost2010PropOp56
 70
     1
102
RTVSPost2010Prop57
140
1.0
102
RTVSPost2010PropOp57
 70
     1
  0
XRECORD
  5
3072
102
{ACAD_REACTORS
330
3071
102
}
330
3071
100
AcDbXrecord
280
     1
102
RTVSPost2010Prop28
280
     0
102
RTVSPost2010PropOp28
 70
     1
102
RTVSPost2010Prop29
280
     1
102
RTVSPost2010PropOp29
 70
     1
102
RTVSPost2010Prop30
280
     1
102
RTVSPost2010PropOp30
 70
     1
102
RTVSPost2010Prop31
280
     0
102
RTVSPost2010PropOp31
 70
     1
102
RTVSPost2010Prop32
280
     0
102
RTVSPost2010PropOp32
 70
     1
102
RTVSPost2010Prop33
280
     0
102
RTVSPost2010PropOp33
 70
     1
102
RTVSPost2010Prop34
280
     0
102
RTVSPost2010PropOp34
 70
     1
102
RTVSPost2010Prop35
280
     0
102
RTVSPost2010PropOp35
 70
     1
102
RTVSPost2010Prop36
280
     0
102
RTVSPost2010PropOp36
 70
     1
102
RTVSPost2010Prop37
 90
       50
102
RTVSPost2010PropOp37
 70
     1
102
RTVSPost2010Prop38
140
0.0
102
RTVSPost2010PropOp38
 70
     1
102
RTVSPost2010Prop39
140
1.0
102
RTVSPost2010PropOp39
 70
     1
102
RTVSPost2010Prop40
 90
        0
102
RTVSPost2010PropOp40
 70
     1
102
RTVSPost2010Prop41ColorIndex
 90
       18
102
RTVSPost2010Prop41ColorRGB
 90
        0
102
RTVSPost2010PropOp41
 70
     1
102
RTVSPost2010Prop42
 90
       50
102
RTVSPost2010PropOp42
 70
     1
102
RTVSPost2010Prop43
 90
        3
102
RTVSPost2010PropOp43
 70
     1
102
RTVSPost2010Prop44ColorIndex
 90
        5
102
RTVSPost2010Prop44ColorRGB
 90
      255
102
RTVSPost2010PropOp44
 70
     1
102
RTVSPost2010Prop45
280
     0
102
RTVSPost2010PropOp45
 70
     1
102
RTVSPost2010Prop46
 90
       50
102
RTVSPost2010PropOp46
 70
     1
102
RTVSPost2010Prop47
 90
       50
102
RTVSPost2010PropOp47
 70
     1
102
RTVSPost2010Prop48
 90
       50
102
RTVSPost2010PropOp48
 70
     1
102
RTVSPost2010Prop49
280
     0
102
RTVSPost2010PropOp49
 70
     1
102
RTVSPost2010Prop50
 90
       50
102
RTVSPost2010PropOp50
 70
     1
102
RTVSPost2010Prop51ColorIndex
 90
      256
102
RTVSPost2010Prop51ColorRGB
 90
-16777216
102
RTVSPost2010PropOp51
 70
     0
102
RTVSPost2010Prop52
140
1.0
102
RTVSPost2010PropOp52
 70
     0
102
RTVSPost2010Prop53
 90
        2
102
RTVSPost2010PropOp53
 70
     1
102
RTVSPost2010Prop54
  1
strokes_ogs.tif
102
RTVSPost2010PropOp54
 70
     1
102
RTVSPost2010Prop55
280
     0
102
RTVSPost2010PropOp55
 70
     1
102
RTVSPost2010Prop56
140
1.0
102
RTVSPost2010PropOp56
 70
     1
102
RTVSPost2010Prop57
140
1.0
102
RTVSPost2010PropOp57
 70
     1
  0
XRECORD
  5
307A
102
{ACAD_REACTORS
330
3079
102
}
330
3079
100
AcDbXrecord
280
     1
102
RTVSPost2010Prop28
280
     0
102
RTVSPost2010PropOp28
 70
     1
102
RTVSPost2010Prop29
280
     1
102
RTVSPost2010PropOp29
 70
     1
102
RTVSPost2010Prop30
280
     1
102
RTVSPost2010PropOp30
 70
     1
102
RTVSPost2010Prop31
280
     0
102
RTVSPost2010PropOp31
 70
     1
102
RTVSPost2010Prop32
280
     0
102
RTVSPost2010PropOp32
 70
     1
102
RTVSPost2010Prop33
280
     0
102
RTVSPost2010PropOp33
 70
     1
102
RTVSPost2010Prop34
280
     0
102
RTVSPost2010PropOp34
 70
     1
102
RTVSPost2010Prop35
280
     0
102
RTVSPost2010PropOp35
 70
     1
102
RTVSPost2010Prop36
280
     0
102
RTVSPost2010PropOp36
 70
     1
102
RTVSPost2010Prop37
 90
       50
102
RTVSPost2010PropOp37
 70
     1
102
RTVSPost2010Prop38
140
0.0
102
RTVSPost2010PropOp38
 70
     1
102
RTVSPost2010Prop39
140
1.0
102
RTVSPost2010PropOp39
 70
     1
102
RTVSPost2010Prop40
 90
        0
102
RTVSPost2010PropOp40
 70
     1
102
RTVSPost2010Prop41ColorIndex
 90
       18
102
RTVSPost2010Prop41ColorRGB
 90
        0
102
RTVSPost2010PropOp41
 70
     1
102
RTVSPost2010Prop42
 90
       50
102
RTVSPost2010PropOp42
 70
     1
102
RTVSPost2010Prop43
 90
        3
102
RTVSPost2010PropOp43
 70
     1
102
RTVSPost2010Prop44ColorIndex
 90
        5
102
RTVSPost2010Prop44ColorRGB
 90
      255
102
RTVSPost2010PropOp44
 70
     1
102
RTVSPost2010Prop45
280
     0
102
RTVSPost2010PropOp45
 70
     1
102
RTVSPost2010Prop46
 90
       50
102
RTVSPost2010PropOp46
 70
     1
102
RTVSPost2010Prop47
 90
       50
102
RTVSPost2010PropOp47
 70
     1
102
RTVSPost2010Prop48
 90
       50
102
RTVSPost2010PropOp48
 70
     1
102
RTVSPost2010Prop49
280
     0
102
RTVSPost2010PropOp49
 70
     1
102
RTVSPost2010Prop50
 90
       50
102
RTVSPost2010PropOp50
 70
     1
102
RTVSPost2010Prop51ColorIndex
 90
      256
102
RTVSPost2010Prop51ColorRGB
 90
-16777216
102
RTVSPost2010PropOp51
 70
     0
102
RTVSPost2010Prop52
140
1.0
102
RTVSPost2010PropOp52
 70
     0
102
RTVSPost2010Prop53
 90
        2
102
RTVSPost2010PropOp53
 70
     1
102
RTVSPost2010Prop54
  1
strokes_ogs.tif
102
RTVSPost2010PropOp54
 70
     1
102
RTVSPost2010Prop55
280
     0
102
RTVSPost2010PropOp55
 70
     1
102
RTVSPost2010Prop56
140
1.0
102
RTVSPost2010PropOp56
 70
     1
102
RTVSPost2010Prop57
140
1.0
102
RTVSPost2010PropOp57
 70
     1
  0
XRECORD
  5
306A
102
{ACAD_REACTORS
330
3069
102
}
330
3069
100
AcDbXrecord
280
     1
102
RTVSPost2010Prop28
280
     0
102
RTVSPost2010PropOp28
 70
     1
102
RTVSPost2010Prop29
280
     1
102
RTVSPost2010PropOp29
 70
     1
102
RTVSPost2010Prop30
280
     1
102
RTVSPost2010PropOp30
 70
     1
102
RTVSPost2010Prop31
280
     0
102
RTVSPost2010PropOp31
 70
     1
102
RTVSPost2010Prop32
280
     0
102
RTVSPost2010PropOp32
 70
     1
102
RTVSPost2010Prop33
280
     0
102
RTVSPost2010PropOp33
 70
     1
102
RTVSPost2010Prop34
280
     0
102
RTVSPost2010PropOp34
 70
     1
102
RTVSPost2010Prop35
280
     0
102
RTVSPost2010PropOp35
 70
     1
102
RTVSPost2010Prop36
280
     0
102
RTVSPost2010PropOp36
 70
     1
102
RTVSPost2010Prop37
 90
       50
102
RTVSPost2010PropOp37
 70
     1
102
RTVSPost2010Prop38
140
0.0
102
RTVSPost2010PropOp38
 70
     1
102
RTVSPost2010Prop39
140
1.0
102
RTVSPost2010PropOp39
 70
     1
102
RTVSPost2010Prop40
 90
        0
102
RTVSPost2010PropOp40
 70
     1
102
RTVSPost2010Prop41ColorIndex
 90
       18
102
RTVSPost2010Prop41ColorRGB
 90
        0
102
RTVSPost2010PropOp41
 70
     1
102
RTVSPost2010Prop42
 90
       50
102
RTVSPost2010PropOp42
 70
     1
102
RTVSPost2010Prop43
 90
        3
102
RTVSPost2010PropOp43
 70
     1
102
RTVSPost2010Prop44ColorIndex
 90
        5
102
RTVSPost2010Prop44ColorRGB
 90
      255
102
RTVSPost2010PropOp44
 70
     1
102
RTVSPost2010Prop45
280
     0
102
RTVSPost2010PropOp45
 70
     1
102
RTVSPost2010Prop46
 90
       50
102
RTVSPost2010PropOp46
 70
     1
102
RTVSPost2010Prop47
 90
       50
102
RTVSPost2010PropOp47
 70
     1
102
RTVSPost2010Prop48
 90
       50
102
RTVSPost2010PropOp48
 70
     1
102
RTVSPost2010Prop49
280
     0
102
RTVSPost2010PropOp49
 70
     1
102
RTVSPost2010Prop50
 90
       50
102
RTVSPost2010PropOp50
 70
     1
102
RTVSPost2010Prop51ColorIndex
 90
      256
102
RTVSPost2010Prop51ColorRGB
 90
-16777216
102
RTVSPost2010PropOp51
 70
     0
102
RTVSPost2010Prop52
140
1.0
102
RTVSPost2010PropOp52
 70
     0
102
RTVSPost2010Prop53
 90
        2
102
RTVSPost2010PropOp53
 70
     1
102
RTVSPost2010Prop54
  1
strokes_ogs.tif
102
RTVSPost2010PropOp54
 70
     1
102
RTVSPost2010Prop55
280
     0
102
RTVSPost2010PropOp55
 70
     1
102
RTVSPost2010Prop56
140
1.0
102
RTVSPost2010PropOp56
 70
     1
102
RTVSPost2010Prop57
140
1.0
102
RTVSPost2010PropOp57
 70
     1
  0
XRECORD
  5
3086
102
{ACAD_REACTORS
330
3085
102
}
330
3085
100
AcDbXrecord
280
     1
102
RTVSPost2010Prop28
280
     0
102
RTVSPost2010PropOp28
 70
     1
102
RTVSPost2010Prop29
280
     1
102
RTVSPost2010PropOp29
 70
     1
102
RTVSPost2010Prop30
280
     1
102
RTVSPost2010PropOp30
 70
     1
102
RTVSPost2010Prop31
280
     0
102
RTVSPost2010PropOp31
 70
     1
102
RTVSPost2010Prop32
280
     0
102
RTVSPost2010PropOp32
 70
     1
102
RTVSPost2010Prop33
280
     0
102
RTVSPost2010PropOp33
 70
     1
102
RTVSPost2010Prop34
280
     0
102
RTVSPost2010PropOp34
 70
     1
102
RTVSPost2010Prop35
280
     0
102
RTVSPost2010PropOp35
 70
     1
102
RTVSPost2010Prop36
280
     0
102
RTVSPost2010PropOp36
 70
     1
102
RTVSPost2010Prop37
 90
       50
102
RTVSPost2010PropOp37
 70
     1
102
RTVSPost2010Prop38
140
0.0
102
RTVSPost2010PropOp38
 70
     1
102
RTVSPost2010Prop39
140
1.0
102
RTVSPost2010PropOp39
 70
     1
102
RTVSPost2010Prop40
 90
        0
102
RTVSPost2010PropOp40
 70
     1
102
RTVSPost2010Prop41ColorIndex
 90
       18
102
RTVSPost2010Prop41ColorRGB
 90
        0
102
RTVSPost2010PropOp41
 70
     1
102
RTVSPost2010Prop42
 90
       50
102
RTVSPost2010PropOp42
 70
     1
102
RTVSPost2010Prop43
 90
        3
102
RTVSPost2010PropOp43
 70
     1
102
RTVSPost2010Prop44ColorIndex
 90
        5
102
RTVSPost2010Prop44ColorRGB
 90
      255
102
RTVSPost2010PropOp44
 70
     1
102
RTVSPost2010Prop45
280
     0
102
RTVSPost2010PropOp45
 70
     1
102
RTVSPost2010Prop46
 90
       50
102
RTVSPost2010PropOp46
 70
     1
102
RTVSPost2010Prop47
 90
       50
102
RTVSPost2010PropOp47
 70
     1
102
RTVSPost2010Prop48
 90
       50
102
RTVSPost2010PropOp48
 70
     1
102
RTVSPost2010Prop49
280
     0
102
RTVSPost2010PropOp49
 70
     1
102
RTVSPost2010Prop50
 90
       50
102
RTVSPost2010PropOp50
 70
     1
102
RTVSPost2010Prop51ColorIndex
 90
      256
102
RTVSPost2010Prop51ColorRGB
 90
-16777216
102
RTVSPost2010PropOp51
 70
     0
102
RTVSPost2010Prop52
140
1.0
102
RTVSPost2010PropOp52
 70
     0
102
RTVSPost2010Prop53
 90
        2
102
RTVSPost2010PropOp53
 70
     1
102
RTVSPost2010Prop54
  1
strokes_ogs.tif
102
RTVSPost2010PropOp54
 70
     1
102
RTVSPost2010Prop55
280
     0
102
RTVSPost2010PropOp55
 70
     1
102
RTVSPost2010Prop56
140
1.0
102
RTVSPost2010PropOp56
 70
     1
102
RTVSPost2010Prop57
140
1.0
102
RTVSPost2010PropOp57
 70
     1
  0
XRECORD
  5
3084
102
{ACAD_REACTORS
330
3083
102
}
330
3083
100
AcDbXrecord
280
     1
102
RTVSPost2010Prop28
280
     0
102
RTVSPost2010PropOp28
 70
     1
102
RTVSPost2010Prop29
280
     1
102
RTVSPost2010PropOp29
 70
     1
102
RTVSPost2010Prop30
280
     1
102
RTVSPost2010PropOp30
 70
     1
102
RTVSPost2010Prop31
280
     0
102
RTVSPost2010PropOp31
 70
     1
102
RTVSPost2010Prop32
280
     0
102
RTVSPost2010PropOp32
 70
     1
102
RTVSPost2010Prop33
280
     0
102
RTVSPost2010PropOp33
 70
     1
102
RTVSPost2010Prop34
280
     0
102
RTVSPost2010PropOp34
 70
     1
102
RTVSPost2010Prop35
280
     0
102
RTVSPost2010PropOp35
 70
     1
102
RTVSPost2010Prop36
280
     0
102
RTVSPost2010PropOp36
 70
     1
102
RTVSPost2010Prop37
 90
       50
102
RTVSPost2010PropOp37
 70
     1
102
RTVSPost2010Prop38
140
0.0
102
RTVSPost2010PropOp38
 70
     1
102
RTVSPost2010Prop39
140
1.0
102
RTVSPost2010PropOp39
 70
     1
102
RTVSPost2010Prop40
 90
        0
102
RTVSPost2010PropOp40
 70
     1
102
RTVSPost2010Prop41ColorIndex
 90
       18
102
RTVSPost2010Prop41ColorRGB
 90
        0
102
RTVSPost2010PropOp41
 70
     1
102
RTVSPost2010Prop42
 90
       50
102
RTVSPost2010PropOp42
 70
     1
102
RTVSPost2010Prop43
 90
        3
102
RTVSPost2010PropOp43
 70
     1
102
RTVSPost2010Prop44ColorIndex
 90
        5
102
RTVSPost2010Prop44ColorRGB
 90
      255
102
RTVSPost2010PropOp44
 70
     1
102
RTVSPost2010Prop45
280
     0
102
RTVSPost2010PropOp45
 70
     1
102
RTVSPost2010Prop46
 90
       50
102
RTVSPost2010PropOp46
 70
     1
102
RTVSPost2010Prop47
 90
       50
102
RTVSPost2010PropOp47
 70
     1
102
RTVSPost2010Prop48
 90
       50
102
RTVSPost2010PropOp48
 70
     1
102
RTVSPost2010Prop49
280
     0
102
RTVSPost2010PropOp49
 70
     1
102
RTVSPost2010Prop50
 90
       50
102
RTVSPost2010PropOp50
 70
     1
102
RTVSPost2010Prop51ColorIndex
 90
      256
102
RTVSPost2010Prop51ColorRGB
 90
-16777216
102
RTVSPost2010PropOp51
 70
     0
102
RTVSPost2010Prop52
140
1.0
102
RTVSPost2010PropOp52
 70
     0
102
RTVSPost2010Prop53
 90
        2
102
RTVSPost2010PropOp53
 70
     1
102
RTVSPost2010Prop54
  1
strokes_ogs.tif
102
RTVSPost2010PropOp54
 70
     1
102
RTVSPost2010Prop55
280
     0
102
RTVSPost2010PropOp55
 70
     1
102
RTVSPost2010Prop56
140
1.0
102
RTVSPost2010PropOp56
 70
     1
102
RTVSPost2010Prop57
140
1.0
102
RTVSPost2010PropOp57
 70
     1
  0
XRECORD
  5
307E
102
{ACAD_REACTORS
330
307D
102
}
330
307D
100
AcDbXrecord
280
     1
102
RTVSPost2010Prop28
280
     0
102
RTVSPost2010PropOp28
 70
     1
102
RTVSPost2010Prop29
280
     1
102
RTVSPost2010PropOp29
 70
     1
102
RTVSPost2010Prop30
280
     1
102
RTVSPost2010PropOp30
 70
     1
102
RTVSPost2010Prop31
280
     0
102
RTVSPost2010PropOp31
 70
     1
102
RTVSPost2010Prop32
280
     0
102
RTVSPost2010PropOp32
 70
     1
102
RTVSPost2010Prop33
280
     0
102
RTVSPost2010PropOp33
 70
     1
102
RTVSPost2010Prop34
280
     0
102
RTVSPost2010PropOp34
 70
     1
102
RTVSPost2010Prop35
280
     0
102
RTVSPost2010PropOp35
 70
     1
102
RTVSPost2010Prop36
280
     0
102
RTVSPost2010PropOp36
 70
     1
102
RTVSPost2010Prop37
 90
       50
102
RTVSPost2010PropOp37
 70
     1
102
RTVSPost2010Prop38
140
0.0
102
RTVSPost2010PropOp38
 70
     1
102
RTVSPost2010Prop39
140
1.0
102
RTVSPost2010PropOp39
 70
     1
102
RTVSPost2010Prop40
 90
        0
102
RTVSPost2010PropOp40
 70
     1
102
RTVSPost2010Prop41ColorIndex
 90
       18
102
RTVSPost2010Prop41ColorRGB
 90
        0
102
RTVSPost2010PropOp41
 70
     1
102
RTVSPost2010Prop42
 90
       50
102
RTVSPost2010PropOp42
 70
     1
102
RTVSPost2010Prop43
 90
        3
102
RTVSPost2010PropOp43
 70
     1
102
RTVSPost2010Prop44ColorIndex
 90
        5
102
RTVSPost2010Prop44ColorRGB
 90
      255
102
RTVSPost2010PropOp44
 70
     1
102
RTVSPost2010Prop45
280
     0
102
RTVSPost2010PropOp45
 70
     1
102
RTVSPost2010Prop46
 90
       50
102
RTVSPost2010PropOp46
 70
     1
102
RTVSPost2010Prop47
 90
       50
102
RTVSPost2010PropOp47
 70
     1
102
RTVSPost2010Prop48
 90
       50
102
RTVSPost2010PropOp48
 70
     1
102
RTVSPost2010Prop49
280
     0
102
RTVSPost2010PropOp49
 70
     1
102
RTVSPost2010Prop50
 90
       50
102
RTVSPost2010PropOp50
 70
     1
102
RTVSPost2010Prop51ColorIndex
 90
      256
102
RTVSPost2010Prop51ColorRGB
 90
-16777216
102
RTVSPost2010PropOp51
 70
     0
102
RTVSPost2010Prop52
140
1.0
102
RTVSPost2010PropOp52
 70
     0
102
RTVSPost2010Prop53
 90
        2
102
RTVSPost2010PropOp53
 70
     1
102
RTVSPost2010Prop54
  1
strokes_ogs.tif
102
RTVSPost2010PropOp54
 70
     1
102
RTVSPost2010Prop55
280
     0
102
RTVSPost2010PropOp55
 70
     1
102
RTVSPost2010Prop56
140
1.0
102
RTVSPost2010PropOp56
 70
     1
102
RTVSPost2010Prop57
140
1.0
102
RTVSPost2010PropOp57
 70
     1
  0
XRECORD
  5
3080
102
{ACAD_REACTORS
330
307F
102
}
330
307F
100
AcDbXrecord
280
     1
102
RTVSPost2010Prop28
280
     0
102
RTVSPost2010PropOp28
 70
     1
102
RTVSPost2010Prop29
280
     1
102
RTVSPost2010PropOp29
 70
     1
102
RTVSPost2010Prop30
280
     1
102
RTVSPost2010PropOp30
 70
     1
102
RTVSPost2010Prop31
280
     0
102
RTVSPost2010PropOp31
 70
     1
102
RTVSPost2010Prop32
280
     0
102
RTVSPost2010PropOp32
 70
     1
102
RTVSPost2010Prop33
280
     0
102
RTVSPost2010PropOp33
 70
     1
102
RTVSPost2010Prop34
280
     0
102
RTVSPost2010PropOp34
 70
     1
102
RTVSPost2010Prop35
280
     0
102
RTVSPost2010PropOp35
 70
     1
102
RTVSPost2010Prop36
280
     0
102
RTVSPost2010PropOp36
 70
     1
102
RTVSPost2010Prop37
 90
       50
102
RTVSPost2010PropOp37
 70
     1
102
RTVSPost2010Prop38
140
0.0
102
RTVSPost2010PropOp38
 70
     1
102
RTVSPost2010Prop39
140
1.0
102
RTVSPost2010PropOp39
 70
     1
102
RTVSPost2010Prop40
 90
        0
102
RTVSPost2010PropOp40
 70
     1
102
RTVSPost2010Prop41ColorIndex
 90
       18
102
RTVSPost2010Prop41ColorRGB
 90
        0
102
RTVSPost2010PropOp41
 70
     1
102
RTVSPost2010Prop42
 90
       50
102
RTVSPost2010PropOp42
 70
     1
102
RTVSPost2010Prop43
 90
        3
102
RTVSPost2010PropOp43
 70
     1
102
RTVSPost2010Prop44ColorIndex
 90
        5
102
RTVSPost2010Prop44ColorRGB
 90
      255
102
RTVSPost2010PropOp44
 70
     1
102
RTVSPost2010Prop45
280
     0
102
RTVSPost2010PropOp45
 70
     1
102
RTVSPost2010Prop46
 90
       50
102
RTVSPost2010PropOp46
 70
     1
102
RTVSPost2010Prop47
 90
       50
102
RTVSPost2010PropOp47
 70
     1
102
RTVSPost2010Prop48
 90
       50
102
RTVSPost2010PropOp48
 70
     1
102
RTVSPost2010Prop49
280
     0
102
RTVSPost2010PropOp49
 70
     1
102
RTVSPost2010Prop50
 90
       50
102
RTVSPost2010PropOp50
 70
     1
102
RTVSPost2010Prop51ColorIndex
 90
      256
102
RTVSPost2010Prop51ColorRGB
 90
-16777216
102
RTVSPost2010PropOp51
 70
     0
102
RTVSPost2010Prop52
140
1.0
102
RTVSPost2010PropOp52
 70
     0
102
RTVSPost2010Prop53
 90
        2
102
RTVSPost2010PropOp53
 70
     1
102
RTVSPost2010Prop54
  1
strokes_ogs.tif
102
RTVSPost2010PropOp54
 70
     1
102
RTVSPost2010Prop55
280
     0
102
RTVSPost2010PropOp55
 70
     1
102
RTVSPost2010Prop56
140
1.0
102
RTVSPost2010PropOp56
 70
     1
102
RTVSPost2010Prop57
140
1.0
102
RTVSPost2010PropOp57
 70
     1
  0
XRECORD
  5
3070
102
{ACAD_REACTORS
330
306F
102
}
330
306F
100
AcDbXrecord
280
     1
102
RTVSPost2010Prop28
280
     0
102
RTVSPost2010PropOp28
 70
     1
102
RTVSPost2010Prop29
280
     1
102
RTVSPost2010PropOp29
 70
     1
102
RTVSPost2010Prop30
280
     1
102
RTVSPost2010PropOp30
 70
     1
102
RTVSPost2010Prop31
280
     0
102
RTVSPost2010PropOp31
 70
     1
102
RTVSPost2010Prop32
280
     0
102
RTVSPost2010PropOp32
 70
     1
102
RTVSPost2010Prop33
280
     0
102
RTVSPost2010PropOp33
 70
     1
102
RTVSPost2010Prop34
280
     0
102
RTVSPost2010PropOp34
 70
     1
102
RTVSPost2010Prop35
280
     0
102
RTVSPost2010PropOp35
 70
     1
102
RTVSPost2010Prop36
280
     0
102
RTVSPost2010PropOp36
 70
     1
102
RTVSPost2010Prop37
 90
       50
102
RTVSPost2010PropOp37
 70
     1
102
RTVSPost2010Prop38
140
0.0
102
RTVSPost2010PropOp38
 70
     1
102
RTVSPost2010Prop39
140
1.0
102
RTVSPost2010PropOp39
 70
     1
102
RTVSPost2010Prop40
 90
        0
102
RTVSPost2010PropOp40
 70
     1
102
RTVSPost2010Prop41ColorIndex
 90
       18
102
RTVSPost2010Prop41ColorRGB
 90
        0
102
RTVSPost2010PropOp41
 70
     1
102
RTVSPost2010Prop42
 90
       50
102
RTVSPost2010PropOp42
 70
     1
102
RTVSPost2010Prop43
 90
        3
102
RTVSPost2010PropOp43
 70
     1
102
RTVSPost2010Prop44ColorIndex
 90
        5
102
RTVSPost2010Prop44ColorRGB
 90
      255
102
RTVSPost2010PropOp44
 70
     1
102
RTVSPost2010Prop45
280
     0
102
RTVSPost2010PropOp45
 70
     1
102
RTVSPost2010Prop46
 90
       50
102
RTVSPost2010PropOp46
 70
     1
102
RTVSPost2010Prop47
 90
       50
102
RTVSPost2010PropOp47
 70
     1
102
RTVSPost2010Prop48
 90
       50
102
RTVSPost2010PropOp48
 70
     1
102
RTVSPost2010Prop49
280
     0
102
RTVSPost2010PropOp49
 70
     1
102
RTVSPost2010Prop50
 90
       50
102
RTVSPost2010PropOp50
 70
     1
102
RTVSPost2010Prop51ColorIndex
 90
      256
102
RTVSPost2010Prop51ColorRGB
 90
-16777216
102
RTVSPost2010PropOp51
 70
     0
102
RTVSPost2010Prop52
140
1.0
102
RTVSPost2010PropOp52
 70
     0
102
RTVSPost2010Prop53
 90
        2
102
RTVSPost2010PropOp53
 70
     1
102
RTVSPost2010Prop54
  1
strokes_ogs.tif
102
RTVSPost2010PropOp54
 70
     1
102
RTVSPost2010Prop55
280
     0
102
RTVSPost2010PropOp55
 70
     1
102
RTVSPost2010Prop56
140
1.0
102
RTVSPost2010PropOp56
 70
     1
102
RTVSPost2010Prop57
140
1.0
102
RTVSPost2010PropOp57
 70
     1
  0
XRECORD
  5
3064
102
{ACAD_REACTORS
330
3063
102
}
330
3063
100
AcDbXrecord
280
     1
102
RTVSPost2010Prop28
280
     0
102
RTVSPost2010PropOp28
 70
     1
102
RTVSPost2010Prop29
280
     1
102
RTVSPost2010PropOp29
 70
     1
102
RTVSPost2010Prop30
280
     1
102
RTVSPost2010PropOp30
 70
     1
102
RTVSPost2010Prop31
280
     0
102
RTVSPost2010PropOp31
 70
     1
102
RTVSPost2010Prop32
280
     0
102
RTVSPost2010PropOp32
 70
     1
102
RTVSPost2010Prop33
280
     0
102
RTVSPost2010PropOp33
 70
     1
102
RTVSPost2010Prop34
280
     0
102
RTVSPost2010PropOp34
 70
     1
102
RTVSPost2010Prop35
280
     0
102
RTVSPost2010PropOp35
 70
     1
102
RTVSPost2010Prop36
280
     0
102
RTVSPost2010PropOp36
 70
     1
102
RTVSPost2010Prop37
 90
       50
102
RTVSPost2010PropOp37
 70
     1
102
RTVSPost2010Prop38
140
0.0
102
RTVSPost2010PropOp38
 70
     1
102
RTVSPost2010Prop39
140
1.0
102
RTVSPost2010PropOp39
 70
     1
102
RTVSPost2010Prop40
 90
        0
102
RTVSPost2010PropOp40
 70
     1
102
RTVSPost2010Prop41ColorIndex
 90
       18
102
RTVSPost2010Prop41ColorRGB
 90
        0
102
RTVSPost2010PropOp41
 70
     1
102
RTVSPost2010Prop42
 90
       50
102
RTVSPost2010PropOp42
 70
     1
102
RTVSPost2010Prop43
 90
        3
102
RTVSPost2010PropOp43
 70
     1
102
RTVSPost2010Prop44ColorIndex
 90
        5
102
RTVSPost2010Prop44ColorRGB
 90
      255
102
RTVSPost2010PropOp44
 70
     1
102
RTVSPost2010Prop45
280
     0
102
RTVSPost2010PropOp45
 70
     1
102
RTVSPost2010Prop46
 90
       50
102
RTVSPost2010PropOp46
 70
     1
102
RTVSPost2010Prop47
 90
       50
102
RTVSPost2010PropOp47
 70
     1
102
RTVSPost2010Prop48
 90
       50
102
RTVSPost2010PropOp48
 70
     1
102
RTVSPost2010Prop49
280
     0
102
RTVSPost2010PropOp49
 70
     1
102
RTVSPost2010Prop50
 90
       50
102
RTVSPost2010PropOp50
 70
     1
102
RTVSPost2010Prop51ColorIndex
 90
      256
102
RTVSPost2010Prop51ColorRGB
 90
-16777216
102
RTVSPost2010PropOp51
 70
     0
102
RTVSPost2010Prop52
140
1.0
102
RTVSPost2010PropOp52
 70
     0
102
RTVSPost2010Prop53
 90
        2
102
RTVSPost2010PropOp53
 70
     1
102
RTVSPost2010Prop54
  1
strokes_ogs.tif
102
RTVSPost2010PropOp54
 70
     1
102
RTVSPost2010Prop55
280
     0
102
RTVSPost2010PropOp55
 70
     1
102
RTVSPost2010Prop56
140
1.0
102
RTVSPost2010PropOp56
 70
     1
102
RTVSPost2010Prop57
140
1.0
102
RTVSPost2010PropOp57
 70
     1
  0
XRECORD
  5
3082
102
{ACAD_REACTORS
330
3081
102
}
330
3081
100
AcDbXrecord
280
     1
102
RTVSPost2010Prop28
280
     0
102
RTVSPost2010PropOp28
 70
     1
102
RTVSPost2010Prop29
280
     1
102
RTVSPost2010PropOp29
 70
     1
102
RTVSPost2010Prop30
280
     1
102
RTVSPost2010PropOp30
 70
     1
102
RTVSPost2010Prop31
280
     0
102
RTVSPost2010PropOp31
 70
     1
102
RTVSPost2010Prop32
280
     0
102
RTVSPost2010PropOp32
 70
     1
102
RTVSPost2010Prop33
280
     0
102
RTVSPost2010PropOp33
 70
     1
102
RTVSPost2010Prop34
280
     0
102
RTVSPost2010PropOp34
 70
     1
102
RTVSPost2010Prop35
280
     0
102
RTVSPost2010PropOp35
 70
     1
102
RTVSPost2010Prop36
280
     0
102
RTVSPost2010PropOp36
 70
     1
102
RTVSPost2010Prop37
 90
       50
102
RTVSPost2010PropOp37
 70
     1
102
RTVSPost2010Prop38
140
0.0
102
RTVSPost2010PropOp38
 70
     1
102
RTVSPost2010Prop39
140
1.0
102
RTVSPost2010PropOp39
 70
     1
102
RTVSPost2010Prop40
 90
        0
102
RTVSPost2010PropOp40
 70
     1
102
RTVSPost2010Prop41ColorIndex
 90
       18
102
RTVSPost2010Prop41ColorRGB
 90
        0
102
RTVSPost2010PropOp41
 70
     1
102
RTVSPost2010Prop42
 90
       50
102
RTVSPost2010PropOp42
 70
     1
102
RTVSPost2010Prop43
 90
        3
102
RTVSPost2010PropOp43
 70
     1
102
RTVSPost2010Prop44ColorIndex
 90
        5
102
RTVSPost2010Prop44ColorRGB
 90
      255
102
RTVSPost2010PropOp44
 70
     1
102
RTVSPost2010Prop45
280
     0
102
RTVSPost2010PropOp45
 70
     1
102
RTVSPost2010Prop46
 90
       50
102
RTVSPost2010PropOp46
 70
     1
102
RTVSPost2010Prop47
 90
       50
102
RTVSPost2010PropOp47
 70
     1
102
RTVSPost2010Prop48
 90
       50
102
RTVSPost2010PropOp48
 70
     1
102
RTVSPost2010Prop49
280
     0
102
RTVSPost2010PropOp49
 70
     1
102
RTVSPost2010Prop50
 90
       50
102
RTVSPost2010PropOp50
 70
     1
102
RTVSPost2010Prop51ColorIndex
 90
      256
102
RTVSPost2010Prop51ColorRGB
 90
-16777216
102
RTVSPost2010PropOp51
 70
     0
102
RTVSPost2010Prop52
140
1.0
102
RTVSPost2010PropOp52
 70
     0
102
RTVSPost2010Prop53
 90
        2
102
RTVSPost2010PropOp53
 70
     1
102
RTVSPost2010Prop54
  1
strokes_ogs.tif
102
RTVSPost2010PropOp54
 70
     1
102
RTVSPost2010Prop55
280
     0
102
RTVSPost2010PropOp55
 70
     1
102
RTVSPost2010Prop56
140
1.0
102
RTVSPost2010PropOp56
 70
     1
102
RTVSPost2010Prop57
140
1.0
102
RTVSPost2010PropOp57
 70
     1
  0
ENDSEC
  0
EOF
