  0
SECTION
  2
HEADER
  9
$ACADVER
  1
AC1027
  9
$ACADMAINTVER
 70
    55
  9
$DWGCODEPAGE
  3
ANSI_932
  9
$LASTSAVEDBY
  1
user
  9
$REQUIREDVERSIONS
160
                 0
  9
$INSBASE
 10
0.0
 20
0.0
 30
0.0
  9
$EXTMIN
 10
149.7553358643272
 20
149.8672560437908
 30
-0.0000000000000058
  9
$EXTMAX
 10
4305.244684880885
 20
3000.132758624541
 30
0.0000000000000104
  9
$LIMMIN
 10
0.0
 20
0.0
  9
$LIMMAX
 10
4455.0
 20
3150.0
  9
$ORTHOMODE
 70
     1
  9
$REGENMODE
 70
     1
  9
$FILLMODE
 70
     1
  9
$QTEXTMODE
 70
     0
  9
$MIRRTEXT
 70
     0
  9
$LTSCALE
 40
1.0
  9
$ATTMODE
 70
     1
  9
$TEXTSIZE
 40
2.5
  9
$TRACEWID
 40
1.0
  9
$TEXTSTYLE
  7
Annotative
  9
$CLAYER
  8
文字
  9
$CELTYPE
  6
ByLayer
  9
$CECOLOR
 62
   256
  9
$CELTSCALE
 40
1.0
  9
$DISPSILH
 70
     0
  9
$DIMSCALE
 40
0.0
  9
$DIMASZ
 40
1.0
  9
$DIMEXO
 40
0.5
  9
$DIMDLI
 40
3.75
  9
$DIMRND
 40
0.0
  9
$DIMDLE
 40
0.0
  9
$DIMEXE
 40
0.5
  9
$DIMTP
 40
0.0
  9
$DIMTM
 40
0.0
  9
$DIMTXT
 40
2.0
  9
$DIMCEN
 40
2.5
  9
$DIMTSZ
 40
0.0
  9
$DIMTOL
 70
     0
  9
$DIMLIM
 70
     0
  9
$DIMTIH
 70
     0
  9
$DIMTOH
 70
     0
  9
$DIMSE1
 70
     0
  9
$DIMSE2
 70
     0
  9
$DIMTAD
 70
     1
  9
$DIMZIN
 70
     8
  9
$DIMBLK
  1
Open30
  9
$DIMASO
 70
     1
  9
$DIMSHO
 70
     1
  9
$DIMPOST
  1

  9
$DIMAPOST
  1

  9
$DIMALT
 70
     0
  9
$DIMALTD
 70
     3
  9
$DIMALTF
 40
0.03937007874016
  9
$DIMLFAC
 40
1.0
  9
$DIMTOFL
 70
     1
  9
$DIMTVP
 40
0.0
  9
$DIMTIX
 70
     0
  9
$DIMSOXD
 70
     0
  9
$DIMSAH
 70
     0
  9
$DIMBLK1
  1

  9
$DIMBLK2
  1

  9
$DIMSTYLE
  2
Annotative
  9
$DIMCLRD
 70
     0
  9
$DIMCLRE
 70
     0
  9
$DIMCLRT
 70
     0
  9
$DIMTFAC
 40
1.0
  9
$DIMGAP
 40
0.5
  9
$DIMJUST
 70
     0
  9
$DIMSD1
 70
     0
  9
$DIMSD2
 70
     0
  9
$DIMTOLJ
 70
     0
  9
$DIMTZIN
 70
     8
  9
$DIMALTZ
 70
     0
  9
$DIMALTTZ
 70
     0
  9
$DIMUPT
 70
     0
  9
$DIMDEC
 70
     2
  9
$DIMTDEC
 70
     2
  9
$DIMALTU
 70
     2
  9
$DIMALTTD
 70
     3
  9
$DIMTXSTY
  7
Standard
  9
$DIMAUNIT
 70
     0
  9
$DIMADEC
 70
     0
  9
$DIMALTRND
 40
0.0
  9
$DIMAZIN
 70
     0
  9
$DIMDSEP
 70
    46
  9
$DIMATFIT
 70
     3
  9
$DIMFRAC
 70
     0
  9
$DIMLDRBLK
  1
Open30
  9
$DIMLUNIT
 70
     2
  9
$DIMLWD
 70
    -2
  9
$DIMLWE
 70
    -2
  9
$DIMTMOVE
 70
     0
  9
$DIMFXL
 40
1.0
  9
$DIMFXLON
 70
     0
  9
$DIMJOGANG
 40
0.7853981633974483
  9
$DIMTFILL
 70
     0
  9
$DIMTFILLCLR
 70
     0
  9
$DIMARCSYM
 70
     0
  9
$DIMLTYPE
  6

  9
$DIMLTEX1
  6

  9
$DIMLTEX2
  6

  9
$DIMTXTDIRECTION
 70
     0
  9
$LUNITS
 70
     2
  9
$LUPREC
 70
     4
  9
$SKETCHINC
 40
1.0
  9
$FILLETRAD
 40
50.0
  9
$AUNITS
 70
     0
  9
$AUPREC
 70
     0
  9
$MENU
  1
.
  9
$ELEVATION
 40
0.0
  9
$PELEVATION
 40
0.0
  9
$THICKNESS
 40
0.0
  9
$LIMCHECK
 70
     0
  9
$CHAMFERA
 40
800.0
  9
$CHAMFERB
 40
800.0
  9
$CHAMFERC
 40
0.0
  9
$CHAMFERD
 40
0.0
  9
$SKPOLY
 70
     0
  9
$TDCREATE
 40
2457413.695914456
  9
$TDUCREATE
 40
2457413.320914456
  9
$TDUPDATE
 40
2460382.622108727
  9
$TDUUPDATE
 40
2460382.247108727
  9
$TDINDWG
 40
0.6931001968
  9
$TDUSRTIMER
 40
0.6931001736
  9
$USRTIMER
 70
     1
  9
$ANGBASE
 50
0.0
  9
$ANGDIR
 70
     0
  9
$PDMODE
 70
     0
  9
$PDSIZE
 40
0.0
  9
$PLINEWID
 40
0.0
  9
$SPLFRAME
 70
     0
  9
$SPLINETYPE
 70
     6
  9
$SPLINESEGS
 70
     8
  9
$HANDSEED
  5
312D
  9
$SURFTAB1
 70
     6
  9
$SURFTAB2
 70
     6
  9
$SURFTYPE
 70
     6
  9
$SURFU
 70
     6
  9
$SURFV
 70
     6
  9
$UCSBASE
  2

  9
$UCSNAME
  2

  9
$UCSORG
 10
0.0
 20
0.0
 30
0.0
  9
$UCSXDIR
 10
1.0
 20
0.0
 30
0.0
  9
$UCSYDIR
 10
0.0
 20
1.0
 30
0.0
  9
$UCSORTHOREF
  2

  9
$UCSORTHOVIEW
 70
     0
  9
$UCSORGTOP
 10
0.0
 20
0.0
 30
0.0
  9
$UCSORGBOTTOM
 10
0.0
 20
0.0
 30
0.0
  9
$UCSORGLEFT
 10
0.0
 20
0.0
 30
0.0
  9
$UCSORGRIGHT
 10
0.0
 20
0.0
 30
0.0
  9
$UCSORGFRONT
 10
0.0
 20
0.0
 30
0.0
  9
$UCSORGBACK
 10
0.0
 20
0.0
 30
0.0
  9
$PUCSBASE
  2

  9
$PUCSNAME
  2

  9
$PUCSORG
 10
0.0
 20
0.0
 30
0.0
  9
$PUCSXDIR
 10
1.0
 20
0.0
 30
0.0
  9
$PUCSYDIR
 10
0.0
 20
1.0
 30
0.0
  9
$PUCSORTHOREF
  2

  9
$PUCSORTHOVIEW
 70
     0
  9
$PUCSORGTOP
 10
0.0
 20
0.0
 30
0.0
  9
$PUCSORGBOTTOM
 10
0.0
 20
0.0
 30
0.0
  9
$PUCSORGLEFT
 10
0.0
 20
0.0
 30
0.0
  9
$PUCSORGRIGHT
 10
0.0
 20
0.0
 30
0.0
  9
$PUCSORGFRONT
 10
0.0
 20
0.0
 30
0.0
  9
$PUCSORGBACK
 10
0.0
 20
0.0
 30
0.0
  9
$USERI1
 70
     0
  9
$USERI2
 70
     0
  9
$USERI3
 70
     0
  9
$USERI4
 70
     0
  9
$USERI5
 70
     0
  9
$USERR1
 40
0.0
  9
$USERR2
 40
0.0
  9
$USERR3
 40
0.0
  9
$USERR4
 40
0.0
  9
$USERR5
 40
0.0
  9
$WORLDVIEW
 70
     1
  9
$SHADEDGE
 70
     3
  9
$SHADEDIF
 70
    70
  9
$TILEMODE
 70
     1
  9
$MAXACTVP
 70
    64
  9
$PINSBASE
 10
0.0
 20
0.0
 30
0.0
  9
$PLIMCHECK
 70
     0
  9
$PEXTMIN
 10
-5.0
 20
-5.0
 30
0.0
  9
$PEXTMAX
 10
292.0
 20
205.0
 30
0.0
  9
$PLIMMIN
 10
-5.027069091796875
 20
-5.027082920074462
  9
$PLIMMAX
 10
291.89892578125
 20
204.9462447166443
  9
$UNITMODE
 70
     0
  9
$VISRETAIN
 70
     1
  9
$PLINEGEN
 70
     0
  9
$PSLTSCALE
 70
     1
  9
$TREEDEPTH
 70
  3020
  9
$CMLSTYLE
  2
Standard
  9
$CMLJUST
 70
     0
  9
$CMLSCALE
 40
20.0
  9
$PROXYGRAPHICS
 70
     1
  9
$MEASUREMENT
 70
     1
  9
$CELWEIGHT
370
    -1
  9
$ENDCAPS
280
     0
  9
$JOINSTYLE
280
     0
  9
$LWDISPLAY
290
     0
  9
$INSUNITS
 70
     4
  9
$HYPERLINKBASE
  1

  9
$STYLESHEET
  1

  9
$XEDIT
290
     1
  9
$CEPSNTYPE
380
     0
  9
$PSTYLEMODE
290
     1
  9
$FINGERPRINTGUID
  2
{DF4ACD2C-B106-45B5-A4D6-E2AC04F839BF}
  9
$VERSIONGUID
  2
{9F1F9BD1-1C54-4194-A3AF-EC07B1991C58}
  9
$EXTNAMES
290
     1
  9
$PSVPSCALE
 40
0.0
  9
$OLESTARTUP
290
     0
  9
$SORTENTS
280
   127
  9
$INDEXCTL
280
     0
  9
$HIDETEXT
280
     1
  9
$XCLIPFRAME
280
     2
  9
$HALOGAP
280
     0
  9
$OBSCOLOR
 70
   257
  9
$OBSLTYPE
280
     0
  9
$INTERSECTIONDISPLAY
280
     0
  9
$INTERSECTIONCOLOR
 70
   257
  9
$DIMASSOC
280
     2
  9
$PROJECTNAME
  1

  9
$CAMERADISPLAY
290
     0
  9
$LENSLENGTH
 40
50.0
  9
$CAMERAHEIGHT
 40
0.0
  9
$STEPSPERSEC
 40
2.0
  9
$STEPSIZE
 40
6.0
  9
$3DDWFPREC
 40
2.0
  9
$PSOLWIDTH
 40
5.0
  9
$PSOLHEIGHT
 40
80.0
  9
$LOFTANG1
 40
1.570796326794896
  9
$LOFTANG2
 40
1.570796326794896
  9
$LOFTMAG1
 40
0.0
  9
$LOFTMAG2
 40
0.0
  9
$LOFTPARAM
 70
     7
  9
$LOFTNORMALS
280
     1
  9
$LATITUDE
 40
37.795
  9
$LONGITUDE
 40
-122.394
  9
$NORTHDIRECTION
 40
0.0
  9
$TIMEZONE
 70
 -8000
  9
$LIGHTGLYPHDISPLAY
280
     1
  9
$TILEMODELIGHTSYNCH
280
     1
  9
$CMATERIAL
347
EC
  9
$SOLIDHIST
280
     0
  9
$SHOWHIST
280
     1
  9
$DWFFRAME
280
     2
  9
$DGNFRAME
280
     0
  9
$REALWORLDSCALE
290
     1
  9
$INTERFERECOLOR
 62
     1
  9
$INTERFEREOBJVS
345
F9
  9
$INTERFEREVPVS
346
F6
  9
$CSHADOW
280
     0
  9
$SHADOWPLANELOCATION
 40
0.0
  0
ENDSEC
  0
SECTION
  2
CLASSES
  0
CLASS
  1
ACDBDICTIONARYWDFLT
  2
AcDbDictionaryWithDefault
  3
ObjectDBX Classes
 90
        0
 91
        1
280
     0
281
     0
  0
CLASS
  1
DICTIONARYVAR
  2
AcDbDictionaryVar
  3
ObjectDBX Classes
 90
        0
 91
       10
280
     0
281
     0
  0
CLASS
  1
TABLESTYLE
  2
AcDbTableStyle
  3
ObjectDBX Classes
 90
     4095
 91
        1
280
     0
281
     0
  0
CLASS
  1
MATERIAL
  2
AcDbMaterial
  3
ObjectDBX Classes
 90
     1153
 91
        3
280
     0
281
     0
  0
CLASS
  1
VISUALSTYLE
  2
AcDbVisualStyle
  3
ObjectDBX Classes
 90
     4095
 91
       24
280
     0
281
     0
  0
CLASS
  1
SCALE
  2
AcDbScale
  3
ObjectDBX Classes
 90
     1153
 91
       18
280
     0
281
     0
  0
CLASS
  1
MLEADERSTYLE
  2
AcDbMLeaderStyle
  3
ACDB_MLEADERSTYLE_CLASS
 90
     4095
 91
        2
280
     0
281
     0
  0
CLASS
  1
CELLSTYLEMAP
  2
AcDbCellStyleMap
  3
ObjectDBX Classes
 90
     1152
 91
        1
280
     0
281
     0
  0
CLASS
  1
EXACXREFPANELOBJECT
  2
ExAcXREFPanelObject
  3
EXAC_ESW
 90
     1025
 91
        0
280
     0
281
     0
  0
CLASS
  1
NPOCOLLECTION
  2
AcDbImpNonPersistentObjectsCollection
  3
ObjectDBX Classes
 90
     1153
 91
        0
280
     0
281
     0
  0
CLASS
  1
LAYER_INDEX
  2
AcDbLayerIndex
  3
ObjectDBX Classes
 90
        0
 91
        0
280
     0
281
     0
  0
CLASS
  1
SPATIAL_INDEX
  2
AcDbSpatialIndex
  3
ObjectDBX Classes
 90
        0
 91
        0
280
     0
281
     0
  0
CLASS
  1
IDBUFFER
  2
AcDbIdBuffer
  3
ObjectDBX Classes
 90
        0
 91
        0
280
     0
281
     0
  0
CLASS
  1
ACDBSECTIONVIEWSTYLE
  2
AcDbSectionViewStyle
  3
ObjectDBX Classes
 90
     1025
 91
        1
280
     0
281
     0
  0
CLASS
  1
ACDBDETAILVIEWSTYLE
  2
AcDbDetailViewStyle
  3
ObjectDBX Classes
 90
     1025
 91
        1
280
     0
281
     0
  0
CLASS
  1
SORTENTSTABLE
  2
AcDbSortentsTable
  3
ObjectDBX Classes
 90
        0
 91
        1
280
     0
281
     0
  0
CLASS
  1
ACDB_TEXTOBJECTCONTEXTDATA_CLASS
  2
AcDbTextObjectContextData
  3
ObjectDBX Classes
 90
     1153
 91
       13
280
     0
281
     0
  0
CLASS
  1
ACDB_ALDIMOBJECTCONTEXTDATA_CLASS
  2
AcDbAlignedDimensionObjectContextData
  3
ObjectDBX Classes
 90
     1153
 91
       51
280
     0
281
     0
  0
CLASS
  1
DIMASSOC
  2
AcDbDimAssoc
  3
"AcDbDimAssoc|Product Desc:     AcDim ARX App For Dimension|Company:          Autodesk, Inc.|WEB Address:      www.autodesk.com"
 90
        0
 91
       51
280
     0
281
     0
  0
CLASS
  1
ACDB_LEADEROBJECTCONTEXTDATA_CLASS
  2
AcDbLeaderObjectContextData
  3
ObjectDBX Classes
 90
     1153
 91
        2
280
     0
281
     0
  0
CLASS
  1
ARC_DIMENSION
  2
AcDbArcDimension
  3
ObjectDBX Classes
 90
     1025
 91
        0
280
     0
281
     1
  0
CLASS
  1
ACDB_ANGDIMOBJECTCONTEXTDATA_CLASS
  2
AcDbAngularDimensionObjectContextData
  3
ObjectDBX Classes
 90
     1153
 91
        0
280
     0
281
     0
  0
ENDSEC
  0
SECTION
  2
TABLES
  0
TABLE
  2
VPORT
  5
8
330
0
100
AcDbSymbolTable
 70
     1
  0
VPORT
  5
EA
330
8
100
AcDbSymbolTableRecord
100
AcDbViewportTableRecord
  2
*Active
 70
     0
 10
0.0
 20
0.0
 11
1.0
 21
1.0
 12
2227.500010372606
 22
1575.000007334166
 13
0.0
 23
0.0
 14
10.0
 24
10.0
 15
10.0
 25
10.0
 16
0.0
 26
0.0
 36
1.0
 17
0.0
 27
0.0
 37
0.0
 40
2872.56223402206
 41
2.032637075718015
 42
50.0
 43
0.0
 44
0.0
 50
0.0
 51
0.0
 71
     0
 72
  1000
 73
     1
 74
     3
 75
     0
 76
     1
 77
     0
 78
     0
281
     0
 65
     1
110
0.0
120
0.0
130
0.0
111
1.0
121
0.0
131
0.0
112
0.0
122
1.0
132
0.0
 79
     0
146
0.0
348
F5
 60
     3
 61
     5
292
     1
282
     1
141
0.0
142
0.0
 63
   250
421
  3355443
1001
ACAD_NAV_VCDISPLAY
1070
     3
  0
ENDTAB
  0
TABLE
  2
LTYPE
  5
5
330
0
100
AcDbSymbolTable
 70
     3
  0
LTYPE
  5
14
330
5
100
AcDbSymbolTableRecord
100
AcDbLinetypeTableRecord
  2
ByBlock
 70
     0
  3

 72
    65
 73
     0
 40
0.0
  0
LTYPE
  5
15
330
5
100
AcDbSymbolTableRecord
100
AcDbLinetypeTableRecord
  2
ByLayer
 70
     0
  3

 72
    65
 73
     0
 40
0.0
  0
LTYPE
  5
16
330
5
100
AcDbSymbolTableRecord
100
AcDbLinetypeTableRecord
  2
Continuous
 70
     0
  3
Solid line
 72
    65
 73
     0
 40
0.0
  0
LTYPE
  5
250
330
5
100
AcDbSymbolTableRecord
100
AcDbLinetypeTableRecord
  2
JIS_08_11
 70
     0
  3
1SASEN11 ___ _ ___ _ ___ _ ___ _ ___ _ ___
 72
    65
 73
     4
 40
12.8
 49
11.0
 74
     0
 49
-0.6
 74
     0
 49
0.6
 74
     0
 49
-0.6
 74
     0
  0
LTYPE
  5
17AD
330
5
100
AcDbSymbolTableRecord
100
AcDbLinetypeTableRecord
  2
JIS_02_0.7
 70
     0
  3
HIDDEN0.75 _ _ _ _ _ _ _ _ _ _ _ _ _ _ _ _ _
 72
    65
 73
     2
 40
1.35
 49
0.75
 74
     0
 49
-0.6
 74
     0
  0
ENDTAB
  0
TABLE
  2
LAYER
  5
2
102
{ACAD_XDICTIONARY
360
1FF
102
}
330
0
100
AcDbSymbolTable
 70
    12
  0
LAYER
  5
10
102
{ACAD_XDICTIONARY
360
13C
102
}
330
2
100
AcDbSymbolTableRecord
100
AcDbLayerTableRecord
  2
0
 70
     0
 62
     7
  6
Continuous
370
    -3
390
F
347
EE
348
0
  0
LAYER
  5
242
330
2
100
AcDbSymbolTableRecord
100
AcDbLayerTableRecord
  2
図面枠
 70
     0
 62
     2
  6
Continuous
370
    -3
390
F
347
EE
348
0
1001
AcAecLayerStandard
1000

1000

1001
AcCmTransparency
1071
        0
  0
LAYER
  5
245
330
2
100
AcDbSymbolTableRecord
100
AcDbLayerTableRecord
  2
タイトル枠
 70
     0
 62
     2
  6
Continuous
370
    -3
390
F
347
EE
348
0
1001
AcAecLayerStandard
1000

1000

1001
AcCmTransparency
1071
        0
  0
LAYER
  5
246
330
2
100
AcDbSymbolTableRecord
100
AcDbLayerTableRecord
  2
構造線
 70
     0
 62
     7
  6
Continuous
370
    13
390
F
347
EE
348
0
1001
AcAecLayerStandard
1000

1000

1001
AcCmTransparency
1071
        0
  0
LAYER
  5
247
330
2
100
AcDbSymbolTableRecord
100
AcDbLayerTableRecord
  2
寸法線
 70
     0
 62
     5
  6
Continuous
370
     9
390
F
347
EE
348
0
1001
AcAecLayerStandard
1000

1000

1001
AcCmTransparency
1071
        0
  0
LAYER
  5
248
330
2
100
AcDbSymbolTableRecord
100
AcDbLayerTableRecord
  2
文字
 70
     0
 62
     7
  6
Continuous
370
     9
390
F
347
EE
348
0
1001
AcAecLayerStandard
1000

1000

1001
AcCmTransparency
1071
        0
  0
LAYER
  5
249
330
2
100
AcDbSymbolTableRecord
100
AcDbLayerTableRecord
  2
配筋線
 70
     0
 62
     1
  6
Continuous
370
    13
390
F
347
EE
348
0
1001
AcAecLayerStandard
1000

1000

1001
AcCmTransparency
1071
        0
  0
LAYER
  5
24A
330
2
100
AcDbSymbolTableRecord
100
AcDbLayerTableRecord
  2
配筋寸法線
 70
     0
 62
     6
  6
Continuous
370
     9
390
F
347
EE
348
0
1001
AcAecLayerStandard
1000

1000

1001
AcCmTransparency
1071
        0
  0
LAYER
  5
24B
330
2
100
AcDbSymbolTableRecord
100
AcDbLayerTableRecord
  2
配筋注釈
 70
     0
 62
     7
  6
Continuous
370
     9
390
F
347
EE
348
0
1001
AcAecLayerStandard
1000

1000

1001
AcCmTransparency
1071
        0
  0
LAYER
  5
24C
330
2
100
AcDbSymbolTableRecord
100
AcDbLayerTableRecord
  2
中心線
 70
     0
 62
     2
  6
JIS_08_11
370
     9
390
F
347
EE
348
0
1001
AcAecLayerStandard
1000

1000

1001
AcCmTransparency
1071
        0
  0
LAYER
  5
2DB
330
2
100
AcDbSymbolTableRecord
100
AcDbLayerTableRecord
  2
Defpoints
 70
     0
 62
     7
  6
Continuous
290
     0
370
    -3
390
F
347
EE
348
0
  0
LAYER
  5
17AC
330
2
100
AcDbSymbolTableRecord
100
AcDbLayerTableRecord
  2
隠れ線
 70
     0
 62
     4
  6
JIS_02_0.7
370
     9
390
F
347
EE
348
0
1001
AcAecLayerStandard
1000

1000

1001
AcCmTransparency
1071
        0
  0
ENDTAB
  0
TABLE
  2
STYLE
  5
3
330
0
100
AcDbSymbolTable
 70
     3
  0
STYLE
  5
11
330
3
100
AcDbSymbolTableRecord
100
AcDbTextStyleTableRecord
  2
Standard
 70
     0
 40
0.0
 41
1.0
 50
0.0
 71
     0
 42
2.5
  3
HGPGothicM.ttf
  4

1001
ACAD
1000
HGPGothicM
1071
    32818
  0
STYLE
  5
132
330
3
100
AcDbSymbolTableRecord
100
AcDbTextStyleTableRecord
  2
Annotative
 70
     0
 40
0.0
 41
1.0
 50
0.0
 71
     0
 42
2.5
  3
HGPGothicM.ttf
  4

1001
AcadAnnotative
1000
AnnotativeData
1002
{
1070
     1
1070
     1
1002
}
1001
ACAD
1000
HGPGothicM
1071
    32818
  0
STYLE
  5
24F
330
3
100
AcDbSymbolTableRecord
100
AcDbTextStyleTableRecord
  2

 70
     1
 40
0.0
 41
1.0
 50
0.0
 71
     0
 42
2.5
  3
ltypeshp.shx
  4

  0
ENDTAB
  0
TABLE
  2
VIEW
  5
6
330
0
100
AcDbSymbolTable
 70
     0
  0
ENDTAB
  0
TABLE
  2
UCS
  5
7
330
0
100
AcDbSymbolTable
 70
     0
  0
ENDTAB
  0
TABLE
  2
APPID
  5
9
330
0
100
AcDbSymbolTable
 70
    12
  0
APPID
  5
12
330
9
100
AcDbSymbolTableRecord
100
AcDbRegAppTableRecord
  2
ACAD
 70
     0
  0
APPID
  5
9E
330
9
100
AcDbSymbolTableRecord
100
AcDbRegAppTableRecord
  2
ACAD_PSEXT
 70
     0
  0
APPID
  5
133
330
9
100
AcDbSymbolTableRecord
100
AcDbRegAppTableRecord
  2
AcadAnnoPO
 70
     0
  0
APPID
  5
134
330
9
100
AcDbSymbolTableRecord
100
AcDbRegAppTableRecord
  2
AcadAnnotative
 70
     0
  0
APPID
  5
135
330
9
100
AcDbSymbolTableRecord
100
AcDbRegAppTableRecord
  2
ACAD_DSTYLE_DIMJAG
 70
     0
  0
APPID
  5
136
330
9
100
AcDbSymbolTableRecord
100
AcDbRegAppTableRecord
  2
ACAD_DSTYLE_DIMTALN
 70
     0
  0
APPID
  5
165
330
9
100
AcDbSymbolTableRecord
100
AcDbRegAppTableRecord
  2
ACAD_MLEADERVER
 70
     0
  0
APPID
  5
217
330
9
100
AcDbSymbolTableRecord
100
AcDbRegAppTableRecord
  2
ACAD_NAV_VCDISPLAY
 70
     0
  0
APPID
  5
243
330
9
100
AcDbSymbolTableRecord
100
AcDbRegAppTableRecord
  2
AcAecLayerStandard
 70
     0
  0
APPID
  5
244
330
9
100
AcDbSymbolTableRecord
100
AcDbRegAppTableRecord
  2
AcCmTransparency
 70
     0
  0
APPID
  5
271
330
9
100
AcDbSymbolTableRecord
100
AcDbRegAppTableRecord
  2
ACAD_EXEMPT_FROM_CAD_STANDARDS
 70
     0
  0
APPID
  5
16F8
330
9
100
AcDbSymbolTableRecord
100
AcDbRegAppTableRecord
  2
AcadAnnoMonitorAlertIconDisabled
 70
     0
  0
ENDTAB
  0
TABLE
  2
DIMSTYLE
  5
A
330
0
100
AcDbSymbolTable
 70
     3
100
AcDbDimStyleTable
 71
     2
340
137
340
27
  0
DIMSTYLE
105
1B0
330
A
100
AcDbSymbolTableRecord
100
AcDbDimStyleTableRecord
  2
Standard
 70
     0
340
11
  0
DIMSTYLE
105
137
102
{ACAD_REACTORS
330
194F
330
1961
330
1973
330
1985
330
1997
330
19A9
330
19BB
330
19CD
330
19E1
330
19F5
330
1A07
330
1A1B
330
1A2D
330
1A4A
330
1A5C
330
1A70
330
1A84
330
1A96
330
1AA8
330
1ABA
330
1ACC
330
1AE0
330
1AF6
330
1B08
330
1B1A
330
1B2C
330
1B3E
330
1B51
330
1B7B
330
1CA0
330
1CB4
330
20C7
330
20D9
330
20ED
330
2101
330
2114
330
2128
330
213B
330
214F
330
2161
330
2175
330
2187
330
219B
330
21AD
330
21BF
330
21D1
330
21E6
330
21F8
330
220A
330
221C
330
222E
102
}
330
A
100
AcDbSymbolTableRecord
100
AcDbDimStyleTableRecord
  2
Annotative
 70
     0
 40
0.0
 41
1.0
 42
0.5
 43
3.75
 44
0.5
 73
     0
 74
     0
 77
     1
 78
     8
140
2.0
141
2.5
143
0.03937007874016
147
0.5
171
     3
172
     1
271
     2
272
     2
274
     3
283
     0
284
     8
340
11
341
2E9
342
2E9
1001
AcadAnnotative
1000
AnnotativeData
1002
{
1070
     1
1070
     1
1002
}
1001
ACAD_DSTYLE_DIMJAG
1070
   388
1040
1.5
1001
ACAD_DSTYLE_DIMTALN
1070
   392
1070
     0
  0
DIMSTYLE
105
27
330
A
100
AcDbSymbolTableRecord
100
AcDbDimStyleTableRecord
  2
ISO-25
 70
     0
 41
2.5
 42
0.625
 43
3.75
 44
1.25
 73
     0
 74
     0
 77
     1
 78
     8
140
2.5
141
2.5
143
0.03937007874016
147
0.625
171
     3
172
     1
271
     2
272
     2
274
     3
278
    44
283
     0
284
     8
340
11
  0
ENDTAB
  0
TABLE
  2
BLOCK_RECORD
  5
1
330
0
100
AcDbSymbolTable
 70
    55
  0
BLOCK_RECORD
  5
1F
102
{ACAD_XDICTIONARY
360
1CE
102
}
330
1
100
AcDbSymbolTableRecord
100
AcDbBlockTableRecord
  2
*Model_Space
340
22
 70
     0
280
     1
281
     0
  0
BLOCK_RECORD
  5
185A
330
1
100
AcDbSymbolTableRecord
100
AcDbBlockTableRecord
  2
*Paper_Space
340
185B
 70
     0
280
     1
281
     0
  0
BLOCK_RECORD
  5
2E9
330
1
100
AcDbSymbolTableRecord
100
AcDbBlockTableRecord
  2
_Open30
340
0
102
{BLKREFS
331
2F39
331
2F3A
331
2F42
331
2F43
331
2F4B
331
2F4C
331
2F54
331
2F55
331
2F5D
331
2F5E
331
2F66
331
2F67
331
2F6F
331
2F70
331
2F78
331
2F79
331
2F83
331
2F84
331
2F8C
331
2F8D
331
2F97
331
2F98
331
2FA0
331
2FA1
331
2FA9
331
2FAA
331
2FB2
331
2FB3
331
2FBD
331
2FBE
331
2FC8
331
2FC9
331
2FD1
331
2FD2
331
2FDA
331
2FDB
331
2FE3
331
2FE4
331
2FEC
331
2FED
331
2FF7
331
30EA
331
30EB
331
30F3
331
30F4
331
30FC
331
30FD
331
3105
331
3106
331
310E
331
310F
331
3117
331
3118
331
2FF8
331
3000
331
3001
331
3009
331
300A
331
3012
331
3013
331
301B
331
301C
331
3024
331
3025
331
302F
331
3030
331
3038
331
3039
331
3042
331
3043
331
304D
331
304E
331
3057
331
3058
331
3060
331
3061
331
306B
331
306C
331
3076
331
3077
331
307F
331
3080
331
308A
331
308B
331
3093
331
3094
331
309E
331
309F
331
30A7
331
30A8
331
30B2
331
30B3
331
30BB
331
30BC
331
30C6
331
30C7
331
30CF
331
30D0
331
30D8
331
30D9
331
30E1
331
30E2
102
}
 70
     0
280
     1
281
     0
  0
BLOCK_RECORD
  5
1954
330
1
100
AcDbSymbolTableRecord
100
AcDbBlockTableRecord
  2
*D1
340
0
 70
     0
280
     1
281
     0
  0
BLOCK_RECORD
  5
1966
330
1
100
AcDbSymbolTableRecord
100
AcDbBlockTableRecord
  2
*D2
340
0
 70
     0
280
     1
281
     0
  0
BLOCK_RECORD
  5
1978
330
1
100
AcDbSymbolTableRecord
100
AcDbBlockTableRecord
  2
*D3
340
0
 70
     0
280
     1
281
     0
  0
BLOCK_RECORD
  5
198A
330
1
100
AcDbSymbolTableRecord
100
AcDbBlockTableRecord
  2
*D4
340
0
 70
     0
280
     1
281
     0
  0
BLOCK_RECORD
  5
199C
330
1
100
AcDbSymbolTableRecord
100
AcDbBlockTableRecord
  2
*D5
340
0
 70
     0
280
     1
281
     0
  0
BLOCK_RECORD
  5
19AE
330
1
100
AcDbSymbolTableRecord
100
AcDbBlockTableRecord
  2
*D6
340
0
 70
     0
280
     1
281
     0
  0
BLOCK_RECORD
  5
19C0
330
1
100
AcDbSymbolTableRecord
100
AcDbBlockTableRecord
  2
*D7
340
0
 70
     0
280
     1
281
     0
  0
BLOCK_RECORD
  5
19D2
330
1
100
AcDbSymbolTableRecord
100
AcDbBlockTableRecord
  2
*D8
340
0
 70
     0
280
     1
281
     0
  0
BLOCK_RECORD
  5
19E6
330
1
100
AcDbSymbolTableRecord
100
AcDbBlockTableRecord
  2
*D9
340
0
 70
     0
280
     1
281
     0
  0
BLOCK_RECORD
  5
19FA
330
1
100
AcDbSymbolTableRecord
100
AcDbBlockTableRecord
  2
*D10
340
0
 70
     0
280
     1
281
     0
  0
BLOCK_RECORD
  5
1A0C
330
1
100
AcDbSymbolTableRecord
100
AcDbBlockTableRecord
  2
*D11
340
0
 70
     0
280
     1
281
     0
  0
BLOCK_RECORD
  5
1A20
330
1
100
AcDbSymbolTableRecord
100
AcDbBlockTableRecord
  2
*D12
340
0
 70
     0
280
     1
281
     0
  0
BLOCK_RECORD
  5
1A32
330
1
100
AcDbSymbolTableRecord
100
AcDbBlockTableRecord
  2
*D13
340
0
 70
     0
280
     1
281
     0
  0
BLOCK_RECORD
  5
1A4F
330
1
100
AcDbSymbolTableRecord
100
AcDbBlockTableRecord
  2
*D14
340
0
 70
     0
280
     1
281
     0
  0
BLOCK_RECORD
  5
1A61
330
1
100
AcDbSymbolTableRecord
100
AcDbBlockTableRecord
  2
*D15
340
0
 70
     0
280
     1
281
     0
  0
BLOCK_RECORD
  5
1A75
330
1
100
AcDbSymbolTableRecord
100
AcDbBlockTableRecord
  2
*D16
340
0
 70
     0
280
     1
281
     0
  0
BLOCK_RECORD
  5
1A89
330
1
100
AcDbSymbolTableRecord
100
AcDbBlockTableRecord
  2
*D17
340
0
 70
     0
280
     1
281
     0
  0
BLOCK_RECORD
  5
1A9B
330
1
100
AcDbSymbolTableRecord
100
AcDbBlockTableRecord
  2
*D18
340
0
 70
     0
280
     1
281
     0
  0
BLOCK_RECORD
  5
1AAD
330
1
100
AcDbSymbolTableRecord
100
AcDbBlockTableRecord
  2
*D19
340
0
 70
     0
280
     1
281
     0
  0
BLOCK_RECORD
  5
1ABF
330
1
100
AcDbSymbolTableRecord
100
AcDbBlockTableRecord
  2
*D20
340
0
 70
     0
280
     1
281
     0
  0
BLOCK_RECORD
  5
1AD1
330
1
100
AcDbSymbolTableRecord
100
AcDbBlockTableRecord
  2
*D21
340
0
 70
     0
280
     1
281
     0
  0
BLOCK_RECORD
  5
1AE5
330
1
100
AcDbSymbolTableRecord
100
AcDbBlockTableRecord
  2
*D22
340
0
 70
     0
280
     1
281
     0
  0
BLOCK_RECORD
  5
1AFB
330
1
100
AcDbSymbolTableRecord
100
AcDbBlockTableRecord
  2
*D23
340
0
 70
     0
280
     1
281
     0
  0
BLOCK_RECORD
  5
1B0D
330
1
100
AcDbSymbolTableRecord
100
AcDbBlockTableRecord
  2
*D24
340
0
 70
     0
280
     1
281
     0
  0
BLOCK_RECORD
  5
1B1F
330
1
100
AcDbSymbolTableRecord
100
AcDbBlockTableRecord
  2
*D25
340
0
 70
     0
280
     1
281
     0
  0
BLOCK_RECORD
  5
1B31
330
1
100
AcDbSymbolTableRecord
100
AcDbBlockTableRecord
  2
*D26
340
0
 70
     0
280
     1
281
     0
  0
BLOCK_RECORD
  5
1B43
330
1
100
AcDbSymbolTableRecord
100
AcDbBlockTableRecord
  2
*D27
340
0
 70
     0
280
     1
281
     0
  0
BLOCK_RECORD
  5
1B56
330
1
100
AcDbSymbolTableRecord
100
AcDbBlockTableRecord
  2
*D28
340
0
 70
     0
280
     1
281
     0
  0
BLOCK_RECORD
  5
1B80
330
1
100
AcDbSymbolTableRecord
100
AcDbBlockTableRecord
  2
*D29
340
0
 70
     0
280
     1
281
     0
  0
BLOCK_RECORD
  5
1CA5
330
1
100
AcDbSymbolTableRecord
100
AcDbBlockTableRecord
  2
*D30
340
0
 70
     0
280
     1
281
     0
  0
BLOCK_RECORD
  5
1CB9
330
1
100
AcDbSymbolTableRecord
100
AcDbBlockTableRecord
  2
*D31
340
0
 70
     0
280
     1
281
     0
  0
BLOCK_RECORD
  5
20CC
330
1
100
AcDbSymbolTableRecord
100
AcDbBlockTableRecord
  2
*D32
340
0
 70
     0
280
     1
281
     0
  0
BLOCK_RECORD
  5
20DE
330
1
100
AcDbSymbolTableRecord
100
AcDbBlockTableRecord
  2
*D33
340
0
 70
     0
280
     1
281
     0
  0
BLOCK_RECORD
  5
20F2
330
1
100
AcDbSymbolTableRecord
100
AcDbBlockTableRecord
  2
*D34
340
0
 70
     0
280
     1
281
     0
  0
BLOCK_RECORD
  5
2106
330
1
100
AcDbSymbolTableRecord
100
AcDbBlockTableRecord
  2
*D35
340
0
 70
     0
280
     1
281
     0
  0
BLOCK_RECORD
  5
2119
330
1
100
AcDbSymbolTableRecord
100
AcDbBlockTableRecord
  2
*D36
340
0
 70
     0
280
     1
281
     0
  0
BLOCK_RECORD
  5
212D
330
1
100
AcDbSymbolTableRecord
100
AcDbBlockTableRecord
  2
*D37
340
0
 70
     0
280
     1
281
     0
  0
BLOCK_RECORD
  5
2140
330
1
100
AcDbSymbolTableRecord
100
AcDbBlockTableRecord
  2
*D38
340
0
 70
     0
280
     1
281
     0
  0
BLOCK_RECORD
  5
2154
330
1
100
AcDbSymbolTableRecord
100
AcDbBlockTableRecord
  2
*D39
340
0
 70
     0
280
     1
281
     0
  0
BLOCK_RECORD
  5
2166
330
1
100
AcDbSymbolTableRecord
100
AcDbBlockTableRecord
  2
*D40
340
0
 70
     0
280
     1
281
     0
  0
BLOCK_RECORD
  5
217A
330
1
100
AcDbSymbolTableRecord
100
AcDbBlockTableRecord
  2
*D41
340
0
 70
     0
280
     1
281
     0
  0
BLOCK_RECORD
  5
218C
330
1
100
AcDbSymbolTableRecord
100
AcDbBlockTableRecord
  2
*D42
340
0
 70
     0
280
     1
281
     0
  0
BLOCK_RECORD
  5
21A0
330
1
100
AcDbSymbolTableRecord
100
AcDbBlockTableRecord
  2
*D43
340
0
 70
     0
280
     1
281
     0
  0
BLOCK_RECORD
  5
21B2
330
1
100
AcDbSymbolTableRecord
100
AcDbBlockTableRecord
  2
*D44
340
0
 70
     0
280
     1
281
     0
  0
BLOCK_RECORD
  5
21C4
330
1
100
AcDbSymbolTableRecord
100
AcDbBlockTableRecord
  2
*D45
340
0
 70
     0
280
     1
281
     0
  0
BLOCK_RECORD
  5
21D6
330
1
100
AcDbSymbolTableRecord
100
AcDbBlockTableRecord
  2
*D46
340
0
 70
     0
280
     1
281
     0
  0
BLOCK_RECORD
  5
21EB
330
1
100
AcDbSymbolTableRecord
100
AcDbBlockTableRecord
  2
*D47
340
0
 70
     0
280
     1
281
     0
  0
BLOCK_RECORD
  5
21FD
330
1
100
AcDbSymbolTableRecord
100
AcDbBlockTableRecord
  2
*D48
340
0
 70
     0
280
     1
281
     0
  0
BLOCK_RECORD
  5
220F
330
1
100
AcDbSymbolTableRecord
100
AcDbBlockTableRecord
  2
*D49
340
0
 70
     0
280
     1
281
     0
  0
BLOCK_RECORD
  5
2221
330
1
100
AcDbSymbolTableRecord
100
AcDbBlockTableRecord
  2
*D50
340
0
 70
     0
280
     1
281
     0
  0
BLOCK_RECORD
  5
2233
330
1
100
AcDbSymbolTableRecord
100
AcDbBlockTableRecord
  2
*D51
340
0
 70
     0
280
     1
281
     0
  0
ENDTAB
  0
ENDSEC
  0
SECTION
  2
BLOCKS
  0
BLOCK
  5
20
330
1F
100
AcDbEntity
  8
0
100
AcDbBlockBegin
  2
*Model_Space
 70
     0
 10
0.0
 20
0.0
 30
0.0
  3
*Model_Space
  1

  0
ENDBLK
  5
21
330
1F
100
AcDbEntity
  8
0
100
AcDbBlockEnd
  0
BLOCK
  5
185C
330
185A
100
AcDbEntity
 67
     1
  8
0
100
AcDbBlockBegin
  2
*Paper_Space
 70
     0
 10
0.0
 20
0.0
 30
0.0
  3
*Paper_Space
  1

  0
ENDBLK
  5
185D
330
185A
100
AcDbEntity
 67
     1
  8
0
100
AcDbBlockEnd
  0
BLOCK
  5
2ED
330
2E9
100
AcDbEntity
  8
0
100
AcDbBlockBegin
  2
_Open30
 70
     0
 10
0.0
 20
0.0
 30
0.0
  3
_Open30
  1

  0
LINE
  5
2EA
330
2E9
100
AcDbEntity
  8
0
  6
ByBlock
 62
     0
370
    -2
100
AcDbLine
 10
-1.0
 20
0.26794919
 30
0.0
 11
0.0
 21
0.0
 31
0.0
  0
LINE
  5
2EB
330
2E9
100
AcDbEntity
  8
0
  6
ByBlock
 62
     0
370
    -2
100
AcDbLine
 10
0.0
 20
0.0
 30
0.0
 11
-1.0
 21
-0.26794919
 31
0.0
  0
LINE
  5
2EC
330
2E9
100
AcDbEntity
  8
0
  6
ByBlock
 62
     0
370
    -2
100
AcDbLine
 10
0.0
 20
0.0
 30
0.0
 11
-1.0
 21
0.0
 31
0.0
  0
ENDBLK
  5
2EE
330
2E9
100
AcDbEntity
  8
0
100
AcDbBlockEnd
  0
BLOCK
  5
1955
330
1954
100
AcDbEntity
  8
0
100
AcDbBlockBegin
  2
*D1
 70
     1
 10
0.0
 20
0.0
 30
0.0
  3
*D1
  1

  0
LINE
  5
2F36
330
1954
100
AcDbEntity
  8
寸法線
 62
     0
440
 16777216
370
    -2
100
AcDbLine
 10
1077.5
 20
2202.5
 30
0.0
 11
872.4999999999999
 21
2202.500000000001
 31
0.0
  0
LINE
  5
2F37
330
1954
100
AcDbEntity
  8
寸法線
 62
     0
440
 16777216
370
    -2
100
AcDbLine
 10
977.5
 20
2302.5
 30
0.0
 11
872.4999999999999
 21
2302.5
 31
0.0
  0
LINE
  5
2F38
330
1954
100
AcDbEntity
  8
寸法線
 62
     0
440
 16777216
370
    -2
100
AcDbLine
 10
880.0
 20
2217.500000000001
 30
0.0
 11
880.0
 21
2287.5
 31
0.0
  0
INSERT
  5
2F39
330
1954
100
AcDbEntity
  8
寸法線
 62
     0
440
 16777216
370
    -2
100
AcDbBlockReference
  2
_Open30
 10
880.0
 20
2202.500000000001
 30
0.0
 41
15.0
 42
15.0
 43
15.0
 50
270.0
  0
INSERT
  5
2F3A
330
1954
100
AcDbEntity
  8
寸法線
 62
     0
440
 16777216
370
    -2
100
AcDbBlockReference
  2
_Open30
 10
880.0
 20
2302.5
 30
0.0
 41
15.0
 42
15.0
 43
15.0
 50
90.0
  0
MTEXT
  5
2F3B
330
1954
100
AcDbEntity
  8
寸法線
 62
     0
440
 16777216
100
AcDbMText
 10
857.4999999999997
 20
2252.5
 30
0.0
 40
30.0
 41
0.0
 46
0.0
 71
     5
 72
     1
  1
100
 11
0.0000000000000001
 21
1.0
 31
0.0
 73
     1
 44
1.0
  0
POINT
  5
2F3C
330
1954
100
AcDbEntity
  8
Defpoints
 62
     0
440
 16777216
100
AcDbPoint
 10
1085.0
 20
2202.5
 30
0.0
  0
POINT
  5
2F3D
330
1954
100
AcDbEntity
  8
Defpoints
 62
     0
440
 16777216
100
AcDbPoint
 10
985.0
 20
2302.5
 30
0.0
  0
POINT
  5
2F3E
330
1954
100
AcDbEntity
  8
Defpoints
 62
     0
440
 16777216
100
AcDbPoint
 10
880.0
 20
2302.5
 30
0.0
  0
ENDBLK
  5
1956
330
1954
100
AcDbEntity
  8
0
100
AcDbBlockEnd
  0
BLOCK
  5
1967
330
1966
100
AcDbEntity
  8
0
100
AcDbBlockBegin
  2
*D2
 70
     1
 10
0.0
 20
0.0
 30
0.0
  3
*D2
  1

  0
LINE
  5
2F3F
330
1966
100
AcDbEntity
  8
寸法線
 62
     0
440
 16777216
370
    -2
100
AcDbLine
 10
1077.5
 20
2202.5
 30
0.0
 11
872.4999999999999
 21
2202.500000000001
 31
0.0
  0
LINE
  5
2F40
330
1966
100
AcDbEntity
  8
寸法線
 62
     0
440
 16777216
370
    -2
100
AcDbLine
 10
1077.5
 20
1902.5
 30
0.0
 11
872.4999999999999
 21
1902.5
 31
0.0
  0
LINE
  5
2F41
330
1966
100
AcDbEntity
  8
寸法線
 62
     0
440
 16777216
370
    -2
100
AcDbLine
 10
880.0
 20
2187.5
 30
0.0
 11
880.0
 21
1917.5
 31
0.0
  0
INSERT
  5
2F42
330
1966
100
AcDbEntity
  8
寸法線
 62
     0
440
 16777216
370
    -2
100
AcDbBlockReference
  2
_Open30
 10
880.0
 20
2202.500000000001
 30
0.0
 41
15.0
 42
15.0
 43
15.0
 50
90.0
  0
INSERT
  5
2F43
330
1966
100
AcDbEntity
  8
寸法線
 62
     0
440
 16777216
370
    -2
100
AcDbBlockReference
  2
_Open30
 10
880.0
 20
1902.5
 30
0.0
 41
15.0
 42
15.0
 43
15.0
 50
270.0
  0
MTEXT
  5
2F44
330
1966
100
AcDbEntity
  8
寸法線
 62
     0
440
 16777216
100
AcDbMText
 10
857.4999999999997
 20
2052.500000000001
 30
0.0
 40
30.0
 41
0.0
 46
0.0
 71
     5
 72
     1
  1
300
 11
0.0000000000000001
 21
1.0
 31
0.0
 73
     1
 44
1.0
  0
POINT
  5
2F45
330
1966
100
AcDbEntity
  8
Defpoints
 62
     0
440
 16777216
100
AcDbPoint
 10
1085.0
 20
2202.5
 30
0.0
  0
POINT
  5
2F46
330
1966
100
AcDbEntity
  8
Defpoints
 62
     0
440
 16777216
100
AcDbPoint
 10
1085.0
 20
1902.5
 30
0.0
  0
POINT
  5
2F47
330
1966
100
AcDbEntity
  8
Defpoints
 62
     0
440
 16777216
100
AcDbPoint
 10
880.0
 20
1902.5
 30
0.0
  0
ENDBLK
  5
1968
330
1966
100
AcDbEntity
  8
0
100
AcDbBlockEnd
  0
BLOCK
  5
1979
330
1978
100
AcDbEntity
  8
0
100
AcDbBlockBegin
  2
*D3
 70
     1
 10
0.0
 20
0.0
 30
0.0
  3
*D3
  1

  0
LINE
  5
2F48
330
1978
100
AcDbEntity
  8
寸法線
 62
     0
440
 16777216
370
    -2
100
AcDbLine
 10
1077.5
 20
1902.5
 30
0.0
 11
872.4999999999999
 21
1902.5
 31
0.0
  0
LINE
  5
2F49
330
1978
100
AcDbEntity
  8
寸法線
 62
     0
440
 16777216
370
    -2
100
AcDbLine
 10
977.5
 20
1802.5
 30
0.0
 11
872.4999999999999
 21
1802.5
 31
0.0
  0
LINE
  5
2F4A
330
1978
100
AcDbEntity
  8
寸法線
 62
     0
440
 16777216
370
    -2
100
AcDbLine
 10
880.0
 20
1887.5
 30
0.0
 11
880.0
 21
1817.5
 31
0.0
  0
INSERT
  5
2F4B
330
1978
100
AcDbEntity
  8
寸法線
 62
     0
440
 16777216
370
    -2
100
AcDbBlockReference
  2
_Open30
 10
880.0
 20
1902.5
 30
0.0
 41
15.0
 42
15.0
 43
15.0
 50
90.0
  0
INSERT
  5
2F4C
330
1978
100
AcDbEntity
  8
寸法線
 62
     0
440
 16777216
370
    -2
100
AcDbBlockReference
  2
_Open30
 10
880.0
 20
1802.5
 30
0.0
 41
15.0
 42
15.0
 43
15.0
 50
270.0
  0
MTEXT
  5
2F4D
330
1978
100
AcDbEntity
  8
寸法線
 62
     0
440
 16777216
100
AcDbMText
 10
857.4999999999997
 20
1852.5
 30
0.0
 40
30.0
 41
0.0
 46
0.0
 71
     5
 72
     1
  1
100
 11
0.0000000000000001
 21
1.0
 31
0.0
 73
     1
 44
1.0
  0
POINT
  5
2F4E
330
1978
100
AcDbEntity
  8
Defpoints
 62
     0
440
 16777216
100
AcDbPoint
 10
1085.0
 20
1902.5
 30
0.0
  0
POINT
  5
2F4F
330
1978
100
AcDbEntity
  8
Defpoints
 62
     0
440
 16777216
100
AcDbPoint
 10
985.0
 20
1802.5
 30
0.0
  0
POINT
  5
2F50
330
1978
100
AcDbEntity
  8
Defpoints
 62
     0
440
 16777216
100
AcDbPoint
 10
880.0
 20
1802.5
 30
0.0
  0
ENDBLK
  5
197A
330
1978
100
AcDbEntity
  8
0
100
AcDbBlockEnd
  0
BLOCK
  5
198B
330
198A
100
AcDbEntity
  8
0
100
AcDbBlockBegin
  2
*D4
 70
     1
 10
0.0
 20
0.0
 30
0.0
  3
*D4
  1

  0
LINE
  5
2F51
330
198A
100
AcDbEntity
  8
寸法線
 62
     0
440
 16777216
370
    -2
100
AcDbLine
 10
977.5
 20
1802.5
 30
0.0
 11
767.4999999999999
 21
1802.5
 31
0.0
  0
LINE
  5
2F52
330
198A
100
AcDbEntity
  8
寸法線
 62
     0
440
 16777216
370
    -2
100
AcDbLine
 10
977.5
 20
2302.5
 30
0.0
 11
767.4999999999999
 21
2302.5
 31
0.0
  0
LINE
  5
2F53
330
198A
100
AcDbEntity
  8
寸法線
 62
     0
440
 16777216
370
    -2
100
AcDbLine
 10
775.0
 20
1817.5
 30
0.0
 11
775.0
 21
2287.5
 31
0.0
  0
INSERT
  5
2F54
330
198A
100
AcDbEntity
  8
寸法線
 62
     0
440
 16777216
370
    -2
100
AcDbBlockReference
  2
_Open30
 10
775.0
 20
1802.5
 30
0.0
 41
15.0
 42
15.0
 43
15.0
 50
270.0
  0
INSERT
  5
2F55
330
198A
100
AcDbEntity
  8
寸法線
 62
     0
440
 16777216
370
    -2
100
AcDbBlockReference
  2
_Open30
 10
775.0
 20
2302.5
 30
0.0
 41
15.0
 42
15.0
 43
15.0
 50
90.0
  0
MTEXT
  5
2F56
330
198A
100
AcDbEntity
  8
寸法線
 62
     0
440
 16777216
100
AcDbMText
 10
752.4999999999996
 20
2052.5
 30
0.0
 40
30.0
 41
0.0
 46
0.0
 71
     5
 72
     1
  1
500
 11
0.0000000000000001
 21
1.0
 31
0.0
 73
     1
 44
1.0
  0
POINT
  5
2F57
330
198A
100
AcDbEntity
  8
Defpoints
 62
     0
440
 16777216
100
AcDbPoint
 10
985.0
 20
1802.5
 30
0.0
  0
POINT
  5
2F58
330
198A
100
AcDbEntity
  8
Defpoints
 62
     0
440
 16777216
100
AcDbPoint
 10
985.0
 20
2302.5
 30
0.0
  0
POINT
  5
2F59
330
198A
100
AcDbEntity
  8
Defpoints
 62
     0
440
 16777216
100
AcDbPoint
 10
775.0
 20
2302.5
 30
0.0
  0
ENDBLK
  5
198C
330
198A
100
AcDbEntity
  8
0
100
AcDbBlockEnd
  0
BLOCK
  5
199D
330
199C
100
AcDbEntity
  8
0
100
AcDbBlockBegin
  2
*D5
 70
     1
 10
0.0
 20
0.0
 30
0.0
  3
*D5
  1

  0
LINE
  5
2F5A
330
199C
100
AcDbEntity
  8
寸法線
 62
     0
440
 16777216
370
    -2
100
AcDbLine
 10
1085.0
 20
2210.0
 30
0.0
 11
1085.0
 21
2415.0
 31
0.0
  0
LINE
  5
2F5B
330
199C
100
AcDbEntity
  8
寸法線
 62
     0
440
 16777216
370
    -2
100
AcDbLine
 10
985.0000000000003
 20
2310.0
 30
0.0
 11
985.0000000000003
 21
2415.0
 31
0.0
  0
LINE
  5
2F5C
330
199C
100
AcDbEntity
  8
寸法線
 62
     0
440
 16777216
370
    -2
100
AcDbLine
 10
1070.0
 20
2407.5
 30
0.0
 11
1000.0
 21
2407.5
 31
0.0
  0
INSERT
  5
2F5D
330
199C
100
AcDbEntity
  8
寸法線
 62
     0
440
 16777216
370
    -2
100
AcDbBlockReference
  2
_Open30
 10
1085.0
 20
2407.5
 30
0.0
 41
15.0
 42
15.0
 43
15.0
  0
INSERT
  5
2F5E
330
199C
100
AcDbEntity
  8
寸法線
 62
     0
440
 16777216
370
    -2
100
AcDbBlockReference
  2
_Open30
 10
985.0000000000003
 20
2407.5
 30
0.0
 41
15.0
 42
15.0
 43
15.0
 50
180.0
  0
MTEXT
  5
2F5F
330
199C
100
AcDbEntity
  8
寸法線
 62
     0
440
 16777216
100
AcDbMText
 10
1035.0
 20
2430.0
 30
0.0
 40
30.0
 41
0.0
 46
0.0
 71
     5
 72
     1
  1
100
 73
     1
 44
1.0
  0
POINT
  5
2F60
330
199C
100
AcDbEntity
  8
Defpoints
 62
     0
440
 16777216
100
AcDbPoint
 10
1085.0
 20
2202.5
 30
0.0
  0
POINT
  5
2F61
330
199C
100
AcDbEntity
  8
Defpoints
 62
     0
440
 16777216
100
AcDbPoint
 10
985.0000000000003
 20
2302.5
 30
0.0
  0
POINT
  5
2F62
330
199C
100
AcDbEntity
  8
Defpoints
 62
     0
440
 16777216
100
AcDbPoint
 10
985.0000000000003
 20
2407.5
 30
0.0
  0
ENDBLK
  5
199E
330
199C
100
AcDbEntity
  8
0
100
AcDbBlockEnd
  0
BLOCK
  5
19AF
330
19AE
100
AcDbEntity
  8
0
100
AcDbBlockBegin
  2
*D6
 70
     1
 10
0.0
 20
0.0
 30
0.0
  3
*D6
  1

  0
LINE
  5
2F63
330
19AE
100
AcDbEntity
  8
寸法線
 62
     0
440
 16777216
370
    -2
100
AcDbLine
 10
1085.0
 20
2210.0
 30
0.0
 11
1085.0
 21
2414.999999999998
 31
0.0
  0
LINE
  5
2F64
330
19AE
100
AcDbEntity
  8
寸法線
 62
     0
440
 16777216
370
    -2
100
AcDbLine
 10
1385.0
 20
2210.0
 30
0.0
 11
1385.0
 21
2414.999999999998
 31
0.0
  0
LINE
  5
2F65
330
19AE
100
AcDbEntity
  8
寸法線
 62
     0
440
 16777216
370
    -2
100
AcDbLine
 10
1100.0
 20
2407.499999999998
 30
0.0
 11
1370.0
 21
2407.499999999998
 31
0.0
  0
INSERT
  5
2F66
330
19AE
100
AcDbEntity
  8
寸法線
 62
     0
440
 16777216
370
    -2
100
AcDbBlockReference
  2
_Open30
 10
1085.0
 20
2407.499999999998
 30
0.0
 41
15.0
 42
15.0
 43
15.0
 50
180.0
  0
INSERT
  5
2F67
330
19AE
100
AcDbEntity
  8
寸法線
 62
     0
440
 16777216
370
    -2
100
AcDbBlockReference
  2
_Open30
 10
1385.0
 20
2407.499999999998
 30
0.0
 41
15.0
 42
15.0
 43
15.0
  0
MTEXT
  5
2F68
330
19AE
100
AcDbEntity
  8
寸法線
 62
     0
440
 16777216
100
AcDbMText
 10
1235.0
 20
2429.999999999998
 30
0.0
 40
30.0
 41
0.0
 46
0.0
 71
     5
 72
     1
  1
300
 73
     1
 44
1.0
  0
POINT
  5
2F69
330
19AE
100
AcDbEntity
  8
Defpoints
 62
     0
440
 16777216
100
AcDbPoint
 10
1085.0
 20
2202.5
 30
0.0
  0
POINT
  5
2F6A
330
19AE
100
AcDbEntity
  8
Defpoints
 62
     0
440
 16777216
100
AcDbPoint
 10
1385.0
 20
2202.5
 30
0.0
  0
POINT
  5
2F6B
330
19AE
100
AcDbEntity
  8
Defpoints
 62
     0
440
 16777216
100
AcDbPoint
 10
1385.0
 20
2407.499999999998
 30
0.0
  0
ENDBLK
  5
19B0
330
19AE
100
AcDbEntity
  8
0
100
AcDbBlockEnd
  0
BLOCK
  5
19C1
330
19C0
100
AcDbEntity
  8
0
100
AcDbBlockBegin
  2
*D7
 70
     1
 10
0.0
 20
0.0
 30
0.0
  3
*D7
  1

  0
LINE
  5
2F6C
330
19C0
100
AcDbEntity
  8
寸法線
 62
     0
440
 16777216
370
    -2
100
AcDbLine
 10
1385.0
 20
2209.999999999999
 30
0.0
 11
1385.0
 21
2414.999999999999
 31
0.0
  0
LINE
  5
2F6D
330
19C0
100
AcDbEntity
  8
寸法線
 62
     0
440
 16777216
370
    -2
100
AcDbLine
 10
1485.0
 20
2310.0
 30
0.0
 11
1485.0
 21
2414.999999999999
 31
0.0
  0
LINE
  5
2F6E
330
19C0
100
AcDbEntity
  8
寸法線
 62
     0
440
 16777216
370
    -2
100
AcDbLine
 10
1400.0
 20
2407.499999999999
 30
0.0
 11
1470.0
 21
2407.499999999999
 31
0.0
  0
INSERT
  5
2F6F
330
19C0
100
AcDbEntity
  8
寸法線
 62
     0
440
 16777216
370
    -2
100
AcDbBlockReference
  2
_Open30
 10
1385.0
 20
2407.499999999999
 30
0.0
 41
15.0
 42
15.0
 43
15.0
 50
180.0
  0
INSERT
  5
2F70
330
19C0
100
AcDbEntity
  8
寸法線
 62
     0
440
 16777216
370
    -2
100
AcDbBlockReference
  2
_Open30
 10
1485.0
 20
2407.499999999999
 30
0.0
 41
15.0
 42
15.0
 43
15.0
  0
MTEXT
  5
2F71
330
19C0
100
AcDbEntity
  8
寸法線
 62
     0
440
 16777216
100
AcDbMText
 10
1435.0
 20
2429.999999999999
 30
0.0
 40
30.0
 41
0.0
 46
0.0
 71
     5
 72
     1
  1
100
 73
     1
 44
1.0
  0
POINT
  5
2F72
330
19C0
100
AcDbEntity
  8
Defpoints
 62
     0
440
 16777216
100
AcDbPoint
 10
1385.0
 20
2202.5
 30
0.0
  0
POINT
  5
2F73
330
19C0
100
AcDbEntity
  8
Defpoints
 62
     0
440
 16777216
100
AcDbPoint
 10
1485.0
 20
2302.5
 30
0.0
  0
POINT
  5
2F74
330
19C0
100
AcDbEntity
  8
Defpoints
 62
     0
440
 16777216
100
AcDbPoint
 10
1485.0
 20
2407.499999999999
 30
0.0
  0
ENDBLK
  5
19C2
330
19C0
100
AcDbEntity
  8
0
100
AcDbBlockEnd
  0
BLOCK
  5
19D3
330
19D2
100
AcDbEntity
  8
0
100
AcDbBlockBegin
  2
*D8
 70
     1
 10
0.0
 20
0.0
 30
0.0
  3
*D8
  1

  0
LINE
  5
2F75
330
19D2
100
AcDbEntity
  8
寸法線
 62
     0
440
 16777216
370
    -2
100
AcDbLine
 10
1485.0
 20
2310.0
 30
0.0
 11
1485.0
 21
2520.0
 31
0.0
  0
LINE
  5
2F76
330
19D2
100
AcDbEntity
  8
寸法線
 62
     0
440
 16777216
370
    -2
100
AcDbLine
 10
985.0000000000003
 20
2310.0
 30
0.0
 11
985.0000000000003
 21
2520.0
 31
0.0
  0
LINE
  5
2F77
330
19D2
100
AcDbEntity
  8
寸法線
 62
     0
440
 16777216
370
    -2
100
AcDbLine
 10
1470.0
 20
2512.5
 30
0.0
 11
1000.0
 21
2512.5
 31
0.0
  0
INSERT
  5
2F78
330
19D2
100
AcDbEntity
  8
寸法線
 62
     0
440
 16777216
370
    -2
100
AcDbBlockReference
  2
_Open30
 10
1485.0
 20
2512.5
 30
0.0
 41
15.0
 42
15.0
 43
15.0
  0
INSERT
  5
2F79
330
19D2
100
AcDbEntity
  8
寸法線
 62
     0
440
 16777216
370
    -2
100
AcDbBlockReference
  2
_Open30
 10
985.0000000000003
 20
2512.5
 30
0.0
 41
15.0
 42
15.0
 43
15.0
 50
180.0
  0
MTEXT
  5
2F7A
330
19D2
100
AcDbEntity
  8
寸法線
 62
     0
440
 16777216
100
AcDbMText
 10
1235.0
 20
2535.0
 30
0.0
 40
30.0
 41
0.0
 46
0.0
 71
     5
 72
     1
  1
500
 73
     1
 44
1.0
  0
POINT
  5
2F7B
330
19D2
100
AcDbEntity
  8
Defpoints
 62
     0
440
 16777216
100
AcDbPoint
 10
1485.0
 20
2302.5
 30
0.0
  0
POINT
  5
2F7C
330
19D2
100
AcDbEntity
  8
Defpoints
 62
     0
440
 16777216
100
AcDbPoint
 10
985.0000000000003
 20
2302.5
 30
0.0
  0
POINT
  5
2F7D
330
19D2
100
AcDbEntity
  8
Defpoints
 62
     0
440
 16777216
100
AcDbPoint
 10
985.0000000000003
 20
2512.5
 30
0.0
  0
ENDBLK
  5
19D4
330
19D2
100
AcDbEntity
  8
0
100
AcDbBlockEnd
  0
BLOCK
  5
19E7
330
19E6
100
AcDbEntity
  8
0
100
AcDbBlockBegin
  2
*D9
 70
     1
 10
0.0
 20
0.0
 30
0.0
  3
*D9
  1

  0
LINE
  5
2F7E
330
19E6
100
AcDbEntity
  8
寸法線
 62
     0
440
 16777216
370
    -2
100
AcDbLine
 10
1422.5
 20
2202.5
 30
0.0
 11
1597.5
 21
2202.5
 31
0.0
  0
LINE
  5
2F7F
330
19E6
100
AcDbEntity
  8
寸法線
 62
     0
440
 16777216
370
    -2
100
AcDbLine
 10
1492.5
 20
2217.5
 30
0.0
 11
1597.5
 21
2217.5
 31
0.0
  0
LINE
  5
2F80
330
19E6
100
AcDbEntity
  8
寸法線
 62
     0
440
 16777216
370
    -2
100
AcDbLine
 10
1590.0
 20
2187.5
 30
0.0
 11
1590.0
 21
2172.5
 31
0.0
  0
LINE
  5
2F81
330
19E6
100
AcDbEntity
  8
寸法線
 62
     0
440
 16777216
370
    -2
100
AcDbLine
 10
1590.0
 20
2232.5
 30
0.0
 11
1590.0
 21
2298.895939086294
 31
0.0
  0
LINE
  5
2F82
330
19E6
100
AcDbEntity
  8
寸法線
 62
     0
440
 16777216
370
    -2
100
AcDbLine
 10
1590.0
 20
2202.5
 30
0.0
 11
1590.0
 21
2217.5
 31
0.0
  0
INSERT
  5
2F83
330
19E6
100
AcDbEntity
  8
寸法線
 62
     0
440
 16777216
370
    -2
100
AcDbBlockReference
  2
_Open30
 10
1590.0
 20
2202.5
 30
0.0
 41
15.0
 42
15.0
 43
15.0
 50
90.0
  0
INSERT
  5
2F84
330
19E6
100
AcDbEntity
  8
寸法線
 62
     0
440
 16777216
370
    -2
100
AcDbBlockReference
  2
_Open30
 10
1590.0
 20
2217.5
 30
0.0
 41
15.0
 42
15.0
 43
15.0
 50
270.0
  0
MTEXT
  5
2F85
330
19E6
100
AcDbEntity
  8
寸法線
 62
     0
440
 16777216
100
AcDbMText
 10
1567.5
 20
2273.197969543148
 30
0.0
 40
30.0
 41
0.0
 46
0.0
 71
     5
 72
     1
  1
15
 11
0.0000000000000001
 21
1.0
 31
0.0
 73
     1
 44
1.0
  0
POINT
  5
2F86
330
19E6
100
AcDbEntity
  8
Defpoints
 62
     0
440
 16777216
100
AcDbPoint
 10
1415.0
 20
2202.5
 30
0.0
  0
POINT
  5
2F87
330
19E6
100
AcDbEntity
  8
Defpoints
 62
     0
440
 16777216
100
AcDbPoint
 10
1485.0
 20
2217.5
 30
0.0
  0
POINT
  5
2F88
330
19E6
100
AcDbEntity
  8
Defpoints
 62
     0
440
 16777216
100
AcDbPoint
 10
1590.0
 20
2217.5
 30
0.0
  0
ENDBLK
  5
19E8
330
19E6
100
AcDbEntity
  8
0
100
AcDbBlockEnd
  0
BLOCK
  5
19FB
330
19FA
100
AcDbEntity
  8
0
100
AcDbBlockBegin
  2
*D10
 70
     1
 10
0.0
 20
0.0
 30
0.0
  3
*D10
  1

  0
LINE
  5
2F89
330
19FA
100
AcDbEntity
  8
寸法線
 62
     0
440
 16777216
370
    -2
100
AcDbLine
 10
1422.5
 20
2202.5
 30
0.0
 11
1597.5
 21
2202.5
 31
0.0
  0
LINE
  5
2F8A
330
19FA
100
AcDbEntity
  8
寸法線
 62
     0
440
 16777216
370
    -2
100
AcDbLine
 10
1422.5
 20
1902.5
 30
0.0
 11
1597.5
 21
1902.5
 31
0.0
  0
LINE
  5
2F8B
330
19FA
100
AcDbEntity
  8
寸法線
 62
     0
440
 16777216
370
    -2
100
AcDbLine
 10
1590.0
 20
2187.5
 30
0.0
 11
1590.0
 21
1917.5
 31
0.0
  0
INSERT
  5
2F8C
330
19FA
100
AcDbEntity
  8
寸法線
 62
     0
440
 16777216
370
    -2
100
AcDbBlockReference
  2
_Open30
 10
1590.0
 20
2202.5
 30
0.0
 41
15.0
 42
15.0
 43
15.0
 50
90.0
  0
INSERT
  5
2F8D
330
19FA
100
AcDbEntity
  8
寸法線
 62
     0
440
 16777216
370
    -2
100
AcDbBlockReference
  2
_Open30
 10
1590.0
 20
1902.5
 30
0.0
 41
15.0
 42
15.0
 43
15.0
 50
270.0
  0
MTEXT
  5
2F8E
330
19FA
100
AcDbEntity
  8
寸法線
 62
     0
440
 16777216
100
AcDbMText
 10
1567.499999999999
 20
2052.500000000001
 30
0.0
 40
30.0
 41
0.0
 46
0.0
 71
     5
 72
     1
  1
300
 11
0.0000000000000001
 21
1.0
 31
0.0
 73
     1
 44
1.0
  0
POINT
  5
2F8F
330
19FA
100
AcDbEntity
  8
Defpoints
 62
     0
440
 16777216
100
AcDbPoint
 10
1415.0
 20
2202.5
 30
0.0
  0
POINT
  5
2F90
330
19FA
100
AcDbEntity
  8
Defpoints
 62
     0
440
 16777216
100
AcDbPoint
 10
1415.0
 20
1902.5
 30
0.0
  0
POINT
  5
2F91
330
19FA
100
AcDbEntity
  8
Defpoints
 62
     0
440
 16777216
100
AcDbPoint
 10
1590.0
 20
1902.5
 30
0.0
  0
ENDBLK
  5
19FC
330
19FA
100
AcDbEntity
  8
0
100
AcDbBlockEnd
  0
BLOCK
  5
1A0D
330
1A0C
100
AcDbEntity
  8
0
100
AcDbBlockBegin
  2
*D11
 70
     1
 10
0.0
 20
0.0
 30
0.0
  3
*D11
  1

  0
LINE
  5
2F92
330
1A0C
100
AcDbEntity
  8
寸法線
 62
     0
440
 16777216
370
    -2
100
AcDbLine
 10
1422.5
 20
1902.5
 30
0.0
 11
1597.5
 21
1902.5
 31
0.0
  0
LINE
  5
2F93
330
1A0C
100
AcDbEntity
  8
寸法線
 62
     0
440
 16777216
370
    -2
100
AcDbLine
 10
1492.5
 20
1887.5
 30
0.0
 11
1597.5
 21
1887.5
 31
0.0
  0
LINE
  5
2F94
330
1A0C
100
AcDbEntity
  8
寸法線
 62
     0
440
 16777216
370
    -2
100
AcDbLine
 10
1590.0
 20
1917.5
 30
0.0
 11
1590.0
 21
1932.5
 31
0.0
  0
LINE
  5
2F95
330
1A0C
100
AcDbEntity
  8
寸法線
 62
     0
440
 16777216
370
    -2
100
AcDbLine
 10
1590.0
 20
1872.5
 30
0.0
 11
1590.0
 21
1806.104060913705
 31
0.0
  0
LINE
  5
2F96
330
1A0C
100
AcDbEntity
  8
寸法線
 62
     0
440
 16777216
370
    -2
100
AcDbLine
 10
1590.0
 20
1902.5
 30
0.0
 11
1590.0
 21
1887.5
 31
0.0
  0
INSERT
  5
2F97
330
1A0C
100
AcDbEntity
  8
寸法線
 62
     0
440
 16777216
370
    -2
100
AcDbBlockReference
  2
_Open30
 10
1590.0
 20
1902.5
 30
0.0
 41
15.0
 42
15.0
 43
15.0
 50
270.0
  0
INSERT
  5
2F98
330
1A0C
100
AcDbEntity
  8
寸法線
 62
     0
440
 16777216
370
    -2
100
AcDbBlockReference
  2
_Open30
 10
1590.0
 20
1887.5
 30
0.0
 41
15.0
 42
15.0
 43
15.0
 50
90.0
  0
MTEXT
  5
2F99
330
1A0C
100
AcDbEntity
  8
寸法線
 62
     0
440
 16777216
100
AcDbMText
 10
1567.499999999999
 20
1831.802030456853
 30
0.0
 40
30.0
 41
0.0
 46
0.0
 71
     5
 72
     1
  1
15
 11
0.0000000000000001
 21
1.0
 31
0.0
 73
     1
 44
1.0
  0
POINT
  5
2F9A
330
1A0C
100
AcDbEntity
  8
Defpoints
 62
     0
440
 16777216
100
AcDbPoint
 10
1415.0
 20
1902.5
 30
0.0
  0
POINT
  5
2F9B
330
1A0C
100
AcDbEntity
  8
Defpoints
 62
     0
440
 16777216
100
AcDbPoint
 10
1485.0
 20
1887.5
 30
0.0
  0
POINT
  5
2F9C
330
1A0C
100
AcDbEntity
  8
Defpoints
 62
     0
440
 16777216
100
AcDbPoint
 10
1590.0
 20
1887.5
 30
0.0
  0
ENDBLK
  5
1A0E
330
1A0C
100
AcDbEntity
  8
0
100
AcDbBlockEnd
  0
BLOCK
  5
1A21
330
1A20
100
AcDbEntity
  8
0
100
AcDbBlockBegin
  2
*D12
 70
     1
 10
0.0
 20
0.0
 30
0.0
  3
*D12
  1

  0
LINE
  5
2F9D
330
1A20
100
AcDbEntity
  8
寸法線
 62
     0
440
 16777216
370
    -2
100
AcDbLine
 10
1492.5
 20
1887.5
 30
0.0
 11
1702.5
 21
1887.5
 31
0.0
  0
LINE
  5
2F9E
330
1A20
100
AcDbEntity
  8
寸法線
 62
     0
440
 16777216
370
    -2
100
AcDbLine
 10
1492.5
 20
2217.5
 30
0.0
 11
1702.5
 21
2217.5
 31
0.0
  0
LINE
  5
2F9F
330
1A20
100
AcDbEntity
  8
寸法線
 62
     0
440
 16777216
370
    -2
100
AcDbLine
 10
1695.0
 20
1902.5
 30
0.0
 11
1695.0
 21
2202.5
 31
0.0
  0
INSERT
  5
2FA0
330
1A20
100
AcDbEntity
  8
寸法線
 62
     0
440
 16777216
370
    -2
100
AcDbBlockReference
  2
_Open30
 10
1695.0
 20
1887.5
 30
0.0
 41
15.0
 42
15.0
 43
15.0
 50
270.0
  0
INSERT
  5
2FA1
330
1A20
100
AcDbEntity
  8
寸法線
 62
     0
440
 16777216
370
    -2
100
AcDbBlockReference
  2
_Open30
 10
1695.0
 20
2217.5
 30
0.0
 41
15.0
 42
15.0
 43
15.0
 50
90.0
  0
MTEXT
  5
2FA2
330
1A20
100
AcDbEntity
  8
寸法線
 62
     0
440
 16777216
100
AcDbMText
 10
1672.5
 20
2052.500000000001
 30
0.0
 40
30.0
 41
0.0
 46
0.0
 71
     5
 72
     1
  1
330
 11
0.0000000000000001
 21
1.0
 31
0.0
 73
     1
 44
1.0
  0
POINT
  5
2FA3
330
1A20
100
AcDbEntity
  8
Defpoints
 62
     0
440
 16777216
100
AcDbPoint
 10
1485.0
 20
1887.5
 30
0.0
  0
POINT
  5
2FA4
330
1A20
100
AcDbEntity
  8
Defpoints
 62
     0
440
 16777216
100
AcDbPoint
 10
1485.0
 20
2217.5
 30
0.0
  0
POINT
  5
2FA5
330
1A20
100
AcDbEntity
  8
Defpoints
 62
     0
440
 16777216
100
AcDbPoint
 10
1695.0
 20
2217.5
 30
0.0
  0
ENDBLK
  5
1A22
330
1A20
100
AcDbEntity
  8
0
100
AcDbBlockEnd
  0
BLOCK
  5
1A33
330
1A32
100
AcDbEntity
  8
0
100
AcDbBlockBegin
  2
*D13
 70
     1
 10
0.0
 20
0.0
 30
0.0
  3
*D13
  1

  0
LINE
  5
2FA6
330
1A32
100
AcDbEntity
  8
寸法線
 62
     0
440
 16777216
370
    -2
100
AcDbLine
 10
977.5
 20
612.5
 30
0.0
 11
767.4999999999994
 21
612.5000000000002
 31
0.0
  0
LINE
  5
2FA7
330
1A32
100
AcDbEntity
  8
寸法線
 62
     0
440
 16777216
370
    -2
100
AcDbLine
 10
983.5
 20
1212.5
 30
0.0
 11
767.4999999999995
 21
1212.5
 31
0.0
  0
LINE
  5
2FA8
330
1A32
100
AcDbEntity
  8
寸法線
 62
     0
440
 16777216
370
    -2
100
AcDbLine
 10
774.9999999999994
 20
627.5000000000001
 30
0.0
 11
774.9999999999995
 21
1197.5
 31
0.0
  0
INSERT
  5
2FA9
330
1A32
100
AcDbEntity
  8
寸法線
 62
     0
440
 16777216
370
    -2
100
AcDbBlockReference
  2
_Open30
 10
774.9999999999994
 20
612.5
 30
0.0
 41
15.0
 42
15.0
 43
15.0
 50
270.0
  0
INSERT
  5
2FAA
330
1A32
100
AcDbEntity
  8
寸法線
 62
     0
440
 16777216
370
    -2
100
AcDbBlockReference
  2
_Open30
 10
774.9999999999995
 20
1212.5
 30
0.0
 41
15.0
 42
15.0
 43
15.0
 50
90.0
  0
MTEXT
  5
2FAB
330
1A32
100
AcDbEntity
  8
寸法線
 62
     0
440
 16777216
100
AcDbMText
 10
752.4999999999993
 20
912.5000000000001
 30
0.0
 40
30.0
 41
0.0
 46
0.0
 71
     5
 72
     1
  1
600
 11
0.0000000000000001
 21
1.0
 31
0.0
 73
     1
 44
1.0
  0
POINT
  5
2FAC
330
1A32
100
AcDbEntity
  8
Defpoints
 62
     0
440
 16777216
100
AcDbPoint
 10
985.0
 20
612.5
 30
0.0
  0
POINT
  5
2FAD
330
1A32
100
AcDbEntity
  8
Defpoints
 62
     0
440
 16777216
100
AcDbPoint
 10
991.0
 20
1212.5
 30
0.0
  0
POINT
  5
2FAE
330
1A32
100
AcDbEntity
  8
Defpoints
 62
     0
440
 16777216
100
AcDbPoint
 10
774.9999999999995
 20
1212.5
 30
0.0
  0
ENDBLK
  5
1A34
330
1A32
100
AcDbEntity
  8
0
100
AcDbBlockEnd
  0
BLOCK
  5
1A50
330
1A4F
100
AcDbEntity
  8
0
100
AcDbBlockBegin
  2
*D14
 70
     1
 10
0.0
 20
0.0
 30
0.0
  3
*D14
  1

  0
LINE
  5
2FAF
330
1A4F
100
AcDbEntity
  8
寸法線
 62
     0
440
 16777216
370
    -2
100
AcDbLine
 10
1084.999999999999
 20
605.0000000000001
 30
0.0
 11
1084.999999999999
 21
499.9999999999999
 31
0.0
  0
LINE
  5
2FB0
330
1A4F
100
AcDbEntity
  8
寸法線
 62
     0
440
 16777216
370
    -2
100
AcDbLine
 10
1385.0
 20
605.0
 30
0.0
 11
1385.0
 21
499.9999999999999
 31
0.0
  0
LINE
  5
2FB1
330
1A4F
100
AcDbEntity
  8
寸法線
 62
     0
440
 16777216
370
    -2
100
AcDbLine
 10
1100.0
 20
507.4999999999999
 30
0.0
 11
1370.0
 21
507.4999999999999
 31
0.0
  0
INSERT
  5
2FB2
330
1A4F
100
AcDbEntity
  8
寸法線
 62
     0
440
 16777216
370
    -2
100
AcDbBlockReference
  2
_Open30
 10
1084.999999999999
 20
507.4999999999999
 30
0.0
 41
15.0
 42
15.0
 43
15.0
 50
180.0
  0
INSERT
  5
2FB3
330
1A4F
100
AcDbEntity
  8
寸法線
 62
     0
440
 16777216
370
    -2
100
AcDbBlockReference
  2
_Open30
 10
1385.0
 20
507.4999999999999
 30
0.0
 41
15.0
 42
15.0
 43
15.0
  0
MTEXT
  5
2FB4
330
1A4F
100
AcDbEntity
  8
寸法線
 62
     0
440
 16777216
100
AcDbMText
 10
1235.0
 20
529.9999999999998
 30
0.0
 40
30.0
 41
0.0
 46
0.0
 71
     5
 72
     1
  1
300
 73
     1
 44
1.0
  0
POINT
  5
2FB5
330
1A4F
100
AcDbEntity
  8
Defpoints
 62
     0
440
 16777216
100
AcDbPoint
 10
1084.999999999999
 20
612.5
 30
0.0
  0
POINT
  5
2FB6
330
1A4F
100
AcDbEntity
  8
Defpoints
 62
     0
440
 16777216
100
AcDbPoint
 10
1385.0
 20
612.5
 30
0.0
  0
POINT
  5
2FB7
330
1A4F
100
AcDbEntity
  8
Defpoints
 62
     0
440
 16777216
100
AcDbPoint
 10
1385.0
 20
507.4999999999999
 30
0.0
  0
ENDBLK
  5
1A51
330
1A4F
100
AcDbEntity
  8
0
100
AcDbBlockEnd
  0
BLOCK
  5
1A62
330
1A61
100
AcDbEntity
  8
0
100
AcDbBlockBegin
  2
*D15
 70
     1
 10
0.0
 20
0.0
 30
0.0
  3
*D15
  1

  0
LINE
  5
2FB8
330
1A61
100
AcDbEntity
  8
寸法線
 62
     0
440
 16777216
370
    -2
100
AcDbLine
 10
1084.999999999999
 20
605.0000000000001
 30
0.0
 11
1084.999999999999
 21
500.0
 31
0.0
  0
LINE
  5
2FB9
330
1A61
100
AcDbEntity
  8
寸法線
 62
     0
440
 16777216
370
    -2
100
AcDbLine
 10
1070.0
 20
605.0000000000001
 30
0.0
 11
1070.0
 21
500.0
 31
0.0
  0
LINE
  5
2FBA
330
1A61
100
AcDbEntity
  8
寸法線
 62
     0
440
 16777216
370
    -2
100
AcDbLine
 10
1100.0
 20
507.5000000000001
 30
0.0
 11
1115.0
 21
507.5000000000001
 31
0.0
  0
LINE
  5
2FBB
330
1A61
100
AcDbEntity
  8
寸法線
 62
     0
440
 16777216
370
    -2
100
AcDbLine
 10
1055.0
 20
507.5000000000001
 30
0.0
 11
988.6040609137054
 21
507.5000000000001
 31
0.0
  0
LINE
  5
2FBC
330
1A61
100
AcDbEntity
  8
寸法線
 62
     0
440
 16777216
370
    -2
100
AcDbLine
 10
1084.999999999999
 20
507.5000000000001
 30
0.0
 11
1070.0
 21
507.5000000000001
 31
0.0
  0
INSERT
  5
2FBD
330
1A61
100
AcDbEntity
  8
寸法線
 62
     0
440
 16777216
370
    -2
100
AcDbBlockReference
  2
_Open30
 10
1084.999999999999
 20
507.5000000000001
 30
0.0
 41
15.0
 42
15.0
 43
15.0
 50
180.0
  0
INSERT
  5
2FBE
330
1A61
100
AcDbEntity
  8
寸法線
 62
     0
440
 16777216
370
    -2
100
AcDbBlockReference
  2
_Open30
 10
1070.0
 20
507.5000000000001
 30
0.0
 41
15.0
 42
15.0
 43
15.0
  0
MTEXT
  5
2FBF
330
1A61
100
AcDbEntity
  8
寸法線
 62
     0
440
 16777216
100
AcDbMText
 10
1014.302030456853
 20
530.0000000000001
 30
0.0
 40
30.0
 41
0.0
 46
0.0
 71
     5
 72
     1
  1
15
 73
     1
 44
1.0
  0
POINT
  5
2FC0
330
1A61
100
AcDbEntity
  8
Defpoints
 62
     0
440
 16777216
100
AcDbPoint
 10
1084.999999999999
 20
612.5
 30
0.0
  0
POINT
  5
2FC1
330
1A61
100
AcDbEntity
  8
Defpoints
 62
     0
440
 16777216
100
AcDbPoint
 10
1070.0
 20
612.5
 30
0.0
  0
POINT
  5
2FC2
330
1A61
100
AcDbEntity
  8
Defpoints
 62
     0
440
 16777216
100
AcDbPoint
 10
1070.0
 20
507.5000000000001
 30
0.0
  0
ENDBLK
  5
1A63
330
1A61
100
AcDbEntity
  8
0
100
AcDbBlockEnd
  0
BLOCK
  5
1A76
330
1A75
100
AcDbEntity
  8
0
100
AcDbBlockBegin
  2
*D16
 70
     1
 10
0.0
 20
0.0
 30
0.0
  3
*D16
  1

  0
LINE
  5
2FC3
330
1A75
100
AcDbEntity
  8
寸法線
 62
     0
440
 16777216
370
    -2
100
AcDbLine
 10
1385.0
 20
605.0
 30
0.0
 11
1385.0
 21
499.9999999999999
 31
0.0
  0
LINE
  5
2FC4
330
1A75
100
AcDbEntity
  8
寸法線
 62
     0
440
 16777216
370
    -2
100
AcDbLine
 10
1400.0
 20
605.0
 30
0.0
 11
1400.0
 21
499.9999999999999
 31
0.0
  0
LINE
  5
2FC5
330
1A75
100
AcDbEntity
  8
寸法線
 62
     0
440
 16777216
370
    -2
100
AcDbLine
 10
1370.0
 20
507.4999999999999
 30
0.0
 11
1355.0
 21
507.4999999999999
 31
0.0
  0
LINE
  5
2FC6
330
1A75
100
AcDbEntity
  8
寸法線
 62
     0
440
 16777216
370
    -2
100
AcDbLine
 10
1415.0
 20
507.4999999999999
 30
0.0
 11
1481.395939086294
 21
507.4999999999999
 31
0.0
  0
LINE
  5
2FC7
330
1A75
100
AcDbEntity
  8
寸法線
 62
     0
440
 16777216
370
    -2
100
AcDbLine
 10
1385.0
 20
507.4999999999999
 30
0.0
 11
1400.0
 21
507.4999999999999
 31
0.0
  0
INSERT
  5
2FC8
330
1A75
100
AcDbEntity
  8
寸法線
 62
     0
440
 16777216
370
    -2
100
AcDbBlockReference
  2
_Open30
 10
1385.0
 20
507.4999999999999
 30
0.0
 41
15.0
 42
15.0
 43
15.0
  0
INSERT
  5
2FC9
330
1A75
100
AcDbEntity
  8
寸法線
 62
     0
440
 16777216
370
    -2
100
AcDbBlockReference
  2
_Open30
 10
1400.0
 20
507.4999999999999
 30
0.0
 41
15.0
 42
15.0
 43
15.0
 50
180.0
  0
MTEXT
  5
2FCA
330
1A75
100
AcDbEntity
  8
寸法線
 62
     0
440
 16777216
100
AcDbMText
 10
1455.697969543147
 20
529.9999999999998
 30
0.0
 40
30.0
 41
0.0
 46
0.0
 71
     5
 72
     1
  1
15
 73
     1
 44
1.0
  0
POINT
  5
2FCB
330
1A75
100
AcDbEntity
  8
Defpoints
 62
     0
440
 16777216
100
AcDbPoint
 10
1385.0
 20
612.5
 30
0.0
  0
POINT
  5
2FCC
330
1A75
100
AcDbEntity
  8
Defpoints
 62
     0
440
 16777216
100
AcDbPoint
 10
1400.0
 20
612.5
 30
0.0
  0
POINT
  5
2FCD
330
1A75
100
AcDbEntity
  8
Defpoints
 62
     0
440
 16777216
100
AcDbPoint
 10
1400.0
 20
507.4999999999999
 30
0.0
  0
ENDBLK
  5
1A77
330
1A75
100
AcDbEntity
  8
0
100
AcDbBlockEnd
  0
BLOCK
  5
1A8A
330
1A89
100
AcDbEntity
  8
0
100
AcDbBlockBegin
  2
*D17
 70
     1
 10
0.0
 20
0.0
 30
0.0
  3
*D17
  1

  0
LINE
  5
2FCE
330
1A89
100
AcDbEntity
  8
寸法線
 62
     0
440
 16777216
370
    -2
100
AcDbLine
 10
1400.0
 20
605.0
 30
0.0
 11
1400.0
 21
395.0000000000001
 31
0.0
  0
LINE
  5
2FCF
330
1A89
100
AcDbEntity
  8
寸法線
 62
     0
440
 16777216
370
    -2
100
AcDbLine
 10
1070.0
 20
605.0
 30
0.0
 11
1070.0
 21
395.0000000000001
 31
0.0
  0
LINE
  5
2FD0
330
1A89
100
AcDbEntity
  8
寸法線
 62
     0
440
 16777216
370
    -2
100
AcDbLine
 10
1385.0
 20
402.5
 30
0.0
 11
1084.999999999999
 21
402.5
 31
0.0
  0
INSERT
  5
2FD1
330
1A89
100
AcDbEntity
  8
寸法線
 62
     0
440
 16777216
370
    -2
100
AcDbBlockReference
  2
_Open30
 10
1400.0
 20
402.5
 30
0.0
 41
15.0
 42
15.0
 43
15.0
  0
INSERT
  5
2FD2
330
1A89
100
AcDbEntity
  8
寸法線
 62
     0
440
 16777216
370
    -2
100
AcDbBlockReference
  2
_Open30
 10
1070.0
 20
402.5
 30
0.0
 41
15.0
 42
15.0
 43
15.0
 50
180.0
  0
MTEXT
  5
2FD3
330
1A89
100
AcDbEntity
  8
寸法線
 62
     0
440
 16777216
100
AcDbMText
 10
1235.0
 20
425.0
 30
0.0
 40
30.0
 41
0.0
 46
0.0
 71
     5
 72
     1
  1
330
 73
     1
 44
1.0
  0
POINT
  5
2FD4
330
1A89
100
AcDbEntity
  8
Defpoints
 62
     0
440
 16777216
100
AcDbPoint
 10
1400.0
 20
612.5
 30
0.0
  0
POINT
  5
2FD5
330
1A89
100
AcDbEntity
  8
Defpoints
 62
     0
440
 16777216
100
AcDbPoint
 10
1070.0
 20
612.5
 30
0.0
  0
POINT
  5
2FD6
330
1A89
100
AcDbEntity
  8
Defpoints
 62
     0
440
 16777216
100
AcDbPoint
 10
1070.0
 20
402.5
 30
0.0
  0
ENDBLK
  5
1A8B
330
1A89
100
AcDbEntity
  8
0
100
AcDbBlockEnd
  0
BLOCK
  5
1A9C
330
1A9B
100
AcDbEntity
  8
0
100
AcDbBlockBegin
  2
*D18
 70
     1
 10
0.0
 20
0.0
 30
0.0
  3
*D18
  1

  0
LINE
  5
2FD7
330
1A9B
100
AcDbEntity
  8
寸法線
 62
     0
440
 16777216
370
    -2
100
AcDbLine
 10
2525.0
 20
605.0
 30
0.0
 11
2525.0
 21
395.0
 31
0.0
  0
LINE
  5
2FD8
330
1A9B
100
AcDbEntity
  8
寸法線
 62
     0
440
 16777216
370
    -2
100
AcDbLine
 10
2425.0
 20
605.0
 30
0.0
 11
2425.0
 21
395.0
 31
0.0
  0
LINE
  5
2FD9
330
1A9B
100
AcDbEntity
  8
寸法線
 62
     0
440
 16777216
370
    -2
100
AcDbLine
 10
2510.0
 20
402.5
 30
0.0
 11
2440.0
 21
402.5
 31
0.0
  0
INSERT
  5
2FDA
330
1A9B
100
AcDbEntity
  8
寸法線
 62
     0
440
 16777216
370
    -2
100
AcDbBlockReference
  2
_Open30
 10
2525.0
 20
402.5
 30
0.0
 41
15.0
 42
15.0
 43
15.0
  0
INSERT
  5
2FDB
330
1A9B
100
AcDbEntity
  8
寸法線
 62
     0
440
 16777216
370
    -2
100
AcDbBlockReference
  2
_Open30
 10
2425.0
 20
402.5
 30
0.0
 41
15.0
 42
15.0
 43
15.0
 50
180.0
  0
MTEXT
  5
2FDC
330
1A9B
100
AcDbEntity
  8
寸法線
 62
     0
440
 16777216
100
AcDbMText
 10
2475.0
 20
425.0
 30
0.0
 40
30.0
 41
0.0
 46
0.0
 71
     5
 72
     1
  1
100
 73
     1
 44
1.0
  0
POINT
  5
2FDD
330
1A9B
100
AcDbEntity
  8
Defpoints
 62
     0
440
 16777216
100
AcDbPoint
 10
2525.0
 20
612.5
 30
0.0
  0
POINT
  5
2FDE
330
1A9B
100
AcDbEntity
  8
Defpoints
 62
     0
440
 16777216
100
AcDbPoint
 10
2425.0
 20
612.5
 30
0.0
  0
POINT
  5
2FDF
330
1A9B
100
AcDbEntity
  8
Defpoints
 62
     0
440
 16777216
100
AcDbPoint
 10
2425.0
 20
402.5
 30
0.0
  0
ENDBLK
  5
1A9D
330
1A9B
100
AcDbEntity
  8
0
100
AcDbBlockEnd
  0
BLOCK
  5
1AAE
330
1AAD
100
AcDbEntity
  8
0
100
AcDbBlockBegin
  2
*D19
 70
     1
 10
0.0
 20
0.0
 30
0.0
  3
*D19
  1

  0
LINE
  5
2FE0
330
1AAD
100
AcDbEntity
  8
寸法線
 62
     0
440
 16777216
370
    -2
100
AcDbLine
 10
2525.0
 20
605.0
 30
0.0
 11
2525.0
 21
395.0
 31
0.0
  0
LINE
  5
2FE1
330
1AAD
100
AcDbEntity
  8
寸法線
 62
     0
440
 16777216
370
    -2
100
AcDbLine
 10
2825.0
 20
605.0
 30
0.0
 11
2825.0
 21
395.0
 31
0.0
  0
LINE
  5
2FE2
330
1AAD
100
AcDbEntity
  8
寸法線
 62
     0
440
 16777216
370
    -2
100
AcDbLine
 10
2540.0
 20
402.4999999999999
 30
0.0
 11
2810.0
 21
402.4999999999999
 31
0.0
  0
INSERT
  5
2FE3
330
1AAD
100
AcDbEntity
  8
寸法線
 62
     0
440
 16777216
370
    -2
100
AcDbBlockReference
  2
_Open30
 10
2525.0
 20
402.4999999999999
 30
0.0
 41
15.0
 42
15.0
 43
15.0
 50
180.0
  0
INSERT
  5
2FE4
330
1AAD
100
AcDbEntity
  8
寸法線
 62
     0
440
 16777216
370
    -2
100
AcDbBlockReference
  2
_Open30
 10
2825.0
 20
402.4999999999999
 30
0.0
 41
15.0
 42
15.0
 43
15.0
  0
MTEXT
  5
2FE5
330
1AAD
100
AcDbEntity
  8
寸法線
 62
     0
440
 16777216
100
AcDbMText
 10
2675.0
 20
424.9999999999999
 30
0.0
 40
30.0
 41
0.0
 46
0.0
 71
     5
 72
     1
  1
300
 73
     1
 44
1.0
  0
POINT
  5
2FE6
330
1AAD
100
AcDbEntity
  8
Defpoints
 62
     0
440
 16777216
100
AcDbPoint
 10
2525.0
 20
612.5
 30
0.0
  0
POINT
  5
2FE7
330
1AAD
100
AcDbEntity
  8
Defpoints
 62
     0
440
 16777216
100
AcDbPoint
 10
2825.0
 20
612.5
 30
0.0
  0
POINT
  5
2FE8
330
1AAD
100
AcDbEntity
  8
Defpoints
 62
     0
440
 16777216
100
AcDbPoint
 10
2825.0
 20
402.4999999999999
 30
0.0
  0
ENDBLK
  5
1AAF
330
1AAD
100
AcDbEntity
  8
0
100
AcDbBlockEnd
  0
BLOCK
  5
1AC0
330
1ABF
100
AcDbEntity
  8
0
100
AcDbBlockBegin
  2
*D20
 70
     1
 10
0.0
 20
0.0
 30
0.0
  3
*D20
  1

  0
LINE
  5
2FE9
330
1ABF
100
AcDbEntity
  8
寸法線
 62
     0
440
 16777216
370
    -2
100
AcDbLine
 10
2825.0
 20
605.0
 30
0.0
 11
2825.0
 21
395.0
 31
0.0
  0
LINE
  5
2FEA
330
1ABF
100
AcDbEntity
  8
寸法線
 62
     0
440
 16777216
370
    -2
100
AcDbLine
 10
2925.0
 20
605.0000000000001
 30
0.0
 11
2925.0
 21
395.0
 31
0.0
  0
LINE
  5
2FEB
330
1ABF
100
AcDbEntity
  8
寸法線
 62
     0
440
 16777216
370
    -2
100
AcDbLine
 10
2840.0
 20
402.5
 30
0.0
 11
2910.0
 21
402.5
 31
0.0
  0
INSERT
  5
2FEC
330
1ABF
100
AcDbEntity
  8
寸法線
 62
     0
440
 16777216
370
    -2
100
AcDbBlockReference
  2
_Open30
 10
2825.0
 20
402.5
 30
0.0
 41
15.0
 42
15.0
 43
15.0
 50
180.0
  0
INSERT
  5
2FED
330
1ABF
100
AcDbEntity
  8
寸法線
 62
     0
440
 16777216
370
    -2
100
AcDbBlockReference
  2
_Open30
 10
2925.0
 20
402.5
 30
0.0
 41
15.0
 42
15.0
 43
15.0
  0
MTEXT
  5
2FEE
330
1ABF
100
AcDbEntity
  8
寸法線
 62
     0
440
 16777216
100
AcDbMText
 10
2875.0
 20
425.0
 30
0.0
 40
30.0
 41
0.0
 46
0.0
 71
     5
 72
     1
  1
100
 73
     1
 44
1.0
  0
POINT
  5
2FEF
330
1ABF
100
AcDbEntity
  8
Defpoints
 62
     0
440
 16777216
100
AcDbPoint
 10
2825.0
 20
612.5
 30
0.0
  0
POINT
  5
2FF0
330
1ABF
100
AcDbEntity
  8
Defpoints
 62
     0
440
 16777216
100
AcDbPoint
 10
2925.0
 20
612.5
 30
0.0
  0
POINT
  5
2FF1
330
1ABF
100
AcDbEntity
  8
Defpoints
 62
     0
440
 16777216
100
AcDbPoint
 10
2925.0
 20
402.5
 30
0.0
  0
ENDBLK
  5
1AC1
330
1ABF
100
AcDbEntity
  8
0
100
AcDbBlockEnd
  0
BLOCK
  5
1AD2
330
1AD1
100
AcDbEntity
  8
0
100
AcDbBlockBegin
  2
*D21
 70
     1
 10
0.0
 20
0.0
 30
0.0
  3
*D21
  1

  0
LINE
  5
2FF2
330
1AD1
100
AcDbEntity
  8
寸法線
 62
     0
440
 16777216
370
    -2
100
AcDbLine
 10
2855.0
 20
605.0000000000001
 30
0.0
 11
2855.0
 21
500.0
 31
0.0
  0
LINE
  5
2FF3
330
1AD1
100
AcDbEntity
  8
寸法線
 62
     0
440
 16777216
370
    -2
100
AcDbLine
 10
2825.0
 20
605.0000000000001
 30
0.0
 11
2825.0
 21
500.0
 31
0.0
  0
LINE
  5
2FF4
330
1AD1
100
AcDbEntity
  8
寸法線
 62
     0
440
 16777216
370
    -2
100
AcDbLine
 10
2870.0
 20
507.5000000000001
 30
0.0
 11
2885.0
 21
507.5000000000001
 31
0.0
  0
LINE
  5
2FF5
330
1AD1
100
AcDbEntity
  8
寸法線
 62
     0
440
 16777216
370
    -2
100
AcDbLine
 10
2810.0
 20
507.5000000000001
 30
0.0
 11
2740.558375634518
 21
507.5000000000001
 31
0.0
  0
LINE
  5
2FF6
330
1AD1
100
AcDbEntity
  8
寸法線
 62
     0
440
 16777216
370
    -2
100
AcDbLine
 10
2855.0
 20
507.5000000000001
 30
0.0
 11
2825.0
 21
507.5000000000001
 31
0.0
  0
INSERT
  5
2FF7
330
1AD1
100
AcDbEntity
  8
寸法線
 62
     0
440
 16777216
370
    -2
100
AcDbBlockReference
  2
_Open30
 10
2855.0
 20
507.5000000000001
 30
0.0
 41
15.0
 42
15.0
 43
15.0
 50
180.0
  0
INSERT
  5
2FF8
330
1AD1
100
AcDbEntity
  8
寸法線
 62
     0
440
 16777216
370
    -2
100
AcDbBlockReference
  2
_Open30
 10
2825.0
 20
507.5000000000001
 30
0.0
 41
15.0
 42
15.0
 43
15.0
  0
MTEXT
  5
2FF9
330
1AD1
100
AcDbEntity
  8
寸法線
 62
     0
440
 16777216
100
AcDbMText
 10
2767.779187817259
 20
530.0000000000001
 30
0.0
 40
30.0
 41
0.0
 46
0.0
 71
     5
 72
     1
  1
30
 73
     1
 44
1.0
  0
POINT
  5
2FFA
330
1AD1
100
AcDbEntity
  8
Defpoints
 62
     0
440
 16777216
100
AcDbPoint
 10
2855.0
 20
612.5
 30
0.0
  0
POINT
  5
2FFB
330
1AD1
100
AcDbEntity
  8
Defpoints
 62
     0
440
 16777216
100
AcDbPoint
 10
2825.0
 20
612.5
 30
0.0
  0
POINT
  5
2FFC
330
1AD1
100
AcDbEntity
  8
Defpoints
 62
     0
440
 16777216
100
AcDbPoint
 10
2825.0
 20
507.5000000000001
 30
0.0
  0
ENDBLK
  5
1AD3
330
1AD1
100
AcDbEntity
  8
0
100
AcDbBlockEnd
  0
BLOCK
  5
1AE6
330
1AE5
100
AcDbEntity
  8
0
100
AcDbBlockBegin
  2
*D22
 70
     1
 10
0.0
 20
0.0
 30
0.0
  3
*D22
  1

  0
LINE
  5
2FFD
330
1AE5
100
AcDbEntity
  8
寸法線
 62
     0
440
 16777216
370
    -2
100
AcDbLine
 10
2855.0
 20
605.0000000000001
 30
0.0
 11
2855.0
 21
499.9999999999991
 31
0.0
  0
LINE
  5
2FFE
330
1AE5
100
AcDbEntity
  8
寸法線
 62
     0
440
 16777216
370
    -2
100
AcDbLine
 10
2925.0
 20
605.0000000000001
 30
0.0
 11
2925.0
 21
499.9999999999991
 31
0.0
  0
LINE
  5
2FFF
330
1AE5
100
AcDbEntity
  8
寸法線
 62
     0
440
 16777216
370
    -2
100
AcDbLine
 10
2870.0
 20
507.4999999999991
 30
0.0
 11
2910.0
 21
507.4999999999991
 31
0.0
  0
INSERT
  5
3000
330
1AE5
100
AcDbEntity
  8
寸法線
 62
     0
440
 16777216
370
    -2
100
AcDbBlockReference
  2
_Open30
 10
2855.0
 20
507.4999999999991
 30
0.0
 41
15.0
 42
15.0
 43
15.0
 50
180.0
  0
INSERT
  5
3001
330
1AE5
100
AcDbEntity
  8
寸法線
 62
     0
440
 16777216
370
    -2
100
AcDbBlockReference
  2
_Open30
 10
2925.0
 20
507.4999999999991
 30
0.0
 41
15.0
 42
15.0
 43
15.0
  0
MTEXT
  5
3002
330
1AE5
100
AcDbEntity
  8
寸法線
 62
     0
440
 16777216
100
AcDbMText
 10
2890.0
 20
529.999999999999
 30
0.0
 40
30.0
 41
0.0
 46
0.0
 71
     5
 72
     1
  1
70
 73
     1
 44
1.0
  0
POINT
  5
3003
330
1AE5
100
AcDbEntity
  8
Defpoints
 62
     0
440
 16777216
100
AcDbPoint
 10
2855.0
 20
612.5
 30
0.0
  0
POINT
  5
3004
330
1AE5
100
AcDbEntity
  8
Defpoints
 62
     0
440
 16777216
100
AcDbPoint
 10
2925.0
 20
612.5
 30
0.0
  0
POINT
  5
3005
330
1AE5
100
AcDbEntity
  8
Defpoints
 62
     0
440
 16777216
100
AcDbPoint
 10
2925.0
 20
507.4999999999991
 30
0.0
  0
ENDBLK
  5
1AE7
330
1AE5
100
AcDbEntity
  8
0
100
AcDbBlockEnd
  0
BLOCK
  5
1AFC
330
1AFB
100
AcDbEntity
  8
0
100
AcDbBlockBegin
  2
*D23
 70
     1
 10
0.0
 20
0.0
 30
0.0
  3
*D23
  1

  0
LINE
  5
3006
330
1AFB
100
AcDbEntity
  8
寸法線
 62
     0
440
 16777216
370
    -2
100
AcDbLine
 10
2470.0
 20
1152.5
 30
0.0
 11
2312.5
 21
1152.5
 31
0.0
  0
LINE
  5
3007
330
1AFB
100
AcDbEntity
  8
寸法線
 62
     0
440
 16777216
370
    -2
100
AcDbLine
 10
2423.5
 20
1212.5
 30
0.0
 11
2312.5
 21
1212.5
 31
0.0
  0
LINE
  5
3008
330
1AFB
100
AcDbEntity
  8
寸法線
 62
     0
440
 16777216
370
    -2
100
AcDbLine
 10
2320.0
 20
1167.5
 30
0.0
 11
2320.0
 21
1197.5
 31
0.0
  0
INSERT
  5
3009
330
1AFB
100
AcDbEntity
  8
寸法線
 62
     0
440
 16777216
370
    -2
100
AcDbBlockReference
  2
_Open30
 10
2320.0
 20
1152.5
 30
0.0
 41
15.0
 42
15.0
 43
15.0
 50
270.0
  0
INSERT
  5
300A
330
1AFB
100
AcDbEntity
  8
寸法線
 62
     0
440
 16777216
370
    -2
100
AcDbBlockReference
  2
_Open30
 10
2320.0
 20
1212.5
 30
0.0
 41
15.0
 42
15.0
 43
15.0
 50
90.0
  0
MTEXT
  5
300B
330
1AFB
100
AcDbEntity
  8
寸法線
 62
     0
440
 16777216
100
AcDbMText
 10
2297.499999999999
 20
1182.5
 30
0.0
 40
30.0
 41
0.0
 46
0.0
 71
     5
 72
     1
  1
60
 11
0.0000000000000001
 21
1.0
 31
0.0
 73
     1
 44
1.0
  0
POINT
  5
300C
330
1AFB
100
AcDbEntity
  8
Defpoints
 62
     0
440
 16777216
100
AcDbPoint
 10
2477.5
 20
1152.5
 30
0.0
  0
POINT
  5
300D
330
1AFB
100
AcDbEntity
  8
Defpoints
 62
     0
440
 16777216
100
AcDbPoint
 10
2431.0
 20
1212.5
 30
0.0
  0
POINT
  5
300E
330
1AFB
100
AcDbEntity
  8
Defpoints
 62
     0
440
 16777216
100
AcDbPoint
 10
2320.0
 20
1212.5
 30
0.0
  0
ENDBLK
  5
1AFD
330
1AFB
100
AcDbEntity
  8
0
100
AcDbBlockEnd
  0
BLOCK
  5
1B0E
330
1B0D
100
AcDbEntity
  8
0
100
AcDbBlockBegin
  2
*D24
 70
     1
 10
0.0
 20
0.0
 30
0.0
  3
*D24
  1

  0
LINE
  5
300F
330
1B0D
100
AcDbEntity
  8
寸法線
 62
     0
440
 16777216
370
    -2
100
AcDbLine
 10
2470.0
 20
1152.5
 30
0.0
 11
2312.5
 21
1152.5
 31
0.0
  0
LINE
  5
3010
330
1B0D
100
AcDbEntity
  8
寸法線
 62
     0
440
 16777216
370
    -2
100
AcDbLine
 10
2417.5
 20
612.4999999999999
 30
0.0
 11
2312.5
 21
612.4999999999999
 31
0.0
  0
LINE
  5
3011
330
1B0D
100
AcDbEntity
  8
寸法線
 62
     0
440
 16777216
370
    -2
100
AcDbLine
 10
2320.000000000001
 20
1137.5
 30
0.0
 11
2320.0
 21
627.4999999999998
 31
0.0
  0
INSERT
  5
3012
330
1B0D
100
AcDbEntity
  8
寸法線
 62
     0
440
 16777216
370
    -2
100
AcDbBlockReference
  2
_Open30
 10
2320.000000000001
 20
1152.5
 30
0.0
 41
15.0
 42
15.0
 43
15.0
 50
90.0
  0
INSERT
  5
3013
330
1B0D
100
AcDbEntity
  8
寸法線
 62
     0
440
 16777216
370
    -2
100
AcDbBlockReference
  2
_Open30
 10
2320.0
 20
612.4999999999999
 30
0.0
 41
15.0
 42
15.0
 43
15.0
 50
270.0
  0
MTEXT
  5
3014
330
1B0D
100
AcDbEntity
  8
寸法線
 62
     0
440
 16777216
100
AcDbMText
 10
2297.5
 20
882.5000000000002
 30
0.0
 40
30.0
 41
0.0
 46
0.0
 71
     5
 72
     1
  1
540
 11
0.0000000000000001
 21
1.0
 31
0.0
 73
     1
 44
1.0
  0
POINT
  5
3015
330
1B0D
100
AcDbEntity
  8
Defpoints
 62
     0
440
 16777216
100
AcDbPoint
 10
2477.5
 20
1152.5
 30
0.0
  0
POINT
  5
3016
330
1B0D
100
AcDbEntity
  8
Defpoints
 62
     0
440
 16777216
100
AcDbPoint
 10
2425.0
 20
612.4999999999999
 30
0.0
  0
POINT
  5
3017
330
1B0D
100
AcDbEntity
  8
Defpoints
 62
     0
440
 16777216
100
AcDbPoint
 10
2320.0
 20
612.4999999999999
 30
0.0
  0
ENDBLK
  5
1B0F
330
1B0D
100
AcDbEntity
  8
0
100
AcDbBlockEnd
  0
BLOCK
  5
1B20
330
1B1F
100
AcDbEntity
  8
0
100
AcDbBlockBegin
  2
*D25
 70
     1
 10
0.0
 20
0.0
 30
0.0
  3
*D25
  1

  0
LINE
  5
3018
330
1B1F
100
AcDbEntity
  8
寸法線
 62
     0
440
 16777216
370
    -2
100
AcDbLine
 10
2417.5
 20
612.4999999999999
 30
0.0
 11
2207.5
 21
612.5
 31
0.0
  0
LINE
  5
3019
330
1B1F
100
AcDbEntity
  8
寸法線
 62
     0
440
 16777216
370
    -2
100
AcDbLine
 10
2423.5
 20
1212.5
 30
0.0
 11
2207.5
 21
1212.5
 31
0.0
  0
LINE
  5
301A
330
1B1F
100
AcDbEntity
  8
寸法線
 62
     0
440
 16777216
370
    -2
100
AcDbLine
 10
2214.999999999999
 20
627.5
 30
0.0
 11
2215.0
 21
1197.5
 31
0.0
  0
INSERT
  5
301B
330
1B1F
100
AcDbEntity
  8
寸法線
 62
     0
440
 16777216
370
    -2
100
AcDbBlockReference
  2
_Open30
 10
2214.999999999999
 20
612.5
 30
0.0
 41
15.0
 42
15.0
 43
15.0
 50
270.0
  0
INSERT
  5
301C
330
1B1F
100
AcDbEntity
  8
寸法線
 62
     0
440
 16777216
370
    -2
100
AcDbBlockReference
  2
_Open30
 10
2215.0
 20
1212.5
 30
0.0
 41
15.0
 42
15.0
 43
15.0
 50
90.0
  0
MTEXT
  5
301D
330
1B1F
100
AcDbEntity
  8
寸法線
 62
     0
440
 16777216
100
AcDbMText
 10
2192.5
 20
912.5000000000003
 30
0.0
 40
30.0
 41
0.0
 46
0.0
 71
     5
 72
     1
  1
600
 11
0.0000000000000001
 21
1.0
 31
0.0
 73
     1
 44
1.0
  0
POINT
  5
301E
330
1B1F
100
AcDbEntity
  8
Defpoints
 62
     0
440
 16777216
100
AcDbPoint
 10
2425.0
 20
612.4999999999999
 30
0.0
  0
POINT
  5
301F
330
1B1F
100
AcDbEntity
  8
Defpoints
 62
     0
440
 16777216
100
AcDbPoint
 10
2431.0
 20
1212.5
 30
0.0
  0
POINT
  5
3020
330
1B1F
100
AcDbEntity
  8
Defpoints
 62
     0
440
 16777216
100
AcDbPoint
 10
2215.0
 20
1212.5
 30
0.0
  0
ENDBLK
  5
1B21
330
1B1F
100
AcDbEntity
  8
0
100
AcDbBlockEnd
  0
BLOCK
  5
1B32
330
1B31
100
AcDbEntity
  8
0
100
AcDbBlockBegin
  2
*D26
 70
     1
 10
0.0
 20
0.0
 30
0.0
  3
*D26
  1

  0
LINE
  5
3021
330
1B31
100
AcDbEntity
  8
寸法線
 62
     0
440
 16777216
370
    -2
100
AcDbLine
 10
2932.5
 20
1112.5
 30
0.0
 11
3037.5
 21
1112.5
 31
0.0
  0
LINE
  5
3022
330
1B31
100
AcDbEntity
  8
寸法線
 62
     0
440
 16777216
370
    -2
100
AcDbLine
 10
2926.5
 20
1212.5
 30
0.0
 11
3037.5
 21
1212.5
 31
0.0
  0
LINE
  5
3023
330
1B31
100
AcDbEntity
  8
寸法線
 62
     0
440
 16777216
370
    -2
100
AcDbLine
 10
3030.0
 20
1127.5
 30
0.0
 11
3030.0
 21
1197.5
 31
0.0
  0
INSERT
  5
3024
330
1B31
100
AcDbEntity
  8
寸法線
 62
     0
440
 16777216
370
    -2
100
AcDbBlockReference
  2
_Open30
 10
3030.0
 20
1112.5
 30
0.0
 41
15.0
 42
15.0
 43
15.0
 50
270.0
  0
INSERT
  5
3025
330
1B31
100
AcDbEntity
  8
寸法線
 62
     0
440
 16777216
370
    -2
100
AcDbBlockReference
  2
_Open30
 10
3030.0
 20
1212.5
 30
0.0
 41
15.0
 42
15.0
 43
15.0
 50
90.0
  0
MTEXT
  5
3026
330
1B31
100
AcDbEntity
  8
寸法線
 62
     0
440
 16777216
100
AcDbMText
 10
3007.5
 20
1162.5
 30
0.0
 40
30.0
 41
0.0
 46
0.0
 71
     5
 72
     1
  1
100
 11
0.0000000000000001
 21
1.0
 31
0.0
 73
     1
 44
1.0
  0
POINT
  5
3027
330
1B31
100
AcDbEntity
  8
Defpoints
 62
     0
440
 16777216
100
AcDbPoint
 10
2925.0
 20
1112.5
 30
0.0
  0
POINT
  5
3028
330
1B31
100
AcDbEntity
  8
Defpoints
 62
     0
440
 16777216
100
AcDbPoint
 10
2919.0
 20
1212.5
 30
0.0
  0
POINT
  5
3029
330
1B31
100
AcDbEntity
  8
Defpoints
 62
     0
440
 16777216
100
AcDbPoint
 10
3030.0
 20
1212.5
 30
0.0
  0
ENDBLK
  5
1B33
330
1B31
100
AcDbEntity
  8
0
100
AcDbBlockEnd
  0
BLOCK
  5
1B44
330
1B43
100
AcDbEntity
  8
0
100
AcDbBlockBegin
  2
*D27
 70
     1
 10
0.0
 20
0.0
 30
0.0
  3
*D27
  1

  0
LINE
  5
302A
330
1B43
100
AcDbEntity
  8
寸法線
 62
     0
440
 16777216
370
    -2
100
AcDbLine
 10
2932.5
 20
1112.5
 30
0.0
 11
3037.5
 21
1112.5
 31
0.0
  0
LINE
  5
302B
330
1B43
100
AcDbEntity
  8
寸法線
 62
     0
440
 16777216
370
    -2
100
AcDbLine
 10
2862.5
 20
1062.5
 30
0.0
 11
3037.5
 21
1062.5
 31
0.0
  0
LINE
  5
302C
330
1B43
100
AcDbEntity
  8
寸法線
 62
     0
440
 16777216
370
    -2
100
AcDbLine
 10
3030.0
 20
1127.5
 30
0.0
 11
3030.0
 21
1142.5
 31
0.0
  0
LINE
  5
302D
330
1B43
100
AcDbEntity
  8
寸法線
 62
     0
440
 16777216
370
    -2
100
AcDbLine
 10
3030.0
 20
1047.5
 30
0.0
 11
3030.0
 21
1032.5
 31
0.0
  0
LINE
  5
302E
330
1B43
100
AcDbEntity
  8
寸法線
 62
     0
440
 16777216
370
    -2
100
AcDbLine
 10
3030.0
 20
1112.5
 30
0.0
 11
3030.0
 21
1062.5
 31
0.0
  0
INSERT
  5
302F
330
1B43
100
AcDbEntity
  8
寸法線
 62
     0
440
 16777216
370
    -2
100
AcDbBlockReference
  2
_Open30
 10
3030.0
 20
1112.5
 30
0.0
 41
15.0
 42
15.0
 43
15.0
 50
270.0
  0
INSERT
  5
3030
330
1B43
100
AcDbEntity
  8
寸法線
 62
     0
440
 16777216
370
    -2
100
AcDbBlockReference
  2
_Open30
 10
3030.0
 20
1062.5
 30
0.0
 41
15.0
 42
15.0
 43
15.0
 50
90.0
  0
MTEXT
  5
3031
330
1B43
100
AcDbEntity
  8
寸法線
 62
     0
440
 16777216
100
AcDbMText
 10
3007.5
 20
1087.5
 30
0.0
 40
30.0
 41
0.0
 46
0.0
 71
     5
 72
     1
  1
50
 11
0.0000000000000001
 21
1.0
 31
0.0
 73
     1
 44
1.0
  0
POINT
  5
3032
330
1B43
100
AcDbEntity
  8
Defpoints
 62
     0
440
 16777216
100
AcDbPoint
 10
2925.0
 20
1112.5
 30
0.0
  0
POINT
  5
3033
330
1B43
100
AcDbEntity
  8
Defpoints
 62
     0
440
 16777216
100
AcDbPoint
 10
2855.0
 20
1062.5
 30
0.0
  0
POINT
  5
3034
330
1B43
100
AcDbEntity
  8
Defpoints
 62
     0
440
 16777216
100
AcDbPoint
 10
3030.0
 20
1062.5
 30
0.0
  0
ENDBLK
  5
1B45
330
1B43
100
AcDbEntity
  8
0
100
AcDbBlockEnd
  0
BLOCK
  5
1B57
330
1B56
100
AcDbEntity
  8
0
100
AcDbBlockBegin
  2
*D28
 70
     1
 10
0.0
 20
0.0
 30
0.0
  3
*D28
  1

  0
LINE
  5
3035
330
1B56
100
AcDbEntity
  8
寸法線
 62
     0
440
 16777216
370
    -2
100
AcDbLine
 10
2862.5
 20
1062.5
 30
0.0
 11
3037.5
 21
1062.5
 31
0.0
  0
LINE
  5
3036
330
1B56
100
AcDbEntity
  8
寸法線
 62
     0
440
 16777216
370
    -2
100
AcDbLine
 10
2932.5
 20
612.5
 30
0.0
 11
3037.5
 21
612.5
 31
0.0
  0
LINE
  5
3037
330
1B56
100
AcDbEntity
  8
寸法線
 62
     0
440
 16777216
370
    -2
100
AcDbLine
 10
3030.000000000001
 20
1047.5
 30
0.0
 11
3030.0
 21
627.5000000000001
 31
0.0
  0
INSERT
  5
3038
330
1B56
100
AcDbEntity
  8
寸法線
 62
     0
440
 16777216
370
    -2
100
AcDbBlockReference
  2
_Open30
 10
3030.000000000001
 20
1062.5
 30
0.0
 41
15.0
 42
15.0
 43
15.0
 50
90.0
  0
INSERT
  5
3039
330
1B56
100
AcDbEntity
  8
寸法線
 62
     0
440
 16777216
370
    -2
100
AcDbBlockReference
  2
_Open30
 10
3030.0
 20
612.5
 30
0.0
 41
15.0
 42
15.0
 43
15.0
 50
270.0
  0
MTEXT
  5
303A
330
1B56
100
AcDbEntity
  8
寸法線
 62
     0
440
 16777216
100
AcDbMText
 10
3007.5
 20
837.5000000000005
 30
0.0
 40
30.0
 41
0.0
 46
0.0
 71
     5
 72
     1
  1
450
 11
0.0000000000000001
 21
1.0
 31
0.0
 73
     1
 44
1.0
  0
POINT
  5
303B
330
1B56
100
AcDbEntity
  8
Defpoints
 62
     0
440
 16777216
100
AcDbPoint
 10
2855.0
 20
1062.5
 30
0.0
  0
POINT
  5
303C
330
1B56
100
AcDbEntity
  8
Defpoints
 62
     0
440
 16777216
100
AcDbPoint
 10
2925.0
 20
612.5
 30
0.0
  0
POINT
  5
303D
330
1B56
100
AcDbEntity
  8
Defpoints
 62
     0
440
 16777216
100
AcDbPoint
 10
3030.0
 20
612.5
 30
0.0
  0
ENDBLK
  5
1B58
330
1B56
100
AcDbEntity
  8
0
100
AcDbBlockEnd
  0
BLOCK
  5
1B81
330
1B80
100
AcDbEntity
  8
0
100
AcDbBlockBegin
  2
*D29
 70
     1
 10
0.0
 20
0.0
 30
0.0
  3
*D29
  1

  0
LINE
  5
303E
330
1B80
100
AcDbEntity
  8
寸法線
 62
     0
440
 16777216
370
    -2
100
AcDbLine
 10
2472.5
 20
1220.0
 30
0.0
 11
2472.5
 21
1325.0
 31
0.0
  0
LINE
  5
303F
330
1B80
100
AcDbEntity
  8
寸法線
 62
     0
440
 16777216
370
    -2
100
AcDbLine
 10
2425.0
 20
1214.0
 30
0.0
 11
2425.0
 21
1325.0
 31
0.0
  0
LINE
  5
3040
330
1B80
100
AcDbEntity
  8
寸法線
 62
     0
440
 16777216
370
    -2
100
AcDbLine
 10
2457.5
 20
1317.5
 30
0.0
 11
2440.0
 21
1317.5
 31
0.0
  0
LINE
  5
3041
330
1B80
100
AcDbEntity
  8
寸法線
 62
     0
440
 16777216
370
    -2
100
AcDbLine
 10
2425.0
 20
1317.5
 30
0.0
 11
2324.796954314721
 21
1317.5
 31
0.0
  0
INSERT
  5
3042
330
1B80
100
AcDbEntity
  8
寸法線
 62
     0
440
 16777216
370
    -2
100
AcDbBlockReference
  2
_Open30
 10
2472.5
 20
1317.5
 30
0.0
 41
15.0
 42
15.0
 43
15.0
  0
INSERT
  5
3043
330
1B80
100
AcDbEntity
  8
寸法線
 62
     0
440
 16777216
370
    -2
100
AcDbBlockReference
  2
_Open30
 10
2425.0
 20
1317.5
 30
0.0
 41
15.0
 42
15.0
 43
15.0
 50
180.0
  0
MTEXT
  5
3044
330
1B80
100
AcDbEntity
  8
寸法線
 62
     0
440
 16777216
100
AcDbMText
 10
2367.39847715736
 20
1340.0
 30
0.0
 40
30.0
 41
0.0
 46
0.0
 71
     5
 72
     1
  1
47.5
 73
     1
 44
1.0
  0
POINT
  5
3045
330
1B80
100
AcDbEntity
  8
Defpoints
 62
     0
440
 16777216
100
AcDbPoint
 10
2472.5
 20
1212.5
 30
0.0
  0
POINT
  5
3046
330
1B80
100
AcDbEntity
  8
Defpoints
 62
     0
440
 16777216
100
AcDbPoint
 10
2425.0
 20
1206.5
 30
0.0
  0
POINT
  5
3047
330
1B80
100
AcDbEntity
  8
Defpoints
 62
     0
440
 16777216
100
AcDbPoint
 10
2425.0
 20
1317.5
 30
0.0
  0
ENDBLK
  5
1B82
330
1B80
100
AcDbEntity
  8
0
100
AcDbBlockEnd
  0
BLOCK
  5
1CA6
330
1CA5
100
AcDbEntity
  8
0
100
AcDbBlockBegin
  2
*D30
 70
     1
 10
0.0
 20
0.0
 30
0.0
  3
*D30
  1

  0
LINE
  5
3048
330
1CA5
100
AcDbEntity
  8
寸法線
 62
     0
440
 16777216
370
    -2
100
AcDbLine
 10
2472.5
 20
1220.0
 30
0.0
 11
2472.5
 21
1325.0
 31
0.0
  0
LINE
  5
3049
330
1CA5
100
AcDbEntity
  8
寸法線
 62
     0
440
 16777216
370
    -2
100
AcDbLine
 10
2477.5
 20
1160.0
 30
0.0
 11
2477.5
 21
1325.0
 31
0.0
  0
LINE
  5
304A
330
1CA5
100
AcDbEntity
  8
寸法線
 62
     0
440
 16777216
370
    -2
100
AcDbLine
 10
2457.5
 20
1317.5
 30
0.0
 11
2442.5
 21
1317.5
 31
0.0
  0
LINE
  5
304B
330
1CA5
100
AcDbEntity
  8
寸法線
 62
     0
440
 16777216
370
    -2
100
AcDbLine
 10
2492.5
 20
1317.5
 30
0.0
 11
2507.5
 21
1317.5
 31
0.0
  0
LINE
  5
304C
330
1CA5
100
AcDbEntity
  8
寸法線
 62
     0
440
 16777216
370
    -2
100
AcDbLine
 10
2472.5
 20
1317.5
 30
0.0
 11
2477.5
 21
1317.5
 31
0.0
  0
INSERT
  5
304D
330
1CA5
100
AcDbEntity
  8
寸法線
 62
     0
440
 16777216
370
    -2
100
AcDbBlockReference
  2
_Open30
 10
2472.5
 20
1317.5
 30
0.0
 41
15.0
 42
15.0
 43
15.0
  0
INSERT
  5
304E
330
1CA5
100
AcDbEntity
  8
寸法線
 62
     0
440
 16777216
370
    -2
100
AcDbBlockReference
  2
_Open30
 10
2477.5
 20
1317.5
 30
0.0
 41
15.0
 42
15.0
 43
15.0
 50
180.0
  0
MTEXT
  5
304F
330
1CA5
100
AcDbEntity
  8
寸法線
 62
     0
440
 16777216
100
AcDbMText
 10
2475.0
 20
1340.0
 30
0.0
 40
30.0
 41
0.0
 46
0.0
 71
     5
 72
     1
  1
5
 73
     1
 44
1.0
  0
POINT
  5
3050
330
1CA5
100
AcDbEntity
  8
Defpoints
 62
     0
440
 16777216
100
AcDbPoint
 10
2472.5
 20
1212.5
 30
0.0
  0
POINT
  5
3051
330
1CA5
100
AcDbEntity
  8
Defpoints
 62
     0
440
 16777216
100
AcDbPoint
 10
2477.5
 20
1152.5
 30
0.0
  0
POINT
  5
3052
330
1CA5
100
AcDbEntity
  8
Defpoints
 62
     0
440
 16777216
100
AcDbPoint
 10
2477.5
 20
1317.5
 30
0.0
  0
ENDBLK
  5
1CA7
330
1CA5
100
AcDbEntity
  8
0
100
AcDbBlockEnd
  0
BLOCK
  5
1CBA
330
1CB9
100
AcDbEntity
  8
0
100
AcDbBlockBegin
  2
*D31
 70
     1
 10
0.0
 20
0.0
 30
0.0
  3
*D31
  1

  0
LINE
  5
3053
330
1CB9
100
AcDbEntity
  8
寸法線
 62
     0
440
 16777216
370
    -2
100
AcDbLine
 10
2477.5
 20
1160.0
 30
0.0
 11
2477.5
 21
1325.0
 31
0.0
  0
LINE
  5
3054
330
1CB9
100
AcDbEntity
  8
寸法線
 62
     0
440
 16777216
370
    -2
100
AcDbLine
 10
2525.0
 20
1160.0
 30
0.0
 11
2525.0
 21
1325.0
 31
0.0
  0
LINE
  5
3055
330
1CB9
100
AcDbEntity
  8
寸法線
 62
     0
440
 16777216
370
    -2
100
AcDbLine
 10
2492.5
 20
1317.5
 30
0.0
 11
2510.0
 21
1317.5
 31
0.0
  0
LINE
  5
3056
330
1CB9
100
AcDbEntity
  8
寸法線
 62
     0
440
 16777216
370
    -2
100
AcDbLine
 10
2525.0
 20
1317.5
 30
0.0
 11
2625.203045685279
 21
1317.5
 31
0.0
  0
INSERT
  5
3057
330
1CB9
100
AcDbEntity
  8
寸法線
 62
     0
440
 16777216
370
    -2
100
AcDbBlockReference
  2
_Open30
 10
2477.5
 20
1317.5
 30
0.0
 41
15.0
 42
15.0
 43
15.0
 50
180.0
  0
INSERT
  5
3058
330
1CB9
100
AcDbEntity
  8
寸法線
 62
     0
440
 16777216
370
    -2
100
AcDbBlockReference
  2
_Open30
 10
2525.0
 20
1317.5
 30
0.0
 41
15.0
 42
15.0
 43
15.0
  0
MTEXT
  5
3059
330
1CB9
100
AcDbEntity
  8
寸法線
 62
     0
440
 16777216
100
AcDbMText
 10
2582.60152284264
 20
1340.0
 30
0.0
 40
30.0
 41
0.0
 46
0.0
 71
     5
 72
     1
  1
47.5
 73
     1
 44
1.0
  0
POINT
  5
305A
330
1CB9
100
AcDbEntity
  8
Defpoints
 62
     0
440
 16777216
100
AcDbPoint
 10
2477.5
 20
1152.5
 30
0.0
  0
POINT
  5
305B
330
1CB9
100
AcDbEntity
  8
Defpoints
 62
     0
440
 16777216
100
AcDbPoint
 10
2525.0
 20
1152.5
 30
0.0
  0
POINT
  5
305C
330
1CB9
100
AcDbEntity
  8
Defpoints
 62
     0
440
 16777216
100
AcDbPoint
 10
2525.0
 20
1317.5
 30
0.0
  0
ENDBLK
  5
1CBB
330
1CB9
100
AcDbEntity
  8
0
100
AcDbBlockEnd
  0
BLOCK
  5
20CD
330
20CC
100
AcDbEntity
  8
0
100
AcDbBlockBegin
  2
*D32
 70
     1
 10
0.0
 20
0.0
 30
0.0
  3
*D32
  1

  0
LINE
  5
305D
330
20CC
100
AcDbEntity
  8
寸法線
 62
     0
440
 16777216
370
    -2
100
AcDbLine
 10
2862.5
 20
2202.500000000001
 30
0.0
 11
3037.5
 21
2202.500000000001
 31
0.0
  0
LINE
  5
305E
330
20CC
100
AcDbEntity
  8
寸法線
 62
     0
440
 16777216
370
    -2
100
AcDbLine
 10
2862.5
 20
1902.500000000001
 30
0.0
 11
3037.5
 21
1902.500000000001
 31
0.0
  0
LINE
  5
305F
330
20CC
100
AcDbEntity
  8
寸法線
 62
     0
440
 16777216
370
    -2
100
AcDbLine
 10
3030.0
 20
2187.500000000001
 30
0.0
 11
3030.0
 21
1917.500000000001
 31
0.0
  0
INSERT
  5
3060
330
20CC
100
AcDbEntity
  8
寸法線
 62
     0
440
 16777216
370
    -2
100
AcDbBlockReference
  2
_Open30
 10
3030.0
 20
2202.500000000001
 30
0.0
 41
15.0
 42
15.0
 43
15.0
 50
90.0
  0
INSERT
  5
3061
330
20CC
100
AcDbEntity
  8
寸法線
 62
     0
440
 16777216
370
    -2
100
AcDbBlockReference
  2
_Open30
 10
3030.0
 20
1902.500000000001
 30
0.0
 41
15.0
 42
15.0
 43
15.0
 50
270.0
  0
MTEXT
  5
3062
330
20CC
100
AcDbEntity
  8
寸法線
 62
     0
440
 16777216
100
AcDbMText
 10
3007.5
 20
2052.500000000001
 30
0.0
 40
30.0
 41
0.0
 46
0.0
 71
     5
 72
     1
  1
300
 11
0.0000000000000001
 21
1.0
 31
0.0
 73
     1
 44
1.0
  0
POINT
  5
3063
330
20CC
100
AcDbEntity
  8
Defpoints
 62
     0
440
 16777216
100
AcDbPoint
 10
2855.0
 20
2202.500000000001
 30
0.0
  0
POINT
  5
3064
330
20CC
100
AcDbEntity
  8
Defpoints
 62
     0
440
 16777216
100
AcDbPoint
 10
2855.0
 20
1902.500000000001
 30
0.0
  0
POINT
  5
3065
330
20CC
100
AcDbEntity
  8
Defpoints
 62
     0
440
 16777216
100
AcDbPoint
 10
3030.0
 20
1902.500000000001
 30
0.0
  0
ENDBLK
  5
20CE
330
20CC
100
AcDbEntity
  8
0
100
AcDbBlockEnd
  0
BLOCK
  5
20DF
330
20DE
100
AcDbEntity
  8
0
100
AcDbBlockBegin
  2
*D33
 70
     1
 10
0.0
 20
0.0
 30
0.0
  3
*D33
  1

  0
LINE
  5
3066
330
20DE
100
AcDbEntity
  8
寸法線
 62
     0
440
 16777216
370
    -2
100
AcDbLine
 10
2862.5
 20
2202.500000000001
 30
0.0
 11
3037.5
 21
2202.500000000001
 31
0.0
  0
LINE
  5
3067
330
20DE
100
AcDbEntity
  8
寸法線
 62
     0
440
 16777216
370
    -2
100
AcDbLine
 10
2932.5
 20
2217.500000000001
 30
0.0
 11
3037.5
 21
2217.500000000001
 31
0.0
  0
LINE
  5
3068
330
20DE
100
AcDbEntity
  8
寸法線
 62
     0
440
 16777216
370
    -2
100
AcDbLine
 10
3030.0
 20
2187.5
 30
0.0
 11
3030.0
 21
2172.500000000001
 31
0.0
  0
LINE
  5
3069
330
20DE
100
AcDbEntity
  8
寸法線
 62
     0
440
 16777216
370
    -2
100
AcDbLine
 10
3030.0
 20
2232.500000000001
 30
0.0
 11
3030.0
 21
2298.895939086295
 31
0.0
  0
LINE
  5
306A
330
20DE
100
AcDbEntity
  8
寸法線
 62
     0
440
 16777216
370
    -2
100
AcDbLine
 10
3030.0
 20
2202.500000000001
 30
0.0
 11
3030.0
 21
2217.500000000001
 31
0.0
  0
INSERT
  5
306B
330
20DE
100
AcDbEntity
  8
寸法線
 62
     0
440
 16777216
370
    -2
100
AcDbBlockReference
  2
_Open30
 10
3030.0
 20
2202.500000000001
 30
0.0
 41
15.0
 42
15.0
 43
15.0
 50
90.0
  0
INSERT
  5
306C
330
20DE
100
AcDbEntity
  8
寸法線
 62
     0
440
 16777216
370
    -2
100
AcDbBlockReference
  2
_Open30
 10
3030.0
 20
2217.500000000001
 30
0.0
 41
15.0
 42
15.0
 43
15.0
 50
270.0
  0
MTEXT
  5
306D
330
20DE
100
AcDbEntity
  8
寸法線
 62
     0
440
 16777216
100
AcDbMText
 10
3007.5
 20
2273.197969543149
 30
0.0
 40
30.0
 41
0.0
 46
0.0
 71
     5
 72
     1
  1
15
 11
0.0000000000000001
 21
1.0
 31
0.0
 73
     1
 44
1.0
  0
POINT
  5
306E
330
20DE
100
AcDbEntity
  8
Defpoints
 62
     0
440
 16777216
100
AcDbPoint
 10
2855.0
 20
2202.500000000001
 30
0.0
  0
POINT
  5
306F
330
20DE
100
AcDbEntity
  8
Defpoints
 62
     0
440
 16777216
100
AcDbPoint
 10
2925.0
 20
2217.500000000001
 30
0.0
  0
POINT
  5
3070
330
20DE
100
AcDbEntity
  8
Defpoints
 62
     0
440
 16777216
100
AcDbPoint
 10
3030.0
 20
2217.500000000001
 30
0.0
  0
ENDBLK
  5
20E0
330
20DE
100
AcDbEntity
  8
0
100
AcDbBlockEnd
  0
BLOCK
  5
20F3
330
20F2
100
AcDbEntity
  8
0
100
AcDbBlockBegin
  2
*D34
 70
     1
 10
0.0
 20
0.0
 30
0.0
  3
*D34
  1

  0
LINE
  5
3071
330
20F2
100
AcDbEntity
  8
寸法線
 62
     0
440
 16777216
370
    -2
100
AcDbLine
 10
2862.5
 20
1902.500000000001
 30
0.0
 11
3037.5
 21
1902.500000000001
 31
0.0
  0
LINE
  5
3072
330
20F2
100
AcDbEntity
  8
寸法線
 62
     0
440
 16777216
370
    -2
100
AcDbLine
 10
2932.500000000001
 20
1887.5
 30
0.0
 11
3037.5
 21
1887.5
 31
0.0
  0
LINE
  5
3073
330
20F2
100
AcDbEntity
  8
寸法線
 62
     0
440
 16777216
370
    -2
100
AcDbLine
 10
3030.0
 20
1917.500000000001
 30
0.0
 11
3030.0
 21
1932.500000000001
 31
0.0
  0
LINE
  5
3074
330
20F2
100
AcDbEntity
  8
寸法線
 62
     0
440
 16777216
370
    -2
100
AcDbLine
 10
3030.0
 20
1872.5
 30
0.0
 11
3030.0
 21
1806.104060913706
 31
0.0
  0
LINE
  5
3075
330
20F2
100
AcDbEntity
  8
寸法線
 62
     0
440
 16777216
370
    -2
100
AcDbLine
 10
3030.0
 20
1902.500000000001
 30
0.0
 11
3030.0
 21
1887.5
 31
0.0
  0
INSERT
  5
3076
330
20F2
100
AcDbEntity
  8
寸法線
 62
     0
440
 16777216
370
    -2
100
AcDbBlockReference
  2
_Open30
 10
3030.0
 20
1902.500000000001
 30
0.0
 41
15.0
 42
15.0
 43
15.0
 50
270.0
  0
INSERT
  5
3077
330
20F2
100
AcDbEntity
  8
寸法線
 62
     0
440
 16777216
370
    -2
100
AcDbBlockReference
  2
_Open30
 10
3030.0
 20
1887.5
 30
0.0
 41
15.0
 42
15.0
 43
15.0
 50
90.0
  0
MTEXT
  5
3078
330
20F2
100
AcDbEntity
  8
寸法線
 62
     0
440
 16777216
100
AcDbMText
 10
3007.5
 20
1831.802030456854
 30
0.0
 40
30.0
 41
0.0
 46
0.0
 71
     5
 72
     1
  1
15
 11
0.0000000000000001
 21
1.0
 31
0.0
 73
     1
 44
1.0
  0
POINT
  5
3079
330
20F2
100
AcDbEntity
  8
Defpoints
 62
     0
440
 16777216
100
AcDbPoint
 10
2855.0
 20
1902.500000000001
 30
0.0
  0
POINT
  5
307A
330
20F2
100
AcDbEntity
  8
Defpoints
 62
     0
440
 16777216
100
AcDbPoint
 10
2925.000000000001
 20
1887.5
 30
0.0
  0
POINT
  5
307B
330
20F2
100
AcDbEntity
  8
Defpoints
 62
     0
440
 16777216
100
AcDbPoint
 10
3030.0
 20
1887.5
 30
0.0
  0
ENDBLK
  5
20F4
330
20F2
100
AcDbEntity
  8
0
100
AcDbBlockEnd
  0
BLOCK
  5
2107
330
2106
100
AcDbEntity
  8
0
100
AcDbBlockBegin
  2
*D35
 70
     1
 10
0.0
 20
0.0
 30
0.0
  3
*D35
  1

  0
LINE
  5
307C
330
2106
100
AcDbEntity
  8
寸法線
 62
     0
440
 16777216
370
    -2
100
AcDbLine
 10
2932.500000000001
 20
1887.5
 30
0.0
 11
3142.5
 21
1887.5
 31
0.0
  0
LINE
  5
307D
330
2106
100
AcDbEntity
  8
寸法線
 62
     0
440
 16777216
370
    -2
100
AcDbLine
 10
2932.5
 20
2217.500000000001
 30
0.0
 11
3142.5
 21
2217.5
 31
0.0
  0
LINE
  5
307E
330
2106
100
AcDbEntity
  8
寸法線
 62
     0
440
 16777216
370
    -2
100
AcDbLine
 10
3135.0
 20
1902.5
 30
0.0
 11
3135.0
 21
2202.5
 31
0.0
  0
INSERT
  5
307F
330
2106
100
AcDbEntity
  8
寸法線
 62
     0
440
 16777216
370
    -2
100
AcDbBlockReference
  2
_Open30
 10
3135.0
 20
1887.5
 30
0.0
 41
15.0
 42
15.0
 43
15.0
 50
270.0
  0
INSERT
  5
3080
330
2106
100
AcDbEntity
  8
寸法線
 62
     0
440
 16777216
370
    -2
100
AcDbBlockReference
  2
_Open30
 10
3135.0
 20
2217.5
 30
0.0
 41
15.0
 42
15.0
 43
15.0
 50
90.0
  0
MTEXT
  5
3081
330
2106
100
AcDbEntity
  8
寸法線
 62
     0
440
 16777216
100
AcDbMText
 10
3112.5
 20
2052.500000000001
 30
0.0
 40
30.0
 41
0.0
 46
0.0
 71
     5
 72
     1
  1
330
 11
0.0000000000000001
 21
1.0
 31
0.0
 73
     1
 44
1.0
  0
POINT
  5
3082
330
2106
100
AcDbEntity
  8
Defpoints
 62
     0
440
 16777216
100
AcDbPoint
 10
2925.000000000001
 20
1887.5
 30
0.0
  0
POINT
  5
3083
330
2106
100
AcDbEntity
  8
Defpoints
 62
     0
440
 16777216
100
AcDbPoint
 10
2925.0
 20
2217.500000000001
 30
0.0
  0
POINT
  5
3084
330
2106
100
AcDbEntity
  8
Defpoints
 62
     0
440
 16777216
100
AcDbPoint
 10
3135.0
 20
2217.5
 30
0.0
  0
ENDBLK
  5
2108
330
2106
100
AcDbEntity
  8
0
100
AcDbBlockEnd
  0
BLOCK
  5
211A
330
2119
100
AcDbEntity
  8
0
100
AcDbBlockBegin
  2
*D36
 70
     1
 10
0.0
 20
0.0
 30
0.0
  3
*D36
  1

  0
LINE
  5
3085
330
2119
100
AcDbEntity
  8
寸法線
 62
     0
440
 16777216
370
    -2
100
AcDbLine
 10
2667.5
 20
1872.500000000001
 30
0.0
 11
2592.5
 21
1872.500000000001
 31
0.0
  0
LINE
  5
3086
330
2119
100
AcDbEntity
  8
寸法線
 62
     0
440
 16777216
370
    -2
100
AcDbLine
 10
2667.5
 20
1902.5
 30
0.0
 11
2592.5
 21
1902.5
 31
0.0
  0
LINE
  5
3087
330
2119
100
AcDbEntity
  8
寸法線
 62
     0
440
 16777216
370
    -2
100
AcDbLine
 10
2600.0
 20
1857.5
 30
0.0
 11
2600.0
 21
1842.500000000001
 31
0.0
  0
LINE
  5
3088
330
2119
100
AcDbEntity
  8
寸法線
 62
     0
440
 16777216
370
    -2
100
AcDbLine
 10
2600.0
 20
1917.500000000001
 30
0.0
 11
2600.0
 21
1986.941624365483
 31
0.0
  0
LINE
  5
3089
330
2119
100
AcDbEntity
  8
寸法線
 62
     0
440
 16777216
370
    -2
100
AcDbLine
 10
2600.0
 20
1872.500000000001
 30
0.0
 11
2600.0
 21
1902.5
 31
0.0
  0
INSERT
  5
308A
330
2119
100
AcDbEntity
  8
寸法線
 62
     0
440
 16777216
370
    -2
100
AcDbBlockReference
  2
_Open30
 10
2600.0
 20
1872.500000000001
 30
0.0
 41
15.0
 42
15.0
 43
15.0
 50
90.0
  0
INSERT
  5
308B
330
2119
100
AcDbEntity
  8
寸法線
 62
     0
440
 16777216
370
    -2
100
AcDbBlockReference
  2
_Open30
 10
2600.0
 20
1902.5
 30
0.0
 41
15.0
 42
15.0
 43
15.0
 50
270.0
  0
MTEXT
  5
308C
330
2119
100
AcDbEntity
  8
寸法線
 62
     0
440
 16777216
100
AcDbMText
 10
2577.5
 20
1959.720812182742
 30
0.0
 40
30.0
 41
0.0
 46
0.0
 71
     5
 72
     1
  1
30
 11
0.0000000000000001
 21
1.0
 31
0.0
 73
     1
 44
1.0
  0
POINT
  5
308D
330
2119
100
AcDbEntity
  8
Defpoints
 62
     0
440
 16777216
100
AcDbPoint
 10
2675.0
 20
1872.500000000001
 30
0.0
  0
POINT
  5
308E
330
2119
100
AcDbEntity
  8
Defpoints
 62
     0
440
 16777216
100
AcDbPoint
 10
2675.0
 20
1902.5
 30
0.0
  0
POINT
  5
308F
330
2119
100
AcDbEntity
  8
Defpoints
 62
     0
440
 16777216
100
AcDbPoint
 10
2600.0
 20
1902.5
 30
0.0
  0
ENDBLK
  5
211B
330
2119
100
AcDbEntity
  8
0
100
AcDbBlockEnd
  0
BLOCK
  5
212E
330
212D
100
AcDbEntity
  8
0
100
AcDbBlockBegin
  2
*D37
 70
     1
 10
0.0
 20
0.0
 30
0.0
  3
*D37
  1

  0
LINE
  5
3090
330
212D
100
AcDbEntity
  8
寸法線
 62
     0
440
 16777216
370
    -2
100
AcDbLine
 10
2667.5
 20
1872.500000000001
 30
0.0
 11
2592.5
 21
1872.500000000001
 31
0.0
  0
LINE
  5
3091
330
212D
100
AcDbEntity
  8
寸法線
 62
     0
440
 16777216
370
    -2
100
AcDbLine
 10
2667.5
 20
1802.5
 30
0.0
 11
2592.5
 21
1802.5
 31
0.0
  0
LINE
  5
3092
330
212D
100
AcDbEntity
  8
寸法線
 62
     0
440
 16777216
370
    -2
100
AcDbLine
 10
2600.0
 20
1857.5
 30
0.0
 11
2600.0
 21
1817.5
 31
0.0
  0
INSERT
  5
3093
330
212D
100
AcDbEntity
  8
寸法線
 62
     0
440
 16777216
370
    -2
100
AcDbBlockReference
  2
_Open30
 10
2600.0
 20
1872.500000000001
 30
0.0
 41
15.0
 42
15.0
 43
15.0
 50
90.0
  0
INSERT
  5
3094
330
212D
100
AcDbEntity
  8
寸法線
 62
     0
440
 16777216
370
    -2
100
AcDbBlockReference
  2
_Open30
 10
2600.0
 20
1802.5
 30
0.0
 41
15.0
 42
15.0
 43
15.0
 50
270.0
  0
MTEXT
  5
3095
330
212D
100
AcDbEntity
  8
寸法線
 62
     0
440
 16777216
100
AcDbMText
 10
2577.5
 20
1837.500000000001
 30
0.0
 40
30.0
 41
0.0
 46
0.0
 71
     5
 72
     1
  1
70
 11
0.0000000000000001
 21
1.0
 31
0.0
 73
     1
 44
1.0
  0
POINT
  5
3096
330
212D
100
AcDbEntity
  8
Defpoints
 62
     0
440
 16777216
100
AcDbPoint
 10
2675.0
 20
1872.500000000001
 30
0.0
  0
POINT
  5
3097
330
212D
100
AcDbEntity
  8
Defpoints
 62
     0
440
 16777216
100
AcDbPoint
 10
2675.0
 20
1802.5
 30
0.0
  0
POINT
  5
3098
330
212D
100
AcDbEntity
  8
Defpoints
 62
     0
440
 16777216
100
AcDbPoint
 10
2600.0
 20
1802.5
 30
0.0
  0
ENDBLK
  5
212F
330
212D
100
AcDbEntity
  8
0
100
AcDbBlockEnd
  0
BLOCK
  5
2141
330
2140
100
AcDbEntity
  8
0
100
AcDbBlockBegin
  2
*D38
 70
     1
 10
0.0
 20
0.0
 30
0.0
  3
*D38
  1

  0
LINE
  5
3099
330
2140
100
AcDbEntity
  8
寸法線
 62
     0
440
 16777216
370
    -2
100
AcDbLine
 10
2495.000000000001
 20
2060.0
 30
0.0
 11
2495.000000000001
 21
2135.000000000002
 31
0.0
  0
LINE
  5
309A
330
2140
100
AcDbEntity
  8
寸法線
 62
     0
440
 16777216
370
    -2
100
AcDbLine
 10
2525.0
 20
2060.0
 30
0.0
 11
2525.0
 21
2135.000000000002
 31
0.0
  0
LINE
  5
309B
330
2140
100
AcDbEntity
  8
寸法線
 62
     0
440
 16777216
370
    -2
100
AcDbLine
 10
2480.0
 20
2127.500000000001
 30
0.0
 11
2465.000000000001
 21
2127.500000000001
 31
0.0
  0
LINE
  5
309C
330
2140
100
AcDbEntity
  8
寸法線
 62
     0
440
 16777216
370
    -2
100
AcDbLine
 10
2540.000000000001
 20
2127.500000000001
 30
0.0
 11
2609.441624365483
 21
2127.500000000001
 31
0.0
  0
LINE
  5
309D
330
2140
100
AcDbEntity
  8
寸法線
 62
     0
440
 16777216
370
    -2
100
AcDbLine
 10
2495.000000000001
 20
2127.500000000001
 30
0.0
 11
2525.0
 21
2127.500000000001
 31
0.0
  0
INSERT
  5
309E
330
2140
100
AcDbEntity
  8
寸法線
 62
     0
440
 16777216
370
    -2
100
AcDbBlockReference
  2
_Open30
 10
2495.000000000001
 20
2127.500000000001
 30
0.0
 41
15.0
 42
15.0
 43
15.0
  0
INSERT
  5
309F
330
2140
100
AcDbEntity
  8
寸法線
 62
     0
440
 16777216
370
    -2
100
AcDbBlockReference
  2
_Open30
 10
2525.0
 20
2127.500000000001
 30
0.0
 41
15.0
 42
15.0
 43
15.0
 50
180.0
  0
MTEXT
  5
30A0
330
2140
100
AcDbEntity
  8
寸法線
 62
     0
440
 16777216
100
AcDbMText
 10
2582.220812182742
 20
2150.000000000002
 30
0.0
 40
30.0
 41
0.0
 46
0.0
 71
     5
 72
     1
  1
30
 73
     1
 44
1.0
  0
POINT
  5
30A1
330
2140
100
AcDbEntity
  8
Defpoints
 62
     0
440
 16777216
100
AcDbPoint
 10
2495.000000000001
 20
2052.500000000001
 30
0.0
  0
POINT
  5
30A2
330
2140
100
AcDbEntity
  8
Defpoints
 62
     0
440
 16777216
100
AcDbPoint
 10
2525.0
 20
2052.500000000001
 30
0.0
  0
POINT
  5
30A3
330
2140
100
AcDbEntity
  8
Defpoints
 62
     0
440
 16777216
100
AcDbPoint
 10
2525.0
 20
2127.500000000001
 30
0.0
  0
ENDBLK
  5
2142
330
2140
100
AcDbEntity
  8
0
100
AcDbBlockEnd
  0
BLOCK
  5
2155
330
2154
100
AcDbEntity
  8
0
100
AcDbBlockBegin
  2
*D39
 70
     1
 10
0.0
 20
0.0
 30
0.0
  3
*D39
  1

  0
LINE
  5
30A4
330
2154
100
AcDbEntity
  8
寸法線
 62
     0
440
 16777216
370
    -2
100
AcDbLine
 10
2495.000000000001
 20
2060.0
 30
0.0
 11
2495.000000000001
 21
2135.000000000002
 31
0.0
  0
LINE
  5
30A5
330
2154
100
AcDbEntity
  8
寸法線
 62
     0
440
 16777216
370
    -2
100
AcDbLine
 10
2425.0
 20
2060.0
 30
0.0
 11
2425.0
 21
2135.000000000002
 31
0.0
  0
LINE
  5
30A6
330
2154
100
AcDbEntity
  8
寸法線
 62
     0
440
 16777216
370
    -2
100
AcDbLine
 10
2480.0
 20
2127.500000000001
 30
0.0
 11
2440.0
 21
2127.500000000001
 31
0.0
  0
INSERT
  5
30A7
330
2154
100
AcDbEntity
  8
寸法線
 62
     0
440
 16777216
370
    -2
100
AcDbBlockReference
  2
_Open30
 10
2495.000000000001
 20
2127.500000000001
 30
0.0
 41
15.0
 42
15.0
 43
15.0
  0
INSERT
  5
30A8
330
2154
100
AcDbEntity
  8
寸法線
 62
     0
440
 16777216
370
    -2
100
AcDbBlockReference
  2
_Open30
 10
2425.0
 20
2127.500000000001
 30
0.0
 41
15.0
 42
15.0
 43
15.0
 50
180.0
  0
MTEXT
  5
30A9
330
2154
100
AcDbEntity
  8
寸法線
 62
     0
440
 16777216
100
AcDbMText
 10
2460.0
 20
2150.000000000002
 30
0.0
 40
30.0
 41
0.0
 46
0.0
 71
     5
 72
     1
  1
70
 73
     1
 44
1.0
  0
POINT
  5
30AA
330
2154
100
AcDbEntity
  8
Defpoints
 62
     0
440
 16777216
100
AcDbPoint
 10
2495.000000000001
 20
2052.500000000001
 30
0.0
  0
POINT
  5
30AB
330
2154
100
AcDbEntity
  8
Defpoints
 62
     0
440
 16777216
100
AcDbPoint
 10
2425.0
 20
2052.500000000001
 30
0.0
  0
POINT
  5
30AC
330
2154
100
AcDbEntity
  8
Defpoints
 62
     0
440
 16777216
100
AcDbPoint
 10
2425.0
 20
2127.500000000001
 30
0.0
  0
ENDBLK
  5
2156
330
2154
100
AcDbEntity
  8
0
100
AcDbBlockEnd
  0
BLOCK
  5
2167
330
2166
100
AcDbEntity
  8
0
100
AcDbBlockBegin
  2
*D40
 70
     1
 10
0.0
 20
0.0
 30
0.0
  3
*D40
  1

  0
LINE
  5
30AD
330
2166
100
AcDbEntity
  8
寸法線
 62
     0
440
 16777216
370
    -2
100
AcDbLine
 10
2682.5
 20
2232.500000000001
 30
0.0
 11
2757.499999999998
 21
2232.500000000001
 31
0.0
  0
LINE
  5
30AE
330
2166
100
AcDbEntity
  8
寸法線
 62
     0
440
 16777216
370
    -2
100
AcDbLine
 10
2682.5
 20
2202.500000000001
 30
0.0
 11
2757.499999999998
 21
2202.500000000001
 31
0.0
  0
LINE
  5
30AF
330
2166
100
AcDbEntity
  8
寸法線
 62
     0
440
 16777216
370
    -2
100
AcDbLine
 10
2749.999999999998
 20
2247.5
 30
0.0
 11
2749.999999999998
 21
2262.500000000001
 31
0.0
  0
LINE
  5
30B0
330
2166
100
AcDbEntity
  8
寸法線
 62
     0
440
 16777216
370
    -2
100
AcDbLine
 10
2749.999999999998
 20
2187.500000000001
 30
0.0
 11
2749.999999999998
 21
2118.058375634519
 31
0.0
  0
LINE
  5
30B1
330
2166
100
AcDbEntity
  8
寸法線
 62
     0
440
 16777216
370
    -2
100
AcDbLine
 10
2749.999999999998
 20
2232.500000000001
 30
0.0
 11
2749.999999999998
 21
2202.500000000001
 31
0.0
  0
INSERT
  5
30B2
330
2166
100
AcDbEntity
  8
寸法線
 62
     0
440
 16777216
370
    -2
100
AcDbBlockReference
  2
_Open30
 10
2749.999999999998
 20
2232.500000000001
 30
0.0
 41
15.0
 42
15.0
 43
15.0
 50
270.0
  0
INSERT
  5
30B3
330
2166
100
AcDbEntity
  8
寸法線
 62
     0
440
 16777216
370
    -2
100
AcDbBlockReference
  2
_Open30
 10
2749.999999999998
 20
2202.500000000001
 30
0.0
 41
15.0
 42
15.0
 43
15.0
 50
90.0
  0
MTEXT
  5
30B4
330
2166
100
AcDbEntity
  8
寸法線
 62
     0
440
 16777216
100
AcDbMText
 10
2727.499999999998
 20
2145.27918781726
 30
0.0
 40
30.0
 41
0.0
 46
0.0
 71
     5
 72
     1
  1
30
 11
0.0000000000000001
 21
1.0
 31
0.0
 73
     1
 44
1.0
  0
POINT
  5
30B5
330
2166
100
AcDbEntity
  8
Defpoints
 62
     0
440
 16777216
100
AcDbPoint
 10
2675.0
 20
2232.500000000001
 30
0.0
  0
POINT
  5
30B6
330
2166
100
AcDbEntity
  8
Defpoints
 62
     0
440
 16777216
100
AcDbPoint
 10
2675.0
 20
2202.500000000001
 30
0.0
  0
POINT
  5
30B7
330
2166
100
AcDbEntity
  8
Defpoints
 62
     0
440
 16777216
100
AcDbPoint
 10
2749.999999999998
 20
2202.500000000001
 30
0.0
  0
ENDBLK
  5
2168
330
2166
100
AcDbEntity
  8
0
100
AcDbBlockEnd
  0
BLOCK
  5
217B
330
217A
100
AcDbEntity
  8
0
100
AcDbBlockBegin
  2
*D41
 70
     1
 10
0.0
 20
0.0
 30
0.0
  3
*D41
  1

  0
LINE
  5
30B8
330
217A
100
AcDbEntity
  8
寸法線
 62
     0
440
 16777216
370
    -2
100
AcDbLine
 10
2682.5
 20
2232.500000000001
 30
0.0
 11
2757.499999999998
 21
2232.500000000001
 31
0.0
  0
LINE
  5
30B9
330
217A
100
AcDbEntity
  8
寸法線
 62
     0
440
 16777216
370
    -2
100
AcDbLine
 10
2682.5
 20
2302.500000000001
 30
0.0
 11
2757.499999999998
 21
2302.500000000001
 31
0.0
  0
LINE
  5
30BA
330
217A
100
AcDbEntity
  8
寸法線
 62
     0
440
 16777216
370
    -2
100
AcDbLine
 10
2749.999999999998
 20
2247.5
 30
0.0
 11
2749.999999999998
 21
2287.5
 31
0.0
  0
INSERT
  5
30BB
330
217A
100
AcDbEntity
  8
寸法線
 62
     0
440
 16777216
370
    -2
100
AcDbBlockReference
  2
_Open30
 10
2749.999999999998
 20
2232.500000000001
 30
0.0
 41
15.0
 42
15.0
 43
15.0
 50
270.0
  0
INSERT
  5
30BC
330
217A
100
AcDbEntity
  8
寸法線
 62
     0
440
 16777216
370
    -2
100
AcDbBlockReference
  2
_Open30
 10
2749.999999999998
 20
2302.500000000001
 30
0.0
 41
15.0
 42
15.0
 43
15.0
 50
90.0
  0
MTEXT
  5
30BD
330
217A
100
AcDbEntity
  8
寸法線
 62
     0
440
 16777216
100
AcDbMText
 10
2727.499999999998
 20
2267.500000000001
 30
0.0
 40
30.0
 41
0.0
 46
0.0
 71
     5
 72
     1
  1
70
 11
0.0000000000000001
 21
1.0
 31
0.0
 73
     1
 44
1.0
  0
POINT
  5
30BE
330
217A
100
AcDbEntity
  8
Defpoints
 62
     0
440
 16777216
100
AcDbPoint
 10
2675.0
 20
2232.500000000001
 30
0.0
  0
POINT
  5
30BF
330
217A
100
AcDbEntity
  8
Defpoints
 62
     0
440
 16777216
100
AcDbPoint
 10
2675.0
 20
2302.500000000001
 30
0.0
  0
POINT
  5
30C0
330
217A
100
AcDbEntity
  8
Defpoints
 62
     0
440
 16777216
100
AcDbPoint
 10
2749.999999999998
 20
2302.500000000001
 30
0.0
  0
ENDBLK
  5
217C
330
217A
100
AcDbEntity
  8
0
100
AcDbBlockEnd
  0
BLOCK
  5
218D
330
218C
100
AcDbEntity
  8
0
100
AcDbBlockBegin
  2
*D42
 70
     1
 10
0.0
 20
0.0
 30
0.0
  3
*D42
  1

  0
LINE
  5
30C1
330
218C
100
AcDbEntity
  8
寸法線
 62
     0
440
 16777216
370
    -2
100
AcDbLine
 10
2855.0
 20
2045.000000000001
 30
0.0
 11
2855.0
 21
1970.0
 31
0.0
  0
LINE
  5
30C2
330
218C
100
AcDbEntity
  8
寸法線
 62
     0
440
 16777216
370
    -2
100
AcDbLine
 10
2825.0
 20
2045.000000000001
 30
0.0
 11
2825.0
 21
1970.0
 31
0.0
  0
LINE
  5
30C3
330
218C
100
AcDbEntity
  8
寸法線
 62
     0
440
 16777216
370
    -2
100
AcDbLine
 10
2870.0
 20
1977.5
 30
0.0
 11
2885.0
 21
1977.5
 31
0.0
  0
LINE
  5
30C4
330
218C
100
AcDbEntity
  8
寸法線
 62
     0
440
 16777216
370
    -2
100
AcDbLine
 10
2810.0
 20
1977.5
 30
0.0
 11
2740.558375634518
 21
1977.5
 31
0.0
  0
LINE
  5
30C5
330
218C
100
AcDbEntity
  8
寸法線
 62
     0
440
 16777216
370
    -2
100
AcDbLine
 10
2855.0
 20
1977.5
 30
0.0
 11
2825.0
 21
1977.5
 31
0.0
  0
INSERT
  5
30C6
330
218C
100
AcDbEntity
  8
寸法線
 62
     0
440
 16777216
370
    -2
100
AcDbBlockReference
  2
_Open30
 10
2855.0
 20
1977.5
 30
0.0
 41
15.0
 42
15.0
 43
15.0
 50
180.0
  0
INSERT
  5
30C7
330
218C
100
AcDbEntity
  8
寸法線
 62
     0
440
 16777216
370
    -2
100
AcDbBlockReference
  2
_Open30
 10
2825.0
 20
1977.5
 30
0.0
 41
15.0
 42
15.0
 43
15.0
  0
MTEXT
  5
30C8
330
218C
100
AcDbEntity
  8
寸法線
 62
     0
440
 16777216
100
AcDbMText
 10
2767.779187817259
 20
2000.0
 30
0.0
 40
30.0
 41
0.0
 46
0.0
 71
     5
 72
     1
  1
30
 73
     1
 44
1.0
  0
POINT
  5
30C9
330
218C
100
AcDbEntity
  8
Defpoints
 62
     0
440
 16777216
100
AcDbPoint
 10
2855.0
 20
2052.500000000001
 30
0.0
  0
POINT
  5
30CA
330
218C
100
AcDbEntity
  8
Defpoints
 62
     0
440
 16777216
100
AcDbPoint
 10
2825.0
 20
2052.500000000001
 30
0.0
  0
POINT
  5
30CB
330
218C
100
AcDbEntity
  8
Defpoints
 62
     0
440
 16777216
100
AcDbPoint
 10
2825.0
 20
1977.5
 30
0.0
  0
ENDBLK
  5
218E
330
218C
100
AcDbEntity
  8
0
100
AcDbBlockEnd
  0
BLOCK
  5
21A1
330
21A0
100
AcDbEntity
  8
0
100
AcDbBlockBegin
  2
*D43
 70
     1
 10
0.0
 20
0.0
 30
0.0
  3
*D43
  1

  0
LINE
  5
30CC
330
21A0
100
AcDbEntity
  8
寸法線
 62
     0
440
 16777216
370
    -2
100
AcDbLine
 10
2855.0
 20
2045.000000000001
 30
0.0
 11
2855.0
 21
1970.0
 31
0.0
  0
LINE
  5
30CD
330
21A0
100
AcDbEntity
  8
寸法線
 62
     0
440
 16777216
370
    -2
100
AcDbLine
 10
2925.0
 20
2045.000000000001
 30
0.0
 11
2925.0
 21
1970.0
 31
0.0
  0
LINE
  5
30CE
330
21A0
100
AcDbEntity
  8
寸法線
 62
     0
440
 16777216
370
    -2
100
AcDbLine
 10
2870.0
 20
1977.5
 30
0.0
 11
2910.0
 21
1977.5
 31
0.0
  0
INSERT
  5
30CF
330
21A0
100
AcDbEntity
  8
寸法線
 62
     0
440
 16777216
370
    -2
100
AcDbBlockReference
  2
_Open30
 10
2855.0
 20
1977.5
 30
0.0
 41
15.0
 42
15.0
 43
15.0
 50
180.0
  0
INSERT
  5
30D0
330
21A0
100
AcDbEntity
  8
寸法線
 62
     0
440
 16777216
370
    -2
100
AcDbBlockReference
  2
_Open30
 10
2925.0
 20
1977.5
 30
0.0
 41
15.0
 42
15.0
 43
15.0
  0
MTEXT
  5
30D1
330
21A0
100
AcDbEntity
  8
寸法線
 62
     0
440
 16777216
100
AcDbMText
 10
2890.0
 20
2000.0
 30
0.0
 40
30.0
 41
0.0
 46
0.0
 71
     5
 72
     1
  1
70
 73
     1
 44
1.0
  0
POINT
  5
30D2
330
21A0
100
AcDbEntity
  8
Defpoints
 62
     0
440
 16777216
100
AcDbPoint
 10
2855.0
 20
2052.500000000001
 30
0.0
  0
POINT
  5
30D3
330
21A0
100
AcDbEntity
  8
Defpoints
 62
     0
440
 16777216
100
AcDbPoint
 10
2925.0
 20
2052.500000000001
 30
0.0
  0
POINT
  5
30D4
330
21A0
100
AcDbEntity
  8
Defpoints
 62
     0
440
 16777216
100
AcDbPoint
 10
2925.0
 20
1977.5
 30
0.0
  0
ENDBLK
  5
21A2
330
21A0
100
AcDbEntity
  8
0
100
AcDbBlockEnd
  0
BLOCK
  5
21B3
330
21B2
100
AcDbEntity
  8
0
100
AcDbBlockBegin
  2
*D44
 70
     1
 10
0.0
 20
0.0
 30
0.0
  3
*D44
  1

  0
LINE
  5
30D5
330
21B2
100
AcDbEntity
  8
寸法線
 62
     0
440
 16777216
370
    -2
100
AcDbLine
 10
2517.5
 20
1902.5
 30
0.0
 11
2312.5
 21
1902.5
 31
0.0
  0
LINE
  5
30D6
330
21B2
100
AcDbEntity
  8
寸法線
 62
     0
440
 16777216
370
    -2
100
AcDbLine
 10
2417.5
 20
1802.5
 30
0.0
 11
2312.5
 21
1802.5
 31
0.0
  0
LINE
  5
30D7
330
21B2
100
AcDbEntity
  8
寸法線
 62
     0
440
 16777216
370
    -2
100
AcDbLine
 10
2320.0
 20
1887.5
 30
0.0
 11
2320.0
 21
1817.5
 31
0.0
  0
INSERT
  5
30D8
330
21B2
100
AcDbEntity
  8
寸法線
 62
     0
440
 16777216
370
    -2
100
AcDbBlockReference
  2
_Open30
 10
2320.0
 20
1902.5
 30
0.0
 41
15.0
 42
15.0
 43
15.0
 50
90.0
  0
INSERT
  5
30D9
330
21B2
100
AcDbEntity
  8
寸法線
 62
     0
440
 16777216
370
    -2
100
AcDbBlockReference
  2
_Open30
 10
2320.0
 20
1802.5
 30
0.0
 41
15.0
 42
15.0
 43
15.0
 50
270.0
  0
MTEXT
  5
30DA
330
21B2
100
AcDbEntity
  8
寸法線
 62
     0
440
 16777216
100
AcDbMText
 10
2297.499999999999
 20
1852.5
 30
0.0
 40
30.0
 41
0.0
 46
0.0
 71
     5
 72
     1
  1
100
 11
0.0000000000000001
 21
1.0
 31
0.0
 73
     1
 44
1.0
  0
POINT
  5
30DB
330
21B2
100
AcDbEntity
  8
Defpoints
 62
     0
440
 16777216
100
AcDbPoint
 10
2525.0
 20
1902.5
 30
0.0
  0
POINT
  5
30DC
330
21B2
100
AcDbEntity
  8
Defpoints
 62
     0
440
 16777216
100
AcDbPoint
 10
2425.0
 20
1802.5
 30
0.0
  0
POINT
  5
30DD
330
21B2
100
AcDbEntity
  8
Defpoints
 62
     0
440
 16777216
100
AcDbPoint
 10
2320.0
 20
1802.5
 30
0.0
  0
ENDBLK
  5
21B4
330
21B2
100
AcDbEntity
  8
0
100
AcDbBlockEnd
  0
BLOCK
  5
21C5
330
21C4
100
AcDbEntity
  8
0
100
AcDbBlockBegin
  2
*D45
 70
     1
 10
0.0
 20
0.0
 30
0.0
  3
*D45
  1

  0
LINE
  5
30DE
330
21C4
100
AcDbEntity
  8
寸法線
 62
     0
440
 16777216
370
    -2
100
AcDbLine
 10
2417.5
 20
1802.500000000001
 30
0.0
 11
2207.5
 21
1802.500000000001
 31
0.0
  0
LINE
  5
30DF
330
21C4
100
AcDbEntity
  8
寸法線
 62
     0
440
 16777216
370
    -2
100
AcDbLine
 10
2417.5
 20
2302.5
 30
0.0
 11
2207.5
 21
2302.5
 31
0.0
  0
LINE
  5
30E0
330
21C4
100
AcDbEntity
  8
寸法線
 62
     0
440
 16777216
370
    -2
100
AcDbLine
 10
2215.0
 20
1817.5
 30
0.0
 11
2215.0
 21
2287.5
 31
0.0
  0
INSERT
  5
30E1
330
21C4
100
AcDbEntity
  8
寸法線
 62
     0
440
 16777216
370
    -2
100
AcDbBlockReference
  2
_Open30
 10
2215.0
 20
1802.500000000001
 30
0.0
 41
15.0
 42
15.0
 43
15.0
 50
270.0
  0
INSERT
  5
30E2
330
21C4
100
AcDbEntity
  8
寸法線
 62
     0
440
 16777216
370
    -2
100
AcDbBlockReference
  2
_Open30
 10
2215.0
 20
2302.5
 30
0.0
 41
15.0
 42
15.0
 43
15.0
 50
90.0
  0
MTEXT
  5
30E3
330
21C4
100
AcDbEntity
  8
寸法線
 62
     0
440
 16777216
100
AcDbMText
 10
2192.5
 20
2052.500000000001
 30
0.0
 40
30.0
 41
0.0
 46
0.0
 71
     5
 72
     1
  1
500
 11
0.0000000000000001
 21
1.0
 31
0.0
 73
     1
 44
1.0
  0
POINT
  5
30E4
330
21C4
100
AcDbEntity
  8
Defpoints
 62
     0
440
 16777216
100
AcDbPoint
 10
2425.0
 20
1802.500000000001
 30
0.0
  0
POINT
  5
30E5
330
21C4
100
AcDbEntity
  8
Defpoints
 62
     0
440
 16777216
100
AcDbPoint
 10
2425.0
 20
2302.5
 30
0.0
  0
POINT
  5
30E6
330
21C4
100
AcDbEntity
  8
Defpoints
 62
     0
440
 16777216
100
AcDbPoint
 10
2215.0
 20
2302.5
 30
0.0
  0
ENDBLK
  5
21C6
330
21C4
100
AcDbEntity
  8
0
100
AcDbBlockEnd
  0
BLOCK
  5
21D7
330
21D6
100
AcDbEntity
  8
0
100
AcDbBlockBegin
  2
*D46
 70
     1
 10
0.0
 20
0.0
 30
0.0
  3
*D46
  1

  0
LINE
  5
30E7
330
21D6
100
AcDbEntity
  8
寸法線
 62
     0
440
 16777216
370
    -2
100
AcDbLine
 10
2517.5
 20
1902.5
 30
0.0
 11
2312.5
 21
1902.5
 31
0.0
  0
LINE
  5
30E8
330
21D6
100
AcDbEntity
  8
寸法線
 62
     0
440
 16777216
370
    -2
100
AcDbLine
 10
2517.5
 20
2202.500000000001
 30
0.0
 11
2312.5
 21
2202.500000000001
 31
0.0
  0
LINE
  5
30E9
330
21D6
100
AcDbEntity
  8
寸法線
 62
     0
440
 16777216
370
    -2
100
AcDbLine
 10
2320.000000000001
 20
1917.5
 30
0.0
 11
2320.000000000001
 21
2187.5
 31
0.0
  0
INSERT
  5
30EA
330
21D6
100
AcDbEntity
  8
寸法線
 62
     0
440
 16777216
370
    -2
100
AcDbBlockReference
  2
_Open30
 10
2320.000000000001
 20
1902.5
 30
0.0
 41
15.0
 42
15.0
 43
15.0
 50
270.0
  0
INSERT
  5
30EB
330
21D6
100
AcDbEntity
  8
寸法線
 62
     0
440
 16777216
370
    -2
100
AcDbBlockReference
  2
_Open30
 10
2320.000000000001
 20
2202.500000000001
 30
0.0
 41
15.0
 42
15.0
 43
15.0
 50
90.0
  0
MTEXT
  5
30EC
330
21D6
100
AcDbEntity
  8
寸法線
 62
     0
440
 16777216
100
AcDbMText
 10
2297.5
 20
2052.500000000001
 30
0.0
 40
30.0
 41
0.0
 46
0.0
 71
     5
 72
     1
  1
300
 11
0.0000000000000001
 21
1.0
 31
0.0
 73
     1
 44
1.0
  0
POINT
  5
30ED
330
21D6
100
AcDbEntity
  8
Defpoints
 62
     0
440
 16777216
100
AcDbPoint
 10
2525.0
 20
1902.5
 30
0.0
  0
POINT
  5
30EE
330
21D6
100
AcDbEntity
  8
Defpoints
 62
     0
440
 16777216
100
AcDbPoint
 10
2525.0
 20
2202.500000000001
 30
0.0
  0
POINT
  5
30EF
330
21D6
100
AcDbEntity
  8
Defpoints
 62
     0
440
 16777216
100
AcDbPoint
 10
2320.000000000001
 20
2202.500000000001
 30
0.0
  0
ENDBLK
  5
21D8
330
21D6
100
AcDbEntity
  8
0
100
AcDbBlockEnd
  0
BLOCK
  5
21EC
330
21EB
100
AcDbEntity
  8
0
100
AcDbBlockBegin
  2
*D47
 70
     1
 10
0.0
 20
0.0
 30
0.0
  3
*D47
  1

  0
LINE
  5
30F0
330
21EB
100
AcDbEntity
  8
寸法線
 62
     0
440
 16777216
370
    -2
100
AcDbLine
 10
2517.5
 20
2202.500000000001
 30
0.0
 11
2312.5
 21
2202.500000000001
 31
0.0
  0
LINE
  5
30F1
330
21EB
100
AcDbEntity
  8
寸法線
 62
     0
440
 16777216
370
    -2
100
AcDbLine
 10
2417.5
 20
2302.5
 30
0.0
 11
2312.5
 21
2302.5
 31
0.0
  0
LINE
  5
30F2
330
21EB
100
AcDbEntity
  8
寸法線
 62
     0
440
 16777216
370
    -2
100
AcDbLine
 10
2320.0
 20
2217.500000000001
 30
0.0
 11
2320.0
 21
2287.5
 31
0.0
  0
INSERT
  5
30F3
330
21EB
100
AcDbEntity
  8
寸法線
 62
     0
440
 16777216
370
    -2
100
AcDbBlockReference
  2
_Open30
 10
2320.0
 20
2202.500000000001
 30
0.0
 41
15.0
 42
15.0
 43
15.0
 50
270.0
  0
INSERT
  5
30F4
330
21EB
100
AcDbEntity
  8
寸法線
 62
     0
440
 16777216
370
    -2
100
AcDbBlockReference
  2
_Open30
 10
2320.0
 20
2302.5
 30
0.0
 41
15.0
 42
15.0
 43
15.0
 50
90.0
  0
MTEXT
  5
30F5
330
21EB
100
AcDbEntity
  8
寸法線
 62
     0
440
 16777216
100
AcDbMText
 10
2297.499999999999
 20
2252.500000000001
 30
0.0
 40
30.0
 41
0.0
 46
0.0
 71
     5
 72
     1
  1
100
 11
0.0000000000000001
 21
1.0
 31
0.0
 73
     1
 44
1.0
  0
POINT
  5
30F6
330
21EB
100
AcDbEntity
  8
Defpoints
 62
     0
440
 16777216
100
AcDbPoint
 10
2525.0
 20
2202.500000000001
 30
0.0
  0
POINT
  5
30F7
330
21EB
100
AcDbEntity
  8
Defpoints
 62
     0
440
 16777216
100
AcDbPoint
 10
2425.0
 20
2302.5
 30
0.0
  0
POINT
  5
30F8
330
21EB
100
AcDbEntity
  8
Defpoints
 62
     0
440
 16777216
100
AcDbPoint
 10
2320.0
 20
2302.5
 30
0.0
  0
ENDBLK
  5
21ED
330
21EB
100
AcDbEntity
  8
0
100
AcDbBlockEnd
  0
BLOCK
  5
21FE
330
21FD
100
AcDbEntity
  8
0
100
AcDbBlockBegin
  2
*D48
 70
     1
 10
0.0
 20
0.0
 30
0.0
  3
*D48
  1

  0
LINE
  5
30F9
330
21FD
100
AcDbEntity
  8
寸法線
 62
     0
440
 16777216
370
    -2
100
AcDbLine
 10
2525.0
 20
2210.0
 30
0.0
 11
2525.0
 21
2414.999999999999
 31
0.0
  0
LINE
  5
30FA
330
21FD
100
AcDbEntity
  8
寸法線
 62
     0
440
 16777216
370
    -2
100
AcDbLine
 10
2425.0
 20
2310.0
 30
0.0
 11
2425.0
 21
2414.999999999999
 31
0.0
  0
LINE
  5
30FB
330
21FD
100
AcDbEntity
  8
寸法線
 62
     0
440
 16777216
370
    -2
100
AcDbLine
 10
2510.0
 20
2407.499999999999
 30
0.0
 11
2440.0
 21
2407.499999999999
 31
0.0
  0
INSERT
  5
30FC
330
21FD
100
AcDbEntity
  8
寸法線
 62
     0
440
 16777216
370
    -2
100
AcDbBlockReference
  2
_Open30
 10
2525.0
 20
2407.499999999999
 30
0.0
 41
15.0
 42
15.0
 43
15.0
  0
INSERT
  5
30FD
330
21FD
100
AcDbEntity
  8
寸法線
 62
     0
440
 16777216
370
    -2
100
AcDbBlockReference
  2
_Open30
 10
2425.0
 20
2407.499999999999
 30
0.0
 41
15.0
 42
15.0
 43
15.0
 50
180.0
  0
MTEXT
  5
30FE
330
21FD
100
AcDbEntity
  8
寸法線
 62
     0
440
 16777216
100
AcDbMText
 10
2475.0
 20
2429.999999999999
 30
0.0
 40
30.0
 41
0.0
 46
0.0
 71
     5
 72
     1
  1
100
 73
     1
 44
1.0
  0
POINT
  5
30FF
330
21FD
100
AcDbEntity
  8
Defpoints
 62
     0
440
 16777216
100
AcDbPoint
 10
2525.0
 20
2202.500000000001
 30
0.0
  0
POINT
  5
3100
330
21FD
100
AcDbEntity
  8
Defpoints
 62
     0
440
 16777216
100
AcDbPoint
 10
2425.0
 20
2302.5
 30
0.0
  0
POINT
  5
3101
330
21FD
100
AcDbEntity
  8
Defpoints
 62
     0
440
 16777216
100
AcDbPoint
 10
2425.0
 20
2407.499999999999
 30
0.0
  0
ENDBLK
  5
21FF
330
21FD
100
AcDbEntity
  8
0
100
AcDbBlockEnd
  0
BLOCK
  5
2210
330
220F
100
AcDbEntity
  8
0
100
AcDbBlockBegin
  2
*D49
 70
     1
 10
0.0
 20
0.0
 30
0.0
  3
*D49
  1

  0
LINE
  5
3102
330
220F
100
AcDbEntity
  8
寸法線
 62
     0
440
 16777216
370
    -2
100
AcDbLine
 10
2525.0
 20
2210.0
 30
0.0
 11
2525.0
 21
2415.000000000001
 31
0.0
  0
LINE
  5
3103
330
220F
100
AcDbEntity
  8
寸法線
 62
     0
440
 16777216
370
    -2
100
AcDbLine
 10
2825.0
 20
2210.000000000001
 30
0.0
 11
2825.0
 21
2415.000000000001
 31
0.0
  0
LINE
  5
3104
330
220F
100
AcDbEntity
  8
寸法線
 62
     0
440
 16777216
370
    -2
100
AcDbLine
 10
2540.0
 20
2407.500000000001
 30
0.0
 11
2810.0
 21
2407.500000000001
 31
0.0
  0
INSERT
  5
3105
330
220F
100
AcDbEntity
  8
寸法線
 62
     0
440
 16777216
370
    -2
100
AcDbBlockReference
  2
_Open30
 10
2525.0
 20
2407.500000000001
 30
0.0
 41
15.0
 42
15.0
 43
15.0
 50
180.0
  0
INSERT
  5
3106
330
220F
100
AcDbEntity
  8
寸法線
 62
     0
440
 16777216
370
    -2
100
AcDbBlockReference
  2
_Open30
 10
2825.0
 20
2407.500000000001
 30
0.0
 41
15.0
 42
15.0
 43
15.0
  0
MTEXT
  5
3107
330
220F
100
AcDbEntity
  8
寸法線
 62
     0
440
 16777216
100
AcDbMText
 10
2675.0
 20
2430.000000000001
 30
0.0
 40
30.0
 41
0.0
 46
0.0
 71
     5
 72
     1
  1
300
 73
     1
 44
1.0
  0
POINT
  5
3108
330
220F
100
AcDbEntity
  8
Defpoints
 62
     0
440
 16777216
100
AcDbPoint
 10
2525.0
 20
2202.500000000001
 30
0.0
  0
POINT
  5
3109
330
220F
100
AcDbEntity
  8
Defpoints
 62
     0
440
 16777216
100
AcDbPoint
 10
2825.0
 20
2202.500000000001
 30
0.0
  0
POINT
  5
310A
330
220F
100
AcDbEntity
  8
Defpoints
 62
     0
440
 16777216
100
AcDbPoint
 10
2825.0
 20
2407.500000000001
 30
0.0
  0
ENDBLK
  5
2211
330
220F
100
AcDbEntity
  8
0
100
AcDbBlockEnd
  0
BLOCK
  5
2222
330
2221
100
AcDbEntity
  8
0
100
AcDbBlockBegin
  2
*D50
 70
     1
 10
0.0
 20
0.0
 30
0.0
  3
*D50
  1

  0
LINE
  5
310B
330
2221
100
AcDbEntity
  8
寸法線
 62
     0
440
 16777216
370
    -2
100
AcDbLine
 10
2825.0
 20
2210.000000000001
 30
0.0
 11
2825.0
 21
2415.0
 31
0.0
  0
LINE
  5
310C
330
2221
100
AcDbEntity
  8
寸法線
 62
     0
440
 16777216
370
    -2
100
AcDbLine
 10
2925.0
 20
2310.000000000001
 30
0.0
 11
2925.0
 21
2415.0
 31
0.0
  0
LINE
  5
310D
330
2221
100
AcDbEntity
  8
寸法線
 62
     0
440
 16777216
370
    -2
100
AcDbLine
 10
2840.0
 20
2407.5
 30
0.0
 11
2910.0
 21
2407.5
 31
0.0
  0
INSERT
  5
310E
330
2221
100
AcDbEntity
  8
寸法線
 62
     0
440
 16777216
370
    -2
100
AcDbBlockReference
  2
_Open30
 10
2825.0
 20
2407.5
 30
0.0
 41
15.0
 42
15.0
 43
15.0
 50
180.0
  0
INSERT
  5
310F
330
2221
100
AcDbEntity
  8
寸法線
 62
     0
440
 16777216
370
    -2
100
AcDbBlockReference
  2
_Open30
 10
2925.0
 20
2407.5
 30
0.0
 41
15.0
 42
15.0
 43
15.0
  0
MTEXT
  5
3110
330
2221
100
AcDbEntity
  8
寸法線
 62
     0
440
 16777216
100
AcDbMText
 10
2875.0
 20
2430.0
 30
0.0
 40
30.0
 41
0.0
 46
0.0
 71
     5
 72
     1
  1
100
 73
     1
 44
1.0
  0
POINT
  5
3111
330
2221
100
AcDbEntity
  8
Defpoints
 62
     0
440
 16777216
100
AcDbPoint
 10
2825.0
 20
2202.500000000001
 30
0.0
  0
POINT
  5
3112
330
2221
100
AcDbEntity
  8
Defpoints
 62
     0
440
 16777216
100
AcDbPoint
 10
2925.0
 20
2302.500000000001
 30
0.0
  0
POINT
  5
3113
330
2221
100
AcDbEntity
  8
Defpoints
 62
     0
440
 16777216
100
AcDbPoint
 10
2925.0
 20
2407.5
 30
0.0
  0
ENDBLK
  5
2223
330
2221
100
AcDbEntity
  8
0
100
AcDbBlockEnd
  0
BLOCK
  5
2234
330
2233
100
AcDbEntity
  8
0
100
AcDbBlockBegin
  2
*D51
 70
     1
 10
0.0
 20
0.0
 30
0.0
  3
*D51
  1

  0
LINE
  5
3114
330
2233
100
AcDbEntity
  8
寸法線
 62
     0
440
 16777216
370
    -2
100
AcDbLine
 10
2925.0
 20
2310.0
 30
0.0
 11
2925.0
 21
2520.0
 31
0.0
  0
LINE
  5
3115
330
2233
100
AcDbEntity
  8
寸法線
 62
     0
440
 16777216
370
    -2
100
AcDbLine
 10
2425.0
 20
2310.0
 30
0.0
 11
2425.0
 21
2520.0
 31
0.0
  0
LINE
  5
3116
330
2233
100
AcDbEntity
  8
寸法線
 62
     0
440
 16777216
370
    -2
100
AcDbLine
 10
2910.0
 20
2512.5
 30
0.0
 11
2440.0
 21
2512.5
 31
0.0
  0
INSERT
  5
3117
330
2233
100
AcDbEntity
  8
寸法線
 62
     0
440
 16777216
370
    -2
100
AcDbBlockReference
  2
_Open30
 10
2925.0
 20
2512.5
 30
0.0
 41
15.0
 42
15.0
 43
15.0
  0
INSERT
  5
3118
330
2233
100
AcDbEntity
  8
寸法線
 62
     0
440
 16777216
370
    -2
100
AcDbBlockReference
  2
_Open30
 10
2425.0
 20
2512.5
 30
0.0
 41
15.0
 42
15.0
 43
15.0
 50
180.0
  0
MTEXT
  5
3119
330
2233
100
AcDbEntity
  8
寸法線
 62
     0
440
 16777216
100
AcDbMText
 10
2675.0
 20
2535.0
 30
0.0
 40
30.0
 41
0.0
 46
0.0
 71
     5
 72
     1
  1
500
 73
     1
 44
1.0
  0
POINT
  5
311A
330
2233
100
AcDbEntity
  8
Defpoints
 62
     0
440
 16777216
100
AcDbPoint
 10
2925.0
 20
2302.500000000001
 30
0.0
  0
POINT
  5
311B
330
2233
100
AcDbEntity
  8
Defpoints
 62
     0
440
 16777216
100
AcDbPoint
 10
2425.0
 20
2302.5
 30
0.0
  0
POINT
  5
311C
330
2233
100
AcDbEntity
  8
Defpoints
 62
     0
440
 16777216
100
AcDbPoint
 10
2425.0
 20
2512.5
 30
0.0
  0
ENDBLK
  5
2235
330
2233
100
AcDbEntity
  8
0
100
AcDbBlockEnd
  0
ENDSEC
  0
SECTION
  2
ENTITIES
  0
LINE
  5
183C
330
1F
100
AcDbEntity
  8
図面枠
100
AcDbLine
 10
150.0
 20
3000.0
 30
0.0
 11
4305.0
 21
3000.0
 31
0.0
  0
LINE
  5
183D
330
1F
100
AcDbEntity
  8
図面枠
100
AcDbLine
 10
150.0
 20
3000.0
 30
0.0
 11
150.0
 21
150.0
 31
0.0
  0
LINE
  5
183E
330
1F
100
AcDbEntity
  8
図面枠
100
AcDbLine
 10
150.0
 20
150.0
 30
0.0
 11
4305.0
 21
150.0
 31
0.0
  0
LINE
  5
183F
330
1F
100
AcDbEntity
  8
図面枠
100
AcDbLine
 10
4305.0
 20
3000.0
 30
0.0
 11
4305.0
 21
150.0
 31
0.0
  0
LINE
  5
18EC
102
{ACAD_REACTORS
330
19A8
330
19DE
102
}
330
1F
100
AcDbEntity
  8
構造線
100
AcDbLine
 10
1485.0
 20
2302.5
 30
0.0
 11
985.0000000000003
 21
2302.5
 31
0.0
  0
LINE
  5
18ED
102
{ACAD_REACTORS
330
19BA
102
}
330
1F
100
AcDbEntity
  8
構造線
100
AcDbLine
 10
1385.0
 20
2202.5
 30
0.0
 11
1084.999999999999
 21
2202.500000000001
 31
0.0
  0
LINE
  5
18EE
102
{ACAD_REACTORS
330
1984
330
1996
102
}
330
1F
100
AcDbEntity
  8
構造線
100
AcDbLine
 10
1485.0
 20
1802.5
 30
0.0
 11
985.0
 21
1802.5
 31
0.0
  0
LINE
  5
18EF
330
1F
100
AcDbEntity
  8
中心線
100
AcDbLine
 10
1484.999999999999
 20
2052.5
 30
0.0
 11
985.0
 21
2052.5
 31
0.0
  0
LINE
  5
18F0
102
{ACAD_REACTORS
330
1972
330
1984
102
}
330
1F
100
AcDbEntity
  8
構造線
100
AcDbLine
 10
1385.0
 20
1902.5
 30
0.0
 11
1085.0
 21
1902.5
 31
0.0
  0
LINE
  5
18F1
330
1F
100
AcDbEntity
  8
構造線
100
AcDbLine
 10
985.0
 20
2302.5
 30
0.0
 11
985.0
 21
1802.5
 31
0.0
  0
LINE
  5
18F2
330
1F
100
AcDbEntity
  8
中心線
100
AcDbLine
 10
1235.0
 20
2302.5
 30
0.0
 11
1235.0
 21
1802.499999999999
 31
0.0
  0
LINE
  5
18F3
102
{ACAD_REACTORS
330
1960
330
1972
330
19A8
330
19BA
102
}
330
1F
100
AcDbEntity
  8
構造線
100
AcDbLine
 10
1085.0
 20
2202.5
 30
0.0
 11
1085.0
 21
1902.5
 31
0.0
  0
LINE
  5
18F4
102
{ACAD_REACTORS
330
19CC
330
19DE
102
}
330
1F
100
AcDbEntity
  8
構造線
100
AcDbLine
 10
1485.0
 20
2302.5
 30
0.0
 11
1485.0
 21
1802.5
 31
0.0
  0
LINE
  5
18F5
102
{ACAD_REACTORS
330
19CC
102
}
330
1F
100
AcDbEntity
  8
構造線
100
AcDbLine
 10
1385.0
 20
2202.5
 30
0.0
 11
1385.0
 21
1902.5
 31
0.0
  0
LINE
  5
18F6
102
{ACAD_REACTORS
330
1A5B
330
1A6F
102
}
330
1F
100
AcDbEntity
  8
構造線
100
AcDbLine
 10
1084.999999999999
 20
1062.5
 30
0.0
 11
1084.999999999999
 21
612.5
 31
0.0
  0
LINE
  5
18F7
330
1F
100
AcDbEntity
  8
構造線
100
AcDbLine
 10
1385.0
 20
1062.499999999999
 30
0.0
 11
1385.0
 21
612.5
 31
0.0
  0
LINE
  5
18F8
330
1F
100
AcDbEntity
  8
隠れ線
100
AcDbLine
 10
1032.882064383394
 20
1207.915227399269
 30
0.0
 11
1037.5
 21
1152.5
 31
0.0
  0
ARC
  5
18F9
330
1F
100
AcDbEntity
  8
構造線
100
AcDbCircle
 10
1027.899335592169
 20
1207.5
 30
0.0
 40
5.0
100
AcDbArc
 50
4.763641690730118
 51
90.0
  0
LINE
  5
18FA
330
1F
100
AcDbEntity
  8
隠れ線
100
AcDbLine
 10
1437.117935616606
 20
1207.915227399269
 30
0.0
 11
1432.5
 21
1152.5
 31
0.0
  0
LINE
  5
18FB
330
1F
100
AcDbEntity
  8
隠れ線
100
AcDbLine
 10
1432.5
 20
1152.5
 30
0.0
 11
1037.5
 21
1152.5
 31
0.0
  0
LINE
  5
18FC
102
{ACAD_REACTORS
330
1A3E
102
}
330
1F
100
AcDbEntity
  8
構造線
100
AcDbLine
 10
985.0
 20
612.5
 30
0.0
 11
985.0
 21
1206.5
 31
0.0
  0
LINE
  5
18FD
330
1F
100
AcDbEntity
  8
中心線
100
AcDbLine
 10
1235.0
 20
612.5
 30
0.0
 11
1235.0
 21
1206.5
 31
0.0
  0
LINE
  5
18FE
102
{ACAD_REACTORS
330
1A95
102
}
330
1F
100
AcDbEntity
  8
構造線
100
AcDbLine
 10
1400.0
 20
612.5
 30
0.0
 11
1400.0
 21
1112.499999999999
 31
0.0
  0
LINE
  5
18FF
330
1F
100
AcDbEntity
  8
構造線
100
AcDbLine
 10
1070.0
 20
612.5
 30
0.0
 11
1070.0
 21
1112.5
 31
0.0
  0
ARC
  5
1900
330
1F
100
AcDbEntity
  8
隠れ線
100
AcDbCircle
 10
1442.10066440783
 20
1207.5
 30
0.0
 40
5.0
100
AcDbArc
 50
90.0
 51
175.2363583092699
  0
LINE
  5
1901
330
1F
100
AcDbEntity
  8
構造線
100
AcDbLine
 10
985.0
 20
1206.5
 30
0.0
 11
991.0
 21
1212.5
 31
0.0
  0
LINE
  5
1902
330
1F
100
AcDbEntity
  8
構造線
100
AcDbLine
 10
1485.0
 20
1206.5
 30
0.0
 11
1485.0
 21
612.5
 31
0.0
  0
LINE
  5
1903
330
1F
100
AcDbEntity
  8
構造線
100
AcDbLine
 10
1479.0
 20
1212.5
 30
0.0
 11
1485.0
 21
1206.5
 31
0.0
  0
LINE
  5
1904
330
1F
100
AcDbEntity
  8
構造線
100
AcDbLine
 10
1485.0
 20
612.5
 30
0.0
 11
985.0
 21
612.5
 31
0.0
  0
LINE
  5
1905
102
{ACAD_REACTORS
330
1A3E
102
}
330
1F
100
AcDbEntity
  8
構造線
100
AcDbLine
 10
991.0
 20
1212.5
 30
0.0
 11
1479.0
 21
1212.5
 31
0.0
  0
LINE
  5
1906
330
1F
100
AcDbEntity
  8
構造線
100
AcDbLine
 10
991.0
 20
1808.5
 30
0.0
 11
991.0
 21
2296.499999999999
 31
0.0
  0
LINE
  5
1907
330
1F
100
AcDbEntity
  8
構造線
100
AcDbLine
 10
1479.0
 20
1808.500000000001
 30
0.0
 11
1479.0
 21
2296.499999999999
 31
0.0
  0
LINE
  5
1908
330
1F
100
AcDbEntity
  8
構造線
100
AcDbLine
 10
1432.5
 20
1855.0
 30
0.0
 11
1432.5
 21
2250.0
 31
0.0
  0
LINE
  5
1909
330
1F
100
AcDbEntity
  8
構造線
100
AcDbLine
 10
1437.5
 20
1850.0
 30
0.0
 11
1437.5
 21
2255.0
 31
0.0
  0
LINE
  5
190A
330
1F
100
AcDbEntity
  8
構造線
100
AcDbLine
 10
1037.5
 20
1854.999999999999
 30
0.0
 11
1037.5
 21
2250.0
 31
0.0
  0
LINE
  5
190B
330
1F
100
AcDbEntity
  8
構造線
100
AcDbLine
 10
1032.5
 20
1849.999999999999
 30
0.0
 11
1032.5
 21
2255.0
 31
0.0
  0
LINE
  5
190C
330
1F
100
AcDbEntity
  8
構造線
100
AcDbLine
 10
985.0
 20
1802.5
 30
0.0
 11
991.0
 21
1808.5
 31
0.0
  0
LINE
  5
190D
330
1F
100
AcDbEntity
  8
構造線
100
AcDbLine
 10
1032.5
 20
1850.0
 30
0.0
 11
1037.5
 21
1855.0
 31
0.0
  0
LINE
  5
190E
330
1F
100
AcDbEntity
  8
構造線
100
AcDbLine
 10
1432.5
 20
2250.0
 30
0.0
 11
1437.5
 21
2255.0
 31
0.0
  0
LINE
  5
190F
330
1F
100
AcDbEntity
  8
構造線
100
AcDbLine
 10
1479.0
 20
2296.499999999999
 30
0.0
 11
1485.0
 21
2302.5
 31
0.0
  0
LINE
  5
1910
330
1F
100
AcDbEntity
  8
構造線
100
AcDbLine
 10
1485.0
 20
1802.5
 30
0.0
 11
1479.0
 21
1808.500000000001
 31
0.0
  0
LINE
  5
1911
330
1F
100
AcDbEntity
  8
構造線
100
AcDbLine
 10
1437.5
 20
1850.0
 30
0.0
 11
1432.5
 21
1855.0
 31
0.0
  0
LINE
  5
1912
330
1F
100
AcDbEntity
  8
構造線
100
AcDbLine
 10
1037.499999999999
 20
2250.0
 30
0.0
 11
1032.499999999999
 21
2255.000000000001
 31
0.0
  0
LINE
  5
1913
102
{ACAD_REACTORS
330
1960
330
1996
102
}
330
1F
100
AcDbEntity
  8
構造線
100
AcDbLine
 10
991.0
 20
2296.499999999999
 30
0.0
 11
985.0
 21
2302.5
 31
0.0
  0
LINE
  5
1914
330
1F
100
AcDbEntity
  8
構造線
100
AcDbLine
 10
1479.000000000002
 20
1808.499999999999
 30
0.0
 11
990.9999999999993
 21
1808.499999999999
 31
0.0
  0
LINE
  5
1915
330
1F
100
AcDbEntity
  8
構造線
100
AcDbLine
 10
1479.0
 20
2296.499999999999
 30
0.0
 11
990.9999999999998
 21
2296.499999999999
 31
0.0
  0
LINE
  5
1916
330
1F
100
AcDbEntity
  8
構造線
100
AcDbLine
 10
1432.5
 20
2250.0
 30
0.0
 11
1037.499999999999
 21
2250.0
 31
0.0
  0
LINE
  5
1917
330
1F
100
AcDbEntity
  8
構造線
100
AcDbLine
 10
1437.5
 20
2255.0
 30
0.0
 11
1032.499999999998
 21
2255.000000000001
 31
0.0
  0
LINE
  5
1918
330
1F
100
AcDbEntity
  8
構造線
100
AcDbLine
 10
1432.5
 20
1855.0
 30
0.0
 11
1037.5
 21
1855.0
 31
0.0
  0
LINE
  5
1919
330
1F
100
AcDbEntity
  8
構造線
100
AcDbLine
 10
1437.5
 20
1849.999999999999
 30
0.0
 11
1032.5
 21
1849.999999999999
 31
0.0
  0
LINE
  5
191A
330
1F
100
AcDbEntity
  8
隠れ線
100
AcDbLine
 10
1085.0
 20
1152.5
 30
0.0
 11
1084.999999999999
 21
612.5
 31
0.0
  0
LINE
  5
191B
102
{ACAD_REACTORS
330
1A5B
330
1A83
102
}
330
1F
100
AcDbEntity
  8
隠れ線
100
AcDbLine
 10
1385.0
 20
1152.5
 30
0.0
 11
1385.0
 21
612.5
 31
0.0
  0
LINE
  5
191C
330
1F
100
AcDbEntity
  8
隠れ線
100
AcDbLine
 10
1415.0
 20
612.5
 30
0.0
 11
1415.0
 21
1062.5
 31
0.0
  0
LINE
  5
191D
330
1F
100
AcDbEntity
  8
隠れ線
100
AcDbLine
 10
1415.0
 20
1062.5
 30
0.0
 11
1485.0
 21
1112.5
 31
0.0
  0
LINE
  5
191E
330
1F
100
AcDbEntity
  8
隠れ線
100
AcDbLine
 10
1055.0
 20
612.5
 30
0.0
 11
1055.0
 21
1062.5
 31
0.0
  0
LINE
  5
191F
330
1F
100
AcDbEntity
  8
隠れ線
100
AcDbLine
 10
1055.0
 20
1062.5
 30
0.0
 11
985.0
 21
1112.5
 31
0.0
  0
LINE
  5
1920
330
1F
100
AcDbEntity
  8
構造線
100
AcDbLine
 10
1084.999999999999
 20
1062.5
 30
0.0
 11
1385.0
 21
1062.5
 31
0.0
  0
LINE
  5
1921
102
{ACAD_REACTORS
330
1A6F
330
1A95
102
}
330
1F
100
AcDbEntity
  8
構造線
100
AcDbLine
 10
1070.0
 20
612.5
 30
0.0
 11
1070.0
 21
1112.5
 31
0.0
  0
LINE
  5
1922
330
1F
100
AcDbEntity
  8
構造線
100
AcDbLine
 10
1070.0
 20
1112.5
 30
0.0
 11
1400.0
 21
1112.5
 31
0.0
  0
LINE
  5
1923
102
{ACAD_REACTORS
330
1A83
102
}
330
1F
100
AcDbEntity
  8
構造線
100
AcDbLine
 10
1400.0
 20
1112.5
 30
0.0
 11
1400.0
 21
612.5
 31
0.0
  0
LINE
  5
1924
330
1F
100
AcDbEntity
  8
構造線
100
AcDbLine
 10
1400.0
 20
1112.5
 30
0.0
 11
1385.0
 21
1062.5
 31
0.0
  0
LINE
  5
1925
330
1F
100
AcDbEntity
  8
構造線
100
AcDbLine
 10
1084.999999999999
 20
1062.5
 30
0.0
 11
1070.0
 21
1112.5
 31
0.0
  0
LINE
  5
1926
102
{ACAD_REACTORS
330
1AA7
330
1AB9
330
1CC6
102
}
330
1F
100
AcDbEntity
  8
構造線
100
AcDbLine
 10
2525.0
 20
1152.5
 30
0.0
 11
2525.0
 21
612.5
 31
0.0
  0
LINE
  5
1927
102
{ACAD_REACTORS
330
1AB9
330
1ACB
330
1ADF
102
}
330
1F
100
AcDbEntity
  8
構造線
100
AcDbLine
 10
2825.0
 20
1152.5
 30
0.0
 11
2825.0
 21
612.5
 31
0.0
  0
LINE
  5
1928
102
{ACAD_REACTORS
330
1CB3
102
}
330
1F
100
AcDbEntity
  8
構造線
100
AcDbLine
 10
2472.882064383394
 20
1207.915227399269
 30
0.0
 11
2477.5
 21
1152.5
 31
0.0
  0
ARC
  5
1929
330
1F
100
AcDbEntity
  8
構造線
100
AcDbCircle
 10
2467.899335592171
 20
1207.5
 30
0.0
 40
5.0
100
AcDbArc
 50
4.763641690730118
 51
90.0
  0
LINE
  5
192A
330
1F
100
AcDbEntity
  8
構造線
100
AcDbLine
 10
2877.117935616606
 20
1207.915227399269
 30
0.0
 11
2872.5
 21
1152.5
 31
0.0
  0
LINE
  5
192B
102
{ACAD_REACTORS
330
1B07
330
1B19
330
1CC6
102
}
330
1F
100
AcDbEntity
  8
構造線
100
AcDbLine
 10
2872.5
 20
1152.5
 30
0.0
 11
2477.5
 21
1152.5
 31
0.0
  0
LINE
  5
192C
102
{ACAD_REACTORS
330
1B19
330
1B2B
330
1B8D
102
}
330
1F
100
AcDbEntity
  8
構造線
100
AcDbLine
 10
2425.0
 20
612.4999999999999
 30
0.0
 11
2425.0
 21
1206.5
 31
0.0
  0
ARC
  5
192D
330
1F
100
AcDbEntity
  8
構造線
100
AcDbCircle
 10
2882.10066440783
 20
1207.5
 30
0.0
 40
5.0
100
AcDbArc
 50
90.0
 51
175.2363583092699
  0
LINE
  5
192E
330
1F
100
AcDbEntity
  8
構造線
100
AcDbLine
 10
2425.0
 20
1206.5
 30
0.0
 11
2431.0
 21
1212.5
 31
0.0
  0
LINE
  5
192F
102
{ACAD_REACTORS
330
1B62
102
}
330
1F
100
AcDbEntity
  8
構造線
100
AcDbLine
 10
2925.0
 20
1206.5
 30
0.0
 11
2925.0
 21
612.5
 31
0.0
  0
LINE
  5
1930
330
1F
100
AcDbEntity
  8
構造線
100
AcDbLine
 10
2919.0
 20
1212.5
 30
0.0
 11
2925.0
 21
1206.5
 31
0.0
  0
LINE
  5
1931
102
{ACAD_REACTORS
330
1AA7
330
1ACB
330
1AF1
102
}
330
1F
100
AcDbEntity
  8
構造線
100
AcDbLine
 10
2925.0
 20
612.5
 30
0.0
 11
2425.0
 21
612.5
 31
0.0
  0
LINE
  5
1932
102
{ACAD_REACTORS
330
1ADF
330
1AF1
330
1B62
102
}
330
1F
100
AcDbEntity
  8
構造線
100
AcDbLine
 10
2855.0
 20
612.5
 30
0.0
 11
2855.0
 21
1062.5
 31
0.0
  0
LINE
  5
1933
102
{ACAD_REACTORS
330
1B3D
330
1B50
102
}
330
1F
100
AcDbEntity
  8
構造線
100
AcDbLine
 10
2855.0
 20
1062.5
 30
0.0
 11
2925.0
 21
1112.5
 31
0.0
  0
LINE
  5
1934
330
1F
100
AcDbEntity
  8
構造線
100
AcDbLine
 10
2495.0
 20
612.5
 30
0.0
 11
2495.0
 21
1062.5
 31
0.0
  0
LINE
  5
1935
330
1F
100
AcDbEntity
  8
構造線
100
AcDbLine
 10
2495.0
 20
1062.5
 30
0.0
 11
2425.0
 21
1112.5
 31
0.0
  0
LINE
  5
1936
102
{ACAD_REACTORS
330
1B07
330
1B2B
330
1B3D
102
}
330
1F
100
AcDbEntity
  8
構造線
100
AcDbLine
 10
2431.0
 20
1212.5
 30
0.0
 11
2919.0
 21
1212.5
 31
0.0
  0
LINE
  5
1937
102
{ACAD_REACTORS
330
19F4
330
1A2C
102
}
330
1F
100
AcDbEntity
  8
隠れ線
100
AcDbLine
 10
1485.0
 20
2217.5
 30
0.0
 11
1415.0
 21
2202.5
 31
0.0
  0
LINE
  5
1938
102
{ACAD_REACTORS
330
19F4
330
1A06
102
}
330
1F
100
AcDbEntity
  8
隠れ線
100
AcDbLine
 10
1415.0
 20
2202.5
 30
0.0
 11
1415.0
 21
1902.5
 31
0.0
  0
LINE
  5
1939
102
{ACAD_REACTORS
330
1A06
330
1A1A
330
1A2C
102
}
330
1F
100
AcDbEntity
  8
隠れ線
100
AcDbLine
 10
1415.0
 20
1902.5
 30
0.0
 11
1485.0
 21
1887.5
 31
0.0
  0
LINE
  5
193A
330
1F
100
AcDbEntity
  8
隠れ線
100
AcDbLine
 10
1070.0
 20
2302.5
 30
0.0
 11
1085.0
 21
2232.5
 31
0.0
  0
LINE
  5
193B
330
1F
100
AcDbEntity
  8
隠れ線
100
AcDbLine
 10
1085.0
 20
2232.5
 30
0.0
 11
1385.0
 21
2232.5
 31
0.0
  0
LINE
  5
193C
330
1F
100
AcDbEntity
  8
隠れ線
100
AcDbLine
 10
1385.0
 20
2232.5
 30
0.0
 11
1400.0
 21
2302.5
 31
0.0
  0
LINE
  5
193D
330
1F
100
AcDbEntity
  8
隠れ線
100
AcDbLine
 10
984.9999999999996
 20
1887.5
 30
0.0
 11
1054.999999999999
 21
1902.5
 31
0.0
  0
LINE
  5
193E
330
1F
100
AcDbEntity
  8
隠れ線
100
AcDbLine
 10
1054.999999999999
 20
1902.5
 30
0.0
 11
1055.0
 21
2202.5
 31
0.0
  0
LINE
  5
193F
330
1F
100
AcDbEntity
  8
隠れ線
100
AcDbLine
 10
1055.0
 20
2202.5
 30
0.0
 11
984.9999999999996
 21
2217.5
 31
0.0
  0
LINE
  5
1940
330
1F
100
AcDbEntity
  8
隠れ線
100
AcDbLine
 10
1399.999999999999
 20
1802.5
 30
0.0
 11
1384.999999999999
 21
1872.5
 31
0.0
  0
LINE
  5
1941
330
1F
100
AcDbEntity
  8
隠れ線
100
AcDbLine
 10
1385.0
 20
1872.5
 30
0.0
 11
1084.999999999999
 21
1872.5
 31
0.0
  0
LINE
  5
1942
330
1F
100
AcDbEntity
  8
隠れ線
100
AcDbLine
 10
1084.999999999999
 20
1872.5
 30
0.0
 11
1070.0
 21
1802.5
 31
0.0
  0
LINE
  5
1943
330
1F
100
AcDbEntity
  8
寸法線
100
AcDbLine
 10
2471.5
 20
1212.5
 30
0.0
 11
2472.5
 21
1212.5
 31
0.0
  0
LINE
  5
1944
102
{ACAD_REACTORS
330
1B8D
330
1CB3
102
}
330
1F
100
AcDbEntity
  8
寸法線
100
AcDbLine
 10
2472.5
 20
1212.5
 30
0.0
 11
2472.583045479853
 21
1211.503454241755
 31
0.0
  0
LINE
  5
1945
330
1F
100
AcDbEntity
  8
寸法線
100
AcDbLine
 10
2877.416954520146
 20
1211.503454241755
 30
0.0
 11
2877.5
 21
1212.5
 31
0.0
  0
LINE
  5
1946
330
1F
100
AcDbEntity
  8
寸法線
100
AcDbLine
 10
2877.5
 20
1212.5
 30
0.0
 11
2878.5
 21
1212.5
 31
0.0
  0
LINE
  5
1947
330
1F
100
AcDbEntity
  8
中心線
100
AcDbLine
 10
2675.0
 20
612.5
 30
0.0
 11
2675.0
 21
1206.5
 31
0.0
  0
DIMENSION
  5
194F
102
{ACAD_XDICTIONARY
360
1950
102
}
102
{ACAD_REACTORS
330
1960
102
}
330
1F
100
AcDbEntity
  8
寸法線
100
AcDbDimension
280
     0
  2
*D1
 10
880.0
 20
2302.5
 30
0.0
 11
857.4999999999997
 21
2252.5
 31
0.0
 70
    32
 71
     5
 42
99.99999999999955
 73
     0
 74
     0
 75
     0
  3
Annotative
100
AcDbAlignedDimension
 13
1085.0
 23
2202.5
 33
0.0
 14
985.0
 24
2302.5
 34
0.0
 50
90.0
100
AcDbRotatedDimension
1001
AcadAnnotative
1000
AnnotativeData
1002
{
1070
     1
1070
     1
1002
}
  0
DIMENSION
  5
1961
102
{ACAD_XDICTIONARY
360
1962
102
}
102
{ACAD_REACTORS
330
1972
102
}
330
1F
100
AcDbEntity
  8
寸法線
100
AcDbDimension
280
     0
  2
*D2
 10
880.0
 20
1902.5
 30
0.0
 11
857.4999999999997
 21
2052.500000000001
 31
0.0
 70
    32
 71
     5
 42
300.0000000000002
 73
     0
 74
     0
 75
     0
  3
Annotative
100
AcDbAlignedDimension
 13
1085.0
 23
2202.5
 33
0.0
 14
1085.0
 24
1902.5
 34
0.0
 50
90.0
100
AcDbRotatedDimension
1001
AcadAnnotative
1000
AnnotativeData
1002
{
1070
     1
1070
     1
1002
}
  0
DIMENSION
  5
1973
102
{ACAD_XDICTIONARY
360
1974
102
}
102
{ACAD_REACTORS
330
1984
102
}
330
1F
100
AcDbEntity
  8
寸法線
100
AcDbDimension
280
     0
  2
*D3
 10
880.0
 20
1802.5
 30
0.0
 11
857.4999999999997
 21
1852.5
 31
0.0
 70
    32
 71
     5
 42
100.0
 73
     0
 74
     0
 75
     0
  3
Annotative
100
AcDbAlignedDimension
 13
1085.0
 23
1902.5
 33
0.0
 14
985.0
 24
1802.5
 34
0.0
 50
90.0
100
AcDbRotatedDimension
1001
AcadAnnotative
1000
AnnotativeData
1002
{
1070
     1
1070
     1
1002
}
  0
DIMENSION
  5
1985
102
{ACAD_XDICTIONARY
360
1986
102
}
102
{ACAD_REACTORS
330
1996
102
}
330
1F
100
AcDbEntity
  8
寸法線
100
AcDbDimension
280
     0
  2
*D4
 10
775.0
 20
2302.5
 30
0.0
 11
752.4999999999996
 21
2052.5
 31
0.0
 70
    32
 71
     5
 42
499.9999999999998
 73
     0
 74
     0
 75
     0
  3
Annotative
100
AcDbAlignedDimension
 13
985.0
 23
1802.5
 33
0.0
 14
985.0
 24
2302.5
 34
0.0
 50
90.0
100
AcDbRotatedDimension
1001
AcadAnnotative
1000
AnnotativeData
1002
{
1070
     1
1070
     1
1002
}
  0
DIMENSION
  5
1997
102
{ACAD_XDICTIONARY
360
1998
102
}
102
{ACAD_REACTORS
330
19A8
102
}
330
1F
100
AcDbEntity
  8
寸法線
100
AcDbDimension
280
     0
  2
*D5
 10
985.0000000000003
 20
2407.5
 30
0.0
 11
1035.0
 21
2430.0
 31
0.0
 70
    32
 71
     5
 42
99.99999999999978
 73
     0
 74
     0
 75
     0
  3
Annotative
100
AcDbAlignedDimension
 13
1085.0
 23
2202.5
 33
0.0
 14
985.0000000000003
 24
2302.5
 34
0.0
100
AcDbRotatedDimension
1001
AcadAnnotative
1000
AnnotativeData
1002
{
1070
     1
1070
     1
1002
}
  0
DIMENSION
  5
19A9
102
{ACAD_XDICTIONARY
360
19AA
102
}
102
{ACAD_REACTORS
330
19BA
102
}
330
1F
100
AcDbEntity
  8
寸法線
100
AcDbDimension
280
     0
  2
*D6
 10
1385.0
 20
2407.499999999998
 30
0.0
 11
1235.0
 21
2429.999999999998
 31
0.0
 70
    32
 71
     5
 42
300.0000000000002
 73
     0
 74
     0
 75
     0
  3
Annotative
100
AcDbAlignedDimension
 13
1085.0
 23
2202.5
 33
0.0
 14
1385.0
 24
2202.5
 34
0.0
100
AcDbRotatedDimension
1001
AcadAnnotative
1000
AnnotativeData
1002
{
1070
     1
1070
     1
1002
}
  0
DIMENSION
  5
19BB
102
{ACAD_XDICTIONARY
360
19BC
102
}
102
{ACAD_REACTORS
330
19CC
102
}
330
1F
100
AcDbEntity
  8
寸法線
100
AcDbDimension
280
     0
  2
*D7
 10
1485.0
 20
2407.499999999999
 30
0.0
 11
1435.0
 21
2429.999999999999
 31
0.0
 70
    32
 71
     5
 42
100.0
 73
     0
 74
     0
 75
     0
  3
Annotative
100
AcDbAlignedDimension
 13
1385.0
 23
2202.5
 33
0.0
 14
1485.0
 24
2302.5
 34
0.0
100
AcDbRotatedDimension
1001
AcadAnnotative
1000
AnnotativeData
1002
{
1070
     1
1070
     1
1002
}
  0
DIMENSION
  5
19CD
102
{ACAD_XDICTIONARY
360
19CE
102
}
102
{ACAD_REACTORS
330
19DE
102
}
330
1F
100
AcDbEntity
  8
寸法線
100
AcDbDimension
280
     0
  2
*D8
 10
985.0000000000003
 20
2512.5
 30
0.0
 11
1235.0
 21
2535.0
 31
0.0
 70
    32
 71
     5
 42
499.9999999999998
 73
     0
 74
     0
 75
     0
  3
Annotative
100
AcDbAlignedDimension
 13
1485.0
 23
2302.5
 33
0.0
 14
985.0000000000003
 24
2302.5
 34
0.0
100
AcDbRotatedDimension
1001
AcadAnnotative
1000
AnnotativeData
1002
{
1070
     1
1070
     1
1002
}
  0
DIMENSION
  5
19E1
102
{ACAD_XDICTIONARY
360
19E2
102
}
102
{ACAD_REACTORS
330
19F4
102
}
330
1F
100
AcDbEntity
  8
寸法線
100
AcDbDimension
280
     0
  2
*D9
 10
1590.0
 20
2217.5
 30
0.0
 11
1567.5
 21
2273.197969543148
 31
0.0
 70
    32
 71
     5
 42
15.0
 73
     0
 74
     0
 75
     0
  3
Annotative
100
AcDbAlignedDimension
 13
1415.0
 23
2202.5
 33
0.0
 14
1485.0
 24
2217.5
 34
0.0
 50
90.0
100
AcDbRotatedDimension
1001
AcadAnnotative
1000
AnnotativeData
1002
{
1070
     1
1070
     1
1002
}
  0
DIMENSION
  5
19F5
102
{ACAD_XDICTIONARY
360
19F6
102
}
102
{ACAD_REACTORS
330
1A06
102
}
330
1F
100
AcDbEntity
  8
寸法線
100
AcDbDimension
280
     0
  2
*D10
 10
1590.0
 20
1902.5
 30
0.0
 11
1567.499999999999
 21
2052.500000000001
 31
0.0
 70
    32
 71
     5
 42
300.0000000000002
 73
     0
 74
     0
 75
     0
  3
Annotative
100
AcDbAlignedDimension
 13
1415.0
 23
2202.5
 33
0.0
 14
1415.0
 24
1902.5
 34
0.0
 50
90.0
100
AcDbRotatedDimension
1001
AcadAnnotative
1000
AnnotativeData
1002
{
1070
     1
1070
     1
1002
}
  0
DIMENSION
  5
1A07
102
{ACAD_XDICTIONARY
360
1A08
102
}
102
{ACAD_REACTORS
330
1A1A
102
}
330
1F
100
AcDbEntity
  8
寸法線
100
AcDbDimension
280
     0
  2
*D11
 10
1590.0
 20
1887.5
 30
0.0
 11
1567.499999999999
 21
1831.802030456853
 31
0.0
 70
    32
 71
     5
 42
15.0
 73
     0
 74
     0
 75
     0
  3
Annotative
100
AcDbAlignedDimension
 13
1415.0
 23
1902.5
 33
0.0
 14
1485.0
 24
1887.5
 34
0.0
 50
90.0
100
AcDbRotatedDimension
1001
AcadAnnotative
1000
AnnotativeData
1002
{
1070
     1
1070
     1
1002
}
  0
DIMENSION
  5
1A1B
102
{ACAD_XDICTIONARY
360
1A1C
102
}
102
{ACAD_REACTORS
330
1A2C
102
}
330
1F
100
AcDbEntity
  8
寸法線
100
AcDbDimension
280
     0
  2
*D12
 10
1695.0
 20
2217.5
 30
0.0
 11
1672.5
 21
2052.500000000001
 31
0.0
 70
    32
 71
     5
 42
330.0000000000002
 73
     0
 74
     0
 75
     0
  3
Annotative
100
AcDbAlignedDimension
 13
1485.0
 23
1887.5
 33
0.0
 14
1485.0
 24
2217.5
 34
0.0
 50
90.0
100
AcDbRotatedDimension
1001
AcadAnnotative
1000
AnnotativeData
1002
{
1070
     1
1070
     1
1002
}
  0
DIMENSION
  5
1A2D
102
{ACAD_XDICTIONARY
360
1A2E
102
}
102
{ACAD_REACTORS
330
1A3E
102
}
330
1F
100
AcDbEntity
  8
寸法線
100
AcDbDimension
280
     0
  2
*D13
 10
774.9999999999995
 20
1212.5
 30
0.0
 11
752.4999999999993
 21
912.5000000000001
 31
0.0
 70
    32
 71
     5
 42
599.9999999999999
 73
     0
 74
     0
 75
     0
  3
Annotative
100
AcDbAlignedDimension
 13
985.0
 23
612.5
 33
0.0
 14
991.0
 24
1212.5
 34
0.0
 50
90.0
100
AcDbRotatedDimension
1001
AcadAnnotative
1000
AnnotativeData
1002
{
1070
     1
1070
     1
1002
}
  0
DIMENSION
  5
1A4A
102
{ACAD_XDICTIONARY
360
1A4B
102
}
102
{ACAD_REACTORS
330
1A5B
102
}
330
1F
100
AcDbEntity
  8
寸法線
100
AcDbDimension
280
     0
  2
*D14
 10
1385.0
 20
507.4999999999999
 30
0.0
 11
1235.0
 21
529.9999999999998
 31
0.0
 70
    32
 71
     5
 42
300.0000000000002
 73
     0
 74
     0
 75
     0
  3
Annotative
100
AcDbAlignedDimension
 13
1084.999999999999
 23
612.5
 33
0.0
 14
1385.0
 24
612.5
 34
0.0
100
AcDbRotatedDimension
1001
AcadAnnotative
1000
AnnotativeData
1002
{
1070
     1
1070
     1
1002
}
  0
DIMENSION
  5
1A5C
102
{ACAD_XDICTIONARY
360
1A5D
102
}
102
{ACAD_REACTORS
330
1A6F
102
}
330
1F
100
AcDbEntity
  8
寸法線
100
AcDbDimension
280
     0
  2
*D15
 10
1070.0
 20
507.5000000000001
 30
0.0
 11
1014.302030456853
 21
530.0000000000001
 31
0.0
 70
    32
 71
     5
 42
14.99999999999977
 73
     0
 74
     0
 75
     0
  3
Annotative
100
AcDbAlignedDimension
 13
1084.999999999999
 23
612.5
 33
0.0
 14
1070.0
 24
612.5
 34
0.0
100
AcDbRotatedDimension
1001
AcadAnnotative
1000
AnnotativeData
1002
{
1070
     1
1070
     1
1002
}
  0
DIMENSION
  5
1A70
102
{ACAD_XDICTIONARY
360
1A71
102
}
102
{ACAD_REACTORS
330
1A83
102
}
330
1F
100
AcDbEntity
  8
寸法線
100
AcDbDimension
280
     0
  2
*D16
 10
1400.0
 20
507.4999999999999
 30
0.0
 11
1455.697969543147
 21
529.9999999999998
 31
0.0
 70
    32
 71
     5
 42
15.0
 73
     0
 74
     0
 75
     0
  3
Annotative
100
AcDbAlignedDimension
 13
1385.0
 23
612.5
 33
0.0
 14
1400.0
 24
612.5
 34
0.0
100
AcDbRotatedDimension
1001
AcadAnnotative
1000
AnnotativeData
1002
{
1070
     1
1070
     1
1002
}
  0
DIMENSION
  5
1A84
102
{ACAD_XDICTIONARY
360
1A85
102
}
102
{ACAD_REACTORS
330
1A95
102
}
330
1F
100
AcDbEntity
  8
寸法線
100
AcDbDimension
280
     0
  2
*D17
 10
1070.0
 20
402.5
 30
0.0
 11
1235.0
 21
425.0
 31
0.0
 70
    32
 71
     5
 42
330.0000000000002
 73
     0
 74
     0
 75
     0
  3
Annotative
100
AcDbAlignedDimension
 13
1400.0
 23
612.5
 33
0.0
 14
1070.0
 24
612.5
 34
0.0
100
AcDbRotatedDimension
1001
AcadAnnotative
1000
AnnotativeData
1002
{
1070
     1
1070
     1
1002
}
  0
DIMENSION
  5
1A96
102
{ACAD_XDICTIONARY
360
1A97
102
}
102
{ACAD_REACTORS
330
1AA7
102
}
330
1F
100
AcDbEntity
  8
寸法線
100
AcDbDimension
280
     0
  2
*D18
 10
2425.0
 20
402.5
 30
0.0
 11
2475.0
 21
425.0
 31
0.0
 70
    32
 71
     5
 42
100.0
 73
     0
 74
     0
 75
     0
  3
Annotative
100
AcDbAlignedDimension
 13
2525.0
 23
612.5
 33
0.0
 14
2425.0
 24
612.5
 34
0.0
100
AcDbRotatedDimension
1001
AcadAnnotative
1000
AnnotativeData
1002
{
1070
     1
1070
     1
1002
}
  0
DIMENSION
  5
1AA8
102
{ACAD_XDICTIONARY
360
1AA9
102
}
102
{ACAD_REACTORS
330
1AB9
102
}
330
1F
100
AcDbEntity
  8
寸法線
100
AcDbDimension
280
     0
  2
*D19
 10
2825.0
 20
402.4999999999999
 30
0.0
 11
2675.0
 21
424.9999999999999
 31
0.0
 70
    32
 71
     5
 42
300.0
 73
     0
 74
     0
 75
     0
  3
Annotative
100
AcDbAlignedDimension
 13
2525.0
 23
612.5
 33
0.0
 14
2825.0
 24
612.5
 34
0.0
100
AcDbRotatedDimension
1001
AcadAnnotative
1000
AnnotativeData
1002
{
1070
     1
1070
     1
1002
}
  0
DIMENSION
  5
1ABA
102
{ACAD_XDICTIONARY
360
1ABB
102
}
102
{ACAD_REACTORS
330
1ACB
102
}
330
1F
100
AcDbEntity
  8
寸法線
100
AcDbDimension
280
     0
  2
*D20
 10
2925.0
 20
402.5
 30
0.0
 11
2875.0
 21
425.0
 31
0.0
 70
    32
 71
     5
 42
100.0
 73
     0
 74
     0
 75
     0
  3
Annotative
100
AcDbAlignedDimension
 13
2825.0
 23
612.5
 33
0.0
 14
2925.0
 24
612.5
 34
0.0
100
AcDbRotatedDimension
1001
AcadAnnotative
1000
AnnotativeData
1002
{
1070
     1
1070
     1
1002
}
  0
DIMENSION
  5
1ACC
102
{ACAD_XDICTIONARY
360
1ACD
102
}
102
{ACAD_REACTORS
330
1ADF
102
}
330
1F
100
AcDbEntity
  8
寸法線
100
AcDbDimension
280
     0
  2
*D21
 10
2825.0
 20
507.5000000000001
 30
0.0
 11
2767.779187817259
 21
530.0000000000001
 31
0.0
 70
    32
 71
     5
 42
30.0
 73
     0
 74
     0
 75
     0
  3
Annotative
100
AcDbAlignedDimension
 13
2855.0
 23
612.5
 33
0.0
 14
2825.0
 24
612.5
 34
0.0
100
AcDbRotatedDimension
1001
AcadAnnotative
1000
AnnotativeData
1002
{
1070
     1
1070
     1
1002
}
  0
DIMENSION
  5
1AE0
102
{ACAD_XDICTIONARY
360
1AE1
102
}
102
{ACAD_REACTORS
330
1AF1
102
}
330
1F
100
AcDbEntity
  8
寸法線
100
AcDbDimension
280
     0
  2
*D22
 10
2925.0
 20
507.4999999999991
 30
0.0
 11
2890.0
 21
529.999999999999
 31
0.0
 70
    32
 71
     5
 42
70.0
 73
     0
 74
     0
 75
     0
  3
Annotative
100
AcDbAlignedDimension
 13
2855.0
 23
612.5
 33
0.0
 14
2925.0
 24
612.5
 34
0.0
100
AcDbRotatedDimension
1001
AcadAnnotative
1000
AnnotativeData
1002
{
1070
     1
1070
     1
1002
}
  0
DIMENSION
  5
1AF6
102
{ACAD_XDICTIONARY
360
1AF7
102
}
102
{ACAD_REACTORS
330
1B07
102
}
330
1F
100
AcDbEntity
  8
寸法線
100
AcDbDimension
280
     0
  2
*D23
 10
2320.0
 20
1212.5
 30
0.0
 11
2297.499999999999
 21
1182.5
 31
0.0
 70
    32
 71
     5
 42
60.0
 73
     0
 74
     0
 75
     0
  3
Annotative
100
AcDbAlignedDimension
 13
2477.5
 23
1152.5
 33
0.0
 14
2431.0
 24
1212.5
 34
0.0
 50
90.0
100
AcDbRotatedDimension
1001
AcadAnnotative
1000
AnnotativeData
1002
{
1070
     1
1070
     1
1002
}
  0
DIMENSION
  5
1B08
102
{ACAD_XDICTIONARY
360
1B09
102
}
102
{ACAD_REACTORS
330
1B19
102
}
330
1F
100
AcDbEntity
  8
寸法線
100
AcDbDimension
280
     0
  2
*D24
 10
2320.0
 20
612.4999999999999
 30
0.0
 11
2297.5
 21
882.5000000000002
 31
0.0
 70
    32
 71
     5
 42
540.0
 73
     0
 74
     0
 75
     0
  3
Annotative
100
AcDbAlignedDimension
 13
2477.5
 23
1152.5
 33
0.0
 14
2425.0
 24
612.4999999999999
 34
0.0
 50
90.0
100
AcDbRotatedDimension
1001
AcadAnnotative
1000
AnnotativeData
1002
{
1070
     1
1070
     1
1002
}
  0
DIMENSION
  5
1B1A
102
{ACAD_XDICTIONARY
360
1B1B
102
}
102
{ACAD_REACTORS
330
1B2B
102
}
330
1F
100
AcDbEntity
  8
寸法線
100
AcDbDimension
280
     0
  2
*D25
 10
2215.0
 20
1212.5
 30
0.0
 11
2192.5
 21
912.5000000000003
 31
0.0
 70
    32
 71
     5
 42
600.0
 73
     0
 74
     0
 75
     0
  3
Annotative
100
AcDbAlignedDimension
 13
2425.0
 23
612.4999999999999
 33
0.0
 14
2431.0
 24
1212.5
 34
0.0
 50
90.0
100
AcDbRotatedDimension
1001
AcadAnnotative
1000
AnnotativeData
1002
{
1070
     1
1070
     1
1002
}
  0
DIMENSION
  5
1B2C
102
{ACAD_XDICTIONARY
360
1B2D
102
}
102
{ACAD_REACTORS
330
1B3D
102
}
330
1F
100
AcDbEntity
  8
寸法線
100
AcDbDimension
280
     0
  2
*D26
 10
3030.0
 20
1212.5
 30
0.0
 11
3007.5
 21
1162.5
 31
0.0
 70
    32
 71
     5
 42
100.0
 73
     0
 74
     0
 75
     0
  3
Annotative
100
AcDbAlignedDimension
 13
2925.0
 23
1112.5
 33
0.0
 14
2919.0
 24
1212.5
 34
0.0
 50
90.0
100
AcDbRotatedDimension
1001
AcadAnnotative
1000
AnnotativeData
1002
{
1070
     1
1070
     1
1002
}
  0
DIMENSION
  5
1B3E
102
{ACAD_XDICTIONARY
360
1B3F
102
}
102
{ACAD_REACTORS
330
1B50
102
}
330
1F
100
AcDbEntity
  8
寸法線
100
AcDbDimension
280
     0
  2
*D27
 10
3030.0
 20
1062.5
 30
0.0
 11
3007.5
 21
1087.5
 31
0.0
 70
    32
 71
     5
 42
50.0
 73
     0
 74
     0
 75
     0
  3
Annotative
100
AcDbAlignedDimension
 13
2925.0
 23
1112.5
 33
0.0
 14
2855.0
 24
1062.5
 34
0.0
 50
90.0
100
AcDbRotatedDimension
1001
AcadAnnotative
1000
AnnotativeData
1002
{
1070
     1
1070
     1
1002
}
  0
DIMENSION
  5
1B51
102
{ACAD_XDICTIONARY
360
1B52
102
}
102
{ACAD_REACTORS
330
1B62
102
}
330
1F
100
AcDbEntity
  8
寸法線
100
AcDbDimension
280
     0
  2
*D28
 10
3030.0
 20
612.5
 30
0.0
 11
3007.5
 21
837.5000000000005
 31
0.0
 70
    32
 71
     5
 42
449.9999999999999
 73
     0
 74
     0
 75
     0
  3
Annotative
100
AcDbAlignedDimension
 13
2855.0
 23
1062.5
 33
0.0
 14
2925.0
 24
612.5
 34
0.0
 50
90.0
100
AcDbRotatedDimension
1001
AcadAnnotative
1000
AnnotativeData
1002
{
1070
     1
1070
     1
1002
}
  0
DIMENSION
  5
1B7B
102
{ACAD_XDICTIONARY
360
1B7C
102
}
102
{ACAD_REACTORS
330
1B8D
102
}
330
1F
100
AcDbEntity
  8
寸法線
100
AcDbDimension
280
     0
  2
*D29
 10
2425.0
 20
1317.5
 30
0.0
 11
2367.39847715736
 21
1340.0
 31
0.0
 70
    32
 71
     5
 42
47.5
 73
     0
 74
     0
 75
     0
  3
Annotative
100
AcDbAlignedDimension
 13
2472.5
 23
1212.5
 33
0.0
 14
2425.0
 24
1206.5
 34
0.0
100
AcDbRotatedDimension
1001
AcadAnnotative
1000
AnnotativeData
1002
{
1070
     1
1070
     1
1002
}
  0
DIMENSION
  5
1CA0
102
{ACAD_XDICTIONARY
360
1CA1
102
}
102
{ACAD_REACTORS
330
1CB3
102
}
330
1F
100
AcDbEntity
  8
寸法線
100
AcDbDimension
280
     0
  2
*D30
 10
2477.5
 20
1317.5
 30
0.0
 11
2475.0
 21
1340.0
 31
0.0
 70
    32
 71
     5
 42
5.0
 73
     0
 74
     0
 75
     0
  3
Annotative
100
AcDbAlignedDimension
 13
2472.5
 23
1212.5
 33
0.0
 14
2477.5
 24
1152.5
 34
0.0
100
AcDbRotatedDimension
1001
AcadAnnotative
1000
AnnotativeData
1002
{
1070
     1
1070
     1
1002
}
  0
DIMENSION
  5
1CB4
102
{ACAD_XDICTIONARY
360
1CB5
102
}
102
{ACAD_REACTORS
330
1CC6
102
}
330
1F
100
AcDbEntity
  8
寸法線
100
AcDbDimension
280
     0
  2
*D31
 10
2525.0
 20
1317.5
 30
0.0
 11
2582.60152284264
 21
1340.0
 31
0.0
 70
    32
 71
     5
 42
47.5
 73
     0
 74
     0
 75
     0
  3
Annotative
100
AcDbAlignedDimension
 13
2477.5
 23
1152.5
 33
0.0
 14
2525.0
 24
1152.5
 34
0.0
100
AcDbRotatedDimension
1001
AcadAnnotative
1000
AnnotativeData
1002
{
1070
     1
1070
     1
1002
}
  0
LEADER
  5
1CE6
102
{ACAD_XDICTIONARY
360
1CE7
102
}
330
1F
100
AcDbEntity
  8
寸法線
100
AcDbLeader
  3
Annotative
 76
     2
 10
2428.0
 20
1209.5
 30
0.0
 10
2380.0
 20
1257.5
 30
0.0
1001
ACAD
1000
DSTYLE
1002
{
1070
    40
1040
0.0
1070
   147
1040
0.5
1070
    77
1070
     0
1002
}
1001
AcadAnnotative
1000
AnnotativeData
1002
{
1070
     1
1070
     1
1002
}
  0
TEXT
  5
1CEC
102
{ACAD_XDICTIONARY
360
1CED
102
}
330
1F
100
AcDbEntity
  8
寸法線
100
AcDbText
 10
2333.096446700508
 20
1262.982233502538
 30
0.0
 40
30.0
  1
C6
  7
Annotative
 72
     2
 11
2380.0
 21
1257.5
 31
0.0
100
AcDbText
 73
     1
1001
AcadAnnotative
1000
AnnotativeData
1002
{
1070
     1
1070
     1
1002
}
  0
LINE
  5
1CF1
330
1F
100
AcDbEntity
  8
寸法線
100
AcDbLine
 10
2380.0
 20
1257.5
 30
0.0
 11
2334.000583211834
 21
1257.5
 31
0.0
  0
LEADER
  5
1CF7
102
{ACAD_XDICTIONARY
360
1CF8
102
}
330
1F
100
AcDbEntity
  8
寸法線
100
AcDbLeader
  3
Annotative
 76
     2
 10
2877.770537388908
 20
1210.0
 30
0.0
 10
2829.770537388908
 20
1258.0
 30
0.0
1001
ACAD
1000
DSTYLE
1002
{
1070
    40
1040
0.0
1070
   147
1040
0.5
1070
    77
1070
     0
1002
}
1001
AcadAnnotative
1000
AnnotativeData
1002
{
1070
     1
1070
     1
1002
}
  0
TEXT
  5
1CFC
102
{ACAD_XDICTIONARY
360
1CFD
102
}
330
1F
100
AcDbEntity
  8
寸法線
100
AcDbText
 10
2784.38982672901
 20
1263.482233502538
 30
0.0
 40
30.0
  1
R5
  7
Annotative
 72
     2
 11
2829.770537388908
 21
1258.0
 31
0.0
100
AcDbText
 73
     1
1001
AcadAnnotative
1000
AnnotativeData
1002
{
1070
     1
1070
     1
1002
}
  0
LINE
  5
1D01
330
1F
100
AcDbEntity
  8
寸法線
100
AcDbLine
 10
2829.770537388908
 20
1258.0
 30
0.0
 11
2783.771120600741
 21
1258.0
 31
0.0
  0
TEXT
  5
1DBF
102
{ACAD_XDICTIONARY
360
1DC0
102
}
330
1F
100
AcDbEntity
  8
文字
100
AcDbText
 10
774.9999999999995
 20
1354.352791878173
 30
0.0
 40
37.5
  1
側面図
  7
Annotative
 11
774.9999999999995
 21
1347.5
 31
0.0
100
AcDbText
 73
     1
1001
AcadAnnotative
1000
AnnotativeData
1002
{
1070
     1
1070
     1
1002
}
  0
LINE
  5
1DC4
330
1F
100
AcDbEntity
  8
文字
100
AcDbLine
 10
774.9999999999995
 20
1347.5
 30
0.0
 11
921.3045752853977
 21
1347.5
 31
0.0
  0
TEXT
  5
1DC5
102
{ACAD_XDICTIONARY
360
1DC6
102
}
330
1F
100
AcDbEntity
  8
文字
100
AcDbText
 10
2215.0
 20
1429.352791878172
 30
0.0
 40
37.5
  1
断面図
  7
Annotative
 11
2215.0
 21
1422.5
 31
0.0
100
AcDbText
 73
     1
1001
AcadAnnotative
1000
AnnotativeData
1002
{
1070
     1
1070
     1
1002
}
  0
LINE
  5
1DCA
330
1F
100
AcDbEntity
  8
文字
100
AcDbLine
 10
2215.0
 20
1422.5
 30
0.0
 11
2361.304575285398
 21
1422.5
 31
0.0
  0
TEXT
  5
2093
102
{ACAD_XDICTIONARY
360
2094
102
}
330
1F
100
AcDbEntity
  8
文字
100
AcDbText
 10
775.0
 20
2624.352791878172
 30
0.0
 40
37.5
  1
平面図(上側)
  7
Annotative
 11
775.0
 21
2617.5
 31
0.0
100
AcDbText
 73
     1
1001
AcadAnnotative
1000
AnnotativeData
1002
{
1070
     1
1070
     1
1002
}
  0
LINE
  5
2098
330
1F
100
AcDbEntity
  8
文字
100
AcDbLine
 10
775.0
 20
2617.5
 30
0.0
 11
1051.105042785231
 21
2617.5
 31
0.0
  0
LINE
  5
209B
102
{ACAD_REACTORS
330
21D0
330
2209
330
223F
102
}
330
1F
100
AcDbEntity
  8
構造線
100
AcDbLine
 10
2425.0
 20
2302.5
 30
0.0
 11
2925.0
 21
2302.500000000001
 31
0.0
  0
LINE
  5
209C
102
{ACAD_REACTORS
330
2174
330
21E2
330
21F7
102
}
330
1F
100
AcDbEntity
  8
構造線
100
AcDbLine
 10
2525.0
 20
2202.500000000001
 30
0.0
 11
2825.0
 21
2202.500000000001
 31
0.0
  0
LINE
  5
209D
102
{ACAD_REACTORS
330
21D0
102
}
330
1F
100
AcDbEntity
  8
構造線
100
AcDbLine
 10
2425.0
 20
1802.500000000001
 30
0.0
 11
2925.000000000001
 21
1802.5
 31
0.0
  0
LINE
  5
209E
102
{ACAD_REACTORS
330
214E
330
2160
330
219A
330
21AC
102
}
330
1F
100
AcDbEntity
  8
中心線
100
AcDbLine
 10
2425.0
 20
2052.500000000001
 30
0.0
 11
2925.0
 21
2052.500000000001
 31
0.0
  0
LINE
  5
209F
102
{ACAD_REACTORS
330
2127
330
21BE
330
21E2
102
}
330
1F
100
AcDbEntity
  8
構造線
100
AcDbLine
 10
2525.0
 20
1902.5
 30
0.0
 11
2825.0
 21
1902.5
 31
0.0
  0
LINE
  5
20A0
102
{ACAD_REACTORS
330
20EC
330
2112
330
222D
102
}
330
1F
100
AcDbEntity
  8
構造線
100
AcDbLine
 10
2925.0
 20
2302.500000000001
 30
0.0
 11
2925.0
 21
1802.5
 31
0.0
  0
LINE
  5
20A1
102
{ACAD_REACTORS
330
2127
330
2139
330
2174
330
2186
102
}
330
1F
100
AcDbEntity
  8
中心線
100
AcDbLine
 10
2675.0
 20
2302.500000000001
 30
0.0
 11
2675.0
 21
1802.5
 31
0.0
  0
LINE
  5
20A2
102
{ACAD_REACTORS
330
219A
330
221B
330
222D
102
}
330
1F
100
AcDbEntity
  8
構造線
100
AcDbLine
 10
2825.0
 20
2202.500000000001
 30
0.0
 11
2825.0
 21
1902.5
 31
0.0
  0
LINE
  5
20A3
102
{ACAD_REACTORS
330
21BE
330
21F7
102
}
330
1F
100
AcDbEntity
  8
構造線
100
AcDbLine
 10
2425.0
 20
2302.5
 30
0.0
 11
2425.0
 21
1802.5
 31
0.0
  0
LINE
  5
20A4
102
{ACAD_REACTORS
330
214E
330
2209
330
221B
102
}
330
1F
100
AcDbEntity
  8
構造線
100
AcDbLine
 10
2525.0
 20
2202.500000000001
 30
0.0
 11
2525.0
 21
1902.5
 31
0.0
  0
LINE
  5
20B9
330
1F
100
AcDbEntity
  8
構造線
100
AcDbLine
 10
2425.0
 20
2217.500000000001
 30
0.0
 11
2495.0
 21
2202.5
 31
0.0
  0
LINE
  5
20BA
102
{ACAD_REACTORS
330
214E
330
2160
102
}
330
1F
100
AcDbEntity
  8
構造線
100
AcDbLine
 10
2495.000000000001
 20
2202.5
 30
0.0
 11
2495.0
 21
1902.5
 31
0.0
  0
LINE
  5
20BB
330
1F
100
AcDbEntity
  8
構造線
100
AcDbLine
 10
2495.0
 20
1902.5
 30
0.0
 11
2425.0
 21
1887.5
 31
0.0
  0
LINE
  5
20BC
330
1F
100
AcDbEntity
  8
構造線
100
AcDbLine
 10
2840.0
 20
2302.500000000001
 30
0.0
 11
2825.0
 21
2232.500000000001
 31
0.0
  0
LINE
  5
20BD
102
{ACAD_REACTORS
330
2174
330
2186
102
}
330
1F
100
AcDbEntity
  8
構造線
100
AcDbLine
 10
2825.0
 20
2232.500000000001
 30
0.0
 11
2525.0
 21
2232.500000000001
 31
0.0
  0
LINE
  5
20BE
330
1F
100
AcDbEntity
  8
構造線
100
AcDbLine
 10
2525.0
 20
2232.500000000001
 30
0.0
 11
2510.0
 21
2302.500000000001
 31
0.0
  0
LINE
  5
20BF
102
{ACAD_REACTORS
330
20D8
330
2100
330
2112
102
}
330
1F
100
AcDbEntity
  8
構造線
100
AcDbLine
 10
2925.000000000001
 20
1887.5
 30
0.0
 11
2855.0
 21
1902.500000000001
 31
0.0
  0
LINE
  5
20C0
102
{ACAD_REACTORS
330
20D8
330
2100
330
219A
330
21AC
102
}
330
1F
100
AcDbEntity
  8
構造線
100
AcDbLine
 10
2855.0
 20
1902.500000000001
 30
0.0
 11
2855.0
 21
2202.500000000001
 31
0.0
  0
LINE
  5
20C1
102
{ACAD_REACTORS
330
20EC
330
2112
102
}
330
1F
100
AcDbEntity
  8
構造線
100
AcDbLine
 10
2855.0
 20
2202.500000000001
 30
0.0
 11
2925.000000000001
 21
2217.500000000001
 31
0.0
  0
LINE
  5
20C2
330
1F
100
AcDbEntity
  8
構造線
100
AcDbLine
 10
2510.000000000001
 20
1802.5
 30
0.0
 11
2525.000000000001
 21
1872.5
 31
0.0
  0
LINE
  5
20C3
102
{ACAD_REACTORS
330
2127
330
2139
102
}
330
1F
100
AcDbEntity
  8
構造線
100
AcDbLine
 10
2525.000000000002
 20
1872.500000000001
 30
0.0
 11
2825.0
 21
1872.5
 31
0.0
  0
LINE
  5
20C4
330
1F
100
AcDbEntity
  8
構造線
100
AcDbLine
 10
2825.0
 20
1872.5
 30
0.0
 11
2840.0
 21
1802.5
 31
0.0
  0
DIMENSION
  5
20C7
102
{ACAD_XDICTIONARY
360
20C8
102
}
102
{ACAD_REACTORS
330
20D8
102
}
330
1F
100
AcDbEntity
  8
寸法線
100
AcDbDimension
280
     0
  2
*D32
 10
3030.0
 20
1902.500000000001
 30
0.0
 11
3007.5
 21
2052.500000000001
 31
0.0
 70
    32
 71
     5
 42
299.9999999999998
 73
     0
 74
     0
 75
     0
  3
Annotative
100
AcDbAlignedDimension
 13
2855.0
 23
2202.500000000001
 33
0.0
 14
2855.0
 24
1902.500000000001
 34
0.0
 50
90.0
100
AcDbRotatedDimension
1001
AcadAnnotative
1000
AnnotativeData
1002
{
1070
     1
1070
     1
1002
}
  0
DIMENSION
  5
20D9
102
{ACAD_XDICTIONARY
360
20DA
102
}
102
{ACAD_REACTORS
330
20EC
102
}
330
1F
100
AcDbEntity
  8
寸法線
100
AcDbDimension
280
     0
  2
*D33
 10
3030.0
 20
2217.500000000001
 30
0.0
 11
3007.5
 21
2273.197969543149
 31
0.0
 70
    32
 71
     5
 42
15.0
 73
     0
 74
     0
 75
     0
  3
Annotative
100
AcDbAlignedDimension
 13
2855.0
 23
2202.500000000001
 33
0.0
 14
2925.0
 24
2217.500000000001
 34
0.0
 50
90.0
100
AcDbRotatedDimension
1001
AcadAnnotative
1000
AnnotativeData
1002
{
1070
     1
1070
     1
1002
}
  0
DIMENSION
  5
20ED
102
{ACAD_XDICTIONARY
360
20EE
102
}
102
{ACAD_REACTORS
330
2100
102
}
330
1F
100
AcDbEntity
  8
寸法線
100
AcDbDimension
280
     0
  2
*D34
 10
3030.0
 20
1887.5
 30
0.0
 11
3007.5
 21
1831.802030456854
 31
0.0
 70
    32
 71
     5
 42
15.00000000000045
 73
     0
 74
     0
 75
     0
  3
Annotative
100
AcDbAlignedDimension
 13
2855.0
 23
1902.500000000001
 33
0.0
 14
2925.000000000001
 24
1887.5
 34
0.0
 50
90.0
100
AcDbRotatedDimension
1001
AcadAnnotative
1000
AnnotativeData
1002
{
1070
     1
1070
     1
1002
}
  0
DIMENSION
  5
2101
102
{ACAD_XDICTIONARY
360
2102
102
}
102
{ACAD_REACTORS
330
2112
102
}
330
1F
100
AcDbEntity
  8
寸法線
100
AcDbDimension
280
     0
  2
*D35
 10
3135.0
 20
2217.5
 30
0.0
 11
3112.5
 21
2052.500000000001
 31
0.0
 70
    32
 71
     5
 42
329.9999999999998
 73
     0
 74
     0
 75
     0
  3
Annotative
100
AcDbAlignedDimension
 13
2925.000000000001
 23
1887.5
 33
0.0
 14
2925.0
 24
2217.500000000001
 34
0.0
 50
90.0
100
AcDbRotatedDimension
1001
AcadAnnotative
1000
AnnotativeData
1002
{
1070
     1
1070
     1
1002
}
  0
DIMENSION
  5
2114
102
{ACAD_XDICTIONARY
360
2115
102
}
102
{ACAD_REACTORS
330
2127
102
}
330
1F
100
AcDbEntity
  8
寸法線
100
AcDbDimension
280
     0
  2
*D36
 10
2600.0
 20
1902.5
 30
0.0
 11
2577.5
 21
1959.720812182742
 31
0.0
 70
    32
 71
     5
 42
30.0
 73
     0
 74
     0
 75
     0
  3
Annotative
100
AcDbAlignedDimension
 13
2675.0
 23
1872.500000000001
 33
0.0
 14
2675.0
 24
1902.5
 34
0.0
 50
90.0
100
AcDbRotatedDimension
1001
AcadAnnotative
1000
AnnotativeData
1002
{
1070
     1
1070
     1
1002
}
  0
DIMENSION
  5
2128
102
{ACAD_XDICTIONARY
360
2129
102
}
102
{ACAD_REACTORS
330
2139
102
}
330
1F
100
AcDbEntity
  8
寸法線
100
AcDbDimension
280
     0
  2
*D37
 10
2600.0
 20
1802.5
 30
0.0
 11
2577.5
 21
1837.500000000001
 31
0.0
 70
    32
 71
     5
 42
70.00000000000023
 73
     0
 74
     0
 75
     0
  3
Annotative
100
AcDbAlignedDimension
 13
2675.0
 23
1872.500000000001
 33
0.0
 14
2675.0
 24
1802.5
 34
0.0
 50
90.0
100
AcDbRotatedDimension
1001
AcadAnnotative
1000
AnnotativeData
1002
{
1070
     1
1070
     1
1002
}
  0
DIMENSION
  5
213B
102
{ACAD_XDICTIONARY
360
213C
102
}
102
{ACAD_REACTORS
330
214E
102
}
330
1F
100
AcDbEntity
  8
寸法線
100
AcDbDimension
280
     0
  2
*D38
 10
2525.0
 20
2127.500000000001
 30
0.0
 11
2582.220812182742
 21
2150.000000000002
 31
0.0
 70
    32
 71
     5
 42
30.0
 73
     0
 74
     0
 75
     0
  3
Annotative
100
AcDbAlignedDimension
 13
2495.000000000001
 23
2052.500000000001
 33
0.0
 14
2525.0
 24
2052.500000000001
 34
0.0
100
AcDbRotatedDimension
1001
AcadAnnotative
1000
AnnotativeData
1002
{
1070
     1
1070
     1
1002
}
  0
DIMENSION
  5
214F
102
{ACAD_XDICTIONARY
360
2150
102
}
102
{ACAD_REACTORS
330
2160
102
}
330
1F
100
AcDbEntity
  8
寸法線
100
AcDbDimension
280
     0
  2
*D39
 10
2425.0
 20
2127.500000000001
 30
0.0
 11
2460.0
 21
2150.000000000002
 31
0.0
 70
    32
 71
     5
 42
70.00000000000046
 73
     0
 74
     0
 75
     0
  3
Annotative
100
AcDbAlignedDimension
 13
2495.000000000001
 23
2052.500000000001
 33
0.0
 14
2425.0
 24
2052.500000000001
 34
0.0
100
AcDbRotatedDimension
1001
AcadAnnotative
1000
AnnotativeData
1002
{
1070
     1
1070
     1
1002
}
  0
DIMENSION
  5
2161
102
{ACAD_XDICTIONARY
360
2162
102
}
102
{ACAD_REACTORS
330
2174
102
}
330
1F
100
AcDbEntity
  8
寸法線
100
AcDbDimension
280
     0
  2
*D40
 10
2749.999999999998
 20
2202.500000000001
 30
0.0
 11
2727.499999999998
 21
2145.27918781726
 31
0.0
 70
    32
 71
     5
 42
29.99999999999955
 73
     0
 74
     0
 75
     0
  3
Annotative
100
AcDbAlignedDimension
 13
2675.0
 23
2232.500000000001
 33
0.0
 14
2675.0
 24
2202.500000000001
 34
0.0
 50
90.0
100
AcDbRotatedDimension
1001
AcadAnnotative
1000
AnnotativeData
1002
{
1070
     1
1070
     1
1002
}
  0
DIMENSION
  5
2175
102
{ACAD_XDICTIONARY
360
2176
102
}
102
{ACAD_REACTORS
330
2186
102
}
330
1F
100
AcDbEntity
  8
寸法線
100
AcDbDimension
280
     0
  2
*D41
 10
2749.999999999998
 20
2302.500000000001
 30
0.0
 11
2727.499999999998
 21
2267.500000000001
 31
0.0
 70
    32
 71
     5
 42
70.0
 73
     0
 74
     0
 75
     0
  3
Annotative
100
AcDbAlignedDimension
 13
2675.0
 23
2232.500000000001
 33
0.0
 14
2675.0
 24
2302.500000000001
 34
0.0
 50
90.0
100
AcDbRotatedDimension
1001
AcadAnnotative
1000
AnnotativeData
1002
{
1070
     1
1070
     1
1002
}
  0
DIMENSION
  5
2187
102
{ACAD_XDICTIONARY
360
2188
102
}
102
{ACAD_REACTORS
330
219A
102
}
330
1F
100
AcDbEntity
  8
寸法線
100
AcDbDimension
280
     0
  2
*D42
 10
2825.0
 20
1977.5
 30
0.0
 11
2767.779187817259
 21
2000.0
 31
0.0
 70
    32
 71
     5
 42
30.0
 73
     0
 74
     0
 75
     0
  3
Annotative
100
AcDbAlignedDimension
 13
2855.0
 23
2052.500000000001
 33
0.0
 14
2825.0
 24
2052.500000000001
 34
0.0
100
AcDbRotatedDimension
1001
AcadAnnotative
1000
AnnotativeData
1002
{
1070
     1
1070
     1
1002
}
  0
DIMENSION
  5
219B
102
{ACAD_XDICTIONARY
360
219C
102
}
102
{ACAD_REACTORS
330
21AC
102
}
330
1F
100
AcDbEntity
  8
寸法線
100
AcDbDimension
280
     0
  2
*D43
 10
2925.0
 20
1977.5
 30
0.0
 11
2890.0
 21
2000.0
 31
0.0
 70
    32
 71
     5
 42
70.0
 73
     0
 74
     0
 75
     0
  3
Annotative
100
AcDbAlignedDimension
 13
2855.0
 23
2052.500000000001
 33
0.0
 14
2925.0
 24
2052.500000000001
 34
0.0
100
AcDbRotatedDimension
1001
AcadAnnotative
1000
AnnotativeData
1002
{
1070
     1
1070
     1
1002
}
  0
DIMENSION
  5
21AD
102
{ACAD_XDICTIONARY
360
21AE
102
}
102
{ACAD_REACTORS
330
21BE
102
}
330
1F
100
AcDbEntity
  8
寸法線
100
AcDbDimension
280
     0
  2
*D44
 10
2320.0
 20
1802.5
 30
0.0
 11
2297.499999999999
 21
1852.5
 31
0.0
 70
    32
 71
     5
 42
99.99999999999978
 73
     0
 74
     0
 75
     0
  3
Annotative
100
AcDbAlignedDimension
 13
2525.0
 23
1902.5
 33
0.0
 14
2425.0
 24
1802.5
 34
0.0
 50
90.0
100
AcDbRotatedDimension
1001
AcadAnnotative
1000
AnnotativeData
1002
{
1070
     1
1070
     1
1002
}
  0
DIMENSION
  5
21BF
102
{ACAD_XDICTIONARY
360
21C0
102
}
102
{ACAD_REACTORS
330
21D0
102
}
330
1F
100
AcDbEntity
  8
寸法線
100
AcDbDimension
280
     0
  2
*D45
 10
2215.0
 20
2302.5
 30
0.0
 11
2192.5
 21
2052.500000000001
 31
0.0
 70
    32
 71
     5
 42
499.9999999999986
 73
     0
 74
     0
 75
     0
  3
Annotative
100
AcDbAlignedDimension
 13
2425.0
 23
1802.500000000001
 33
0.0
 14
2425.0
 24
2302.5
 34
0.0
 50
90.0
100
AcDbRotatedDimension
1001
AcadAnnotative
1000
AnnotativeData
1002
{
1070
     1
1070
     1
1002
}
  0
DIMENSION
  5
21D1
102
{ACAD_XDICTIONARY
360
21D2
102
}
102
{ACAD_REACTORS
330
21E2
102
}
330
1F
100
AcDbEntity
  8
寸法線
100
AcDbDimension
280
     0
  2
*D46
 10
2320.000000000001
 20
2202.500000000001
 30
0.0
 11
2297.5
 21
2052.500000000001
 31
0.0
 70
    32
 71
     5
 42
300.0000000000002
 73
     0
 74
     0
 75
     0
  3
Annotative
100
AcDbAlignedDimension
 13
2525.0
 23
1902.5
 33
0.0
 14
2525.0
 24
2202.500000000001
 34
0.0
 50
90.0
100
AcDbRotatedDimension
1001
AcadAnnotative
1000
AnnotativeData
1002
{
1070
     1
1070
     1
1002
}
  0
DIMENSION
  5
21E6
102
{ACAD_XDICTIONARY
360
21E7
102
}
102
{ACAD_REACTORS
330
21F7
102
}
330
1F
100
AcDbEntity
  8
寸法線
100
AcDbDimension
280
     0
  2
*D47
 10
2320.0
 20
2302.5
 30
0.0
 11
2297.499999999999
 21
2252.500000000001
 31
0.0
 70
    32
 71
     5
 42
99.99999999999955
 73
     0
 74
     0
 75
     0
  3
Annotative
100
AcDbAlignedDimension
 13
2525.0
 23
2202.500000000001
 33
0.0
 14
2425.0
 24
2302.5
 34
0.0
 50
90.0
100
AcDbRotatedDimension
1001
AcadAnnotative
1000
AnnotativeData
1002
{
1070
     1
1070
     1
1002
}
  0
DIMENSION
  5
21F8
102
{ACAD_XDICTIONARY
360
21F9
102
}
102
{ACAD_REACTORS
330
2209
102
}
330
1F
100
AcDbEntity
  8
寸法線
100
AcDbDimension
280
     0
  2
*D48
 10
2425.0
 20
2407.499999999999
 30
0.0
 11
2475.0
 21
2429.999999999999
 31
0.0
 70
    32
 71
     5
 42
100.0
 73
     0
 74
     0
 75
     0
  3
Annotative
100
AcDbAlignedDimension
 13
2525.0
 23
2202.500000000001
 33
0.0
 14
2425.0
 24
2302.5
 34
0.0
100
AcDbRotatedDimension
1001
AcadAnnotative
1000
AnnotativeData
1002
{
1070
     1
1070
     1
1002
}
  0
DIMENSION
  5
220A
102
{ACAD_XDICTIONARY
360
220B
102
}
102
{ACAD_REACTORS
330
221B
102
}
330
1F
100
AcDbEntity
  8
寸法線
100
AcDbDimension
280
     0
  2
*D49
 10
2825.0
 20
2407.500000000001
 30
0.0
 11
2675.0
 21
2430.000000000001
 31
0.0
 70
    32
 71
     5
 42
300.0
 73
     0
 74
     0
 75
     0
  3
Annotative
100
AcDbAlignedDimension
 13
2525.0
 23
2202.500000000001
 33
0.0
 14
2825.0
 24
2202.500000000001
 34
0.0
100
AcDbRotatedDimension
1001
AcadAnnotative
1000
AnnotativeData
1002
{
1070
     1
1070
     1
1002
}
  0
DIMENSION
  5
221C
102
{ACAD_XDICTIONARY
360
221D
102
}
102
{ACAD_REACTORS
330
222D
102
}
330
1F
100
AcDbEntity
  8
寸法線
100
AcDbDimension
280
     0
  2
*D50
 10
2925.0
 20
2407.5
 30
0.0
 11
2875.0
 21
2430.0
 31
0.0
 70
    32
 71
     5
 42
100.0
 73
     0
 74
     0
 75
     0
  3
Annotative
100
AcDbAlignedDimension
 13
2825.0
 23
2202.500000000001
 33
0.0
 14
2925.0
 24
2302.500000000001
 34
0.0
100
AcDbRotatedDimension
1001
AcadAnnotative
1000
AnnotativeData
1002
{
1070
     1
1070
     1
1002
}
  0
DIMENSION
  5
222E
102
{ACAD_XDICTIONARY
360
222F
102
}
102
{ACAD_REACTORS
330
223F
102
}
330
1F
100
AcDbEntity
  8
寸法線
100
AcDbDimension
280
     0
  2
*D51
 10
2425.0
 20
2512.5
 30
0.0
 11
2675.0
 21
2535.0
 31
0.0
 70
    32
 71
     5
 42
500.0
 73
     0
 74
     0
 75
     0
  3
Annotative
100
AcDbAlignedDimension
 13
2925.0
 23
2302.500000000001
 33
0.0
 14
2425.0
 24
2302.5
 34
0.0
100
AcDbRotatedDimension
1001
AcadAnnotative
1000
AnnotativeData
1002
{
1070
     1
1070
     1
1002
}
  0
TEXT
  5
2240
102
{ACAD_XDICTIONARY
360
2241
102
}
330
1F
100
AcDbEntity
  8
文字
100
AcDbText
 10
2215.0
 20
2624.352791878172
 30
0.0
 40
37.5
  1
平面図(下側)
  7
Annotative
 11
2215.0
 21
2617.5
 31
0.0
100
AcDbText
 73
     1
1001
AcadAnnotative
1000
AnnotativeData
1002
{
1070
     1
1070
     1
1002
}
  0
LINE
  5
2245
330
1F
100
AcDbEntity
  8
文字
100
AcDbLine
 10
2215.0
 20
2617.5
 30
0.0
 11
2491.105042785232
 21
2617.5
 31
0.0
  0
LINE
  5
230F
330
1F
100
AcDbEntity
  8
図面枠
100
AcDbLine
 10
3255.0
 20
255.0
 30
0.0
 11
4305.0
 21
255.0
 31
0.0
  0
LINE
  5
2310
330
1F
100
AcDbEntity
  8
図面枠
100
AcDbLine
 10
3255.0
 20
360.0
 30
0.0
 11
4305.0
 21
360.0
 31
0.0
  0
LINE
  5
2311
330
1F
100
AcDbEntity
  8
図面枠
100
AcDbLine
 10
3255.0
 20
465.0
 30
0.0
 11
4305.0
 21
465.0
 31
0.0
  0
LINE
  5
2312
330
1F
100
AcDbEntity
  8
図面枠
100
AcDbLine
 10
3255.0
 20
570.0
 30
0.0
 11
4305.0
 21
570.0
 31
0.0
  0
LINE
  5
2313
330
1F
100
AcDbEntity
  8
図面枠
100
AcDbLine
 10
3255.0
 20
570.0
 30
0.0
 11
3255.0
 21
150.0
 31
0.0
  0
LINE
  5
250E
330
1F
100
AcDbEntity
  8
図面枠
100
AcDbLine
 10
3555.0
 20
570.0
 30
0.0
 11
3555.0
 21
255.0
 31
0.0
  0
TEXT
  5
2515
102
{ACAD_XDICTIONARY
360
2516
102
}
330
1F
100
AcDbEntity
  8
文字
100
AcDbText
 10
3397.290609137056
 20
185.0824873096446
 30
0.0
 40
37.5
  1
栗本建材株式会社　クリモトコンクリート
  7
Annotative
 72
     4
 11
3780.0
 21
202.5
 31
0.0
100
AcDbText
1001
AcadAnnotative
1000
AnnotativeData
1002
{
1070
     1
1070
     1
1002
}
  0
TEXT
  5
251A
102
{ACAD_XDICTIONARY
360
251B
102
}
330
1F
100
AcDbEntity
  8
文字
100
AcDbText
 10
3307.53807106599
 20
288.75
 30
0.0
 40
37.5
  1
参考重量
  7
Annotative
 72
     1
 11
3405.0
 21
307.5
 31
0.0
100
AcDbText
 73
     2
1001
AcadAnnotative
1000
AnnotativeData
1002
{
1070
     1
1070
     1
1002
}
  0
TEXT
  5
251F
102
{ACAD_XDICTIONARY
360
2520
102
}
330
1F
100
AcDbEntity
  8
文字
100
AcDbText
 10
3847.861675126904
 20
288.75
 30
0.0
 40
37.5
  1
１１７ kg
  7
Annotative
 72
     1
 11
3930.0
 21
307.5
 31
0.0
100
AcDbText
 73
     2
1001
AcadAnnotative
1000
AnnotativeData
1002
{
1070
     1
1070
     1
1002
}
  0
TEXT
  5
2524
102
{ACAD_XDICTIONARY
360
2525
102
}
330
1F
100
AcDbEntity
  8
文字
100
AcDbText
 10
3334.473350253807
 20
393.75
 30
0.0
 40
37.5
  1
呼び名
  7
Annotative
 72
     1
 11
3405.0
 21
412.5
 31
0.0
100
AcDbText
 73
     2
1001
AcadAnnotative
1000
AnnotativeData
1002
{
1070
     1
1070
     1
1002
}
  0
TEXT
  5
2529
102
{ACAD_XDICTIONARY
360
252A
102
}
330
1F
100
AcDbEntity
  8
文字
100
AcDbText
 10
3736.5038071066
 20
393.75
 30
0.0
 40
37.5
  1
３００×３００×６００
  7
Annotative
 72
     1
 11
3930.0
 21
412.5
 31
0.0
100
AcDbText
 73
     2
1001
AcadAnnotative
1000
AnnotativeData
1002
{
1070
     1
1070
     1
1002
}
  0
TEXT
  5
252E
102
{ACAD_XDICTIONARY
360
252F
102
}
330
1F
100
AcDbEntity
  8
文字
100
AcDbText
 10
3331.903553299492
 20
498.7499999999999
 30
0.0
 40
37.5
  1
製品名
  7
Annotative
 72
     1
 11
3405.0
 21
517.4999999999999
 31
0.0
100
AcDbText
 73
     2
1001
AcadAnnotative
1000
AnnotativeData
1002
{
1070
     1
1070
     1
1002
}
  0
TEXT
  5
2533
102
{ACAD_XDICTIONARY
360
2534
102
}
330
1F
100
AcDbEntity
  8
文字
100
AcDbText
 10
3759.917512690356
 20
498.7499999999999
 30
0.0
 40
37.5
  1
ＫＣ公団桝・本体
  7
Annotative
 72
     1
 11
3930.0
 21
517.4999999999999
 31
0.0
100
AcDbText
 73
     2
1001
AcadAnnotative
1000
AnnotativeData
1002
{
1070
     1
1070
     1
1002
}
  0
VIEWPORT
  5
1861
102
{ACAD_XDICTIONARY
360
1862
102
}
330
185A
100
AcDbEntity
 67
     1
  8
0
100
AcDbViewport
 10
143.4359283447265
 20
99.95958089828491
 30
0.0
 40
544.0135783691754
 41
236.227766201512
 68
     1
 69
     1
 12
143.4359283447265
 22
99.95958089828491
 13
0.0
 23
0.0
 14
10.0
 24
10.0
 15
10.0
 25
10.0
 16
0.0
 26
0.0
 36
1.0
 17
0.0
 27
0.0
 37
0.0
 42
50.0
 43
0.0
 44
0.0
 45
236.227766201512
 50
0.0
 51
0.0
 72
  1000
 90
   557088
  1

281
     0
 71
     1
 74
     0
110
0.0
120
0.0
130
0.0
111
1.0
121
0.0
131
0.0
112
0.0
122
1.0
132
0.0
 79
     0
146
0.0
170
     0
 61
     5
348
F5
292
     1
282
     1
141
0.0
142
0.0
 63
   250
421
  3355443
  0
VIEWPORT
  5
1865
102
{ACAD_XDICTIONARY
360
1866
102
}
330
185A
100
AcDbEntity
 67
     1
  8
文字
100
AcDbViewport
 10
143.5
 20
100.0
 30
0.0
 40
297.0
 41
210.0
 68
     2
 69
     2
 12
2227.500010372606
 22
1575.000007334166
 13
0.0
 23
0.0
 14
10.0
 24
10.0
 15
10.0
 25
10.0
 16
0.0
 26
0.0
 36
1.0
 17
0.0
 27
0.0
 37
0.0
 42
50.0
 43
0.0
 44
0.0
 45
3176.084251926595
 50
0.0
 51
0.0
 72
  1000
 90
   819808
  1

281
     0
 71
     1
 74
     0
110
0.0
120
0.0
130
0.0
111
1.0
121
0.0
131
0.0
112
0.0
122
1.0
132
0.0
 79
     0
146
0.0
170
     0
 61
     5
348
F5
292
     1
282
     1
141
0.0
142
0.0
 63
   250
421
  3355443
  0
ENDSEC
  0
SECTION
  2
OBJECTS
  0
DICTIONARY
  5
C
330
0
100
AcDbDictionary
281
     1
  3
ACAD_CIP_PREVIOUS_PRODUCT_INFO
350
216
  3
ACAD_COLOR
350
6B
  3
ACAD_DETAILVIEWSTYLE
350
21B
  3
ACAD_GROUP
350
D
  3
ACAD_LAYOUT
350
1A
  3
ACAD_MATERIAL
350
6A
  3
ACAD_MLEADERSTYLE
350
12D
  3
ACAD_MLINESTYLE
350
17
  3
ACAD_PLOTSETTINGS
350
19
  3
ACAD_PLOTSTYLENAME
350
E
  3
ACAD_SCALELIST
350
10C
  3
ACAD_SECTIONVIEWSTYLE
350
219
  3
ACAD_TABLESTYLE
350
7E
  3
ACAD_VISUALSTYLE
350
EF
  3
AcadDim_CRX
350
15DA
  3
ACDB_RECOMPOSE_DATA
350
312C
  3
AcDbVariableDictionary
350
5E
  0
DICTIONARY
  5
1FF
330
2
100
AcDbDictionary
280
     1
281
     1
  3
ACAD_LAYERSTATES
360
200
  0
DICTIONARY
  5
13C
330
10
100
AcDbDictionary
280
     1
281
     1
  0
DICTIONARY
  5
1CE
330
1F
100
AcDbDictionary
280
     1
281
     1
  3
ACAD_SORTENTS
360
256
  0
DICTIONARY
  5
1950
330
194F
100
AcDbDictionary
280
     1
281
     1
  3
ACAD_DIMASSOC
360
1960
  3
AcDbContextDataManager
360
1951
  0
DICTIONARY
  5
1962
330
1961
100
AcDbDictionary
280
     1
281
     1
  3
ACAD_DIMASSOC
360
1972
  3
AcDbContextDataManager
360
1963
  0
DICTIONARY
  5
1974
330
1973
100
AcDbDictionary
280
     1
281
     1
  3
ACAD_DIMASSOC
360
1984
  3
AcDbContextDataManager
360
1975
  0
DICTIONARY
  5
1986
330
1985
100
AcDbDictionary
280
     1
281
     1
  3
ACAD_DIMASSOC
360
1996
  3
AcDbContextDataManager
360
1987
  0
DICTIONARY
  5
1998
330
1997
100
AcDbDictionary
280
     1
281
     1
  3
ACAD_DIMASSOC
360
19A8
  3
AcDbContextDataManager
360
1999
  0
DICTIONARY
  5
19AA
330
19A9
100
AcDbDictionary
280
     1
281
     1
  3
ACAD_DIMASSOC
360
19BA
  3
AcDbContextDataManager
360
19AB
  0
DICTIONARY
  5
19BC
330
19BB
100
AcDbDictionary
280
     1
281
     1
  3
ACAD_DIMASSOC
360
19CC
  3
AcDbContextDataManager
360
19BD
  0
DICTIONARY
  5
19CE
330
19CD
100
AcDbDictionary
280
     1
281
     1
  3
ACAD_DIMASSOC
360
19DE
  3
AcDbContextDataManager
360
19CF
  0
DICTIONARY
  5
19E2
330
19E1
100
AcDbDictionary
280
     1
281
     1
  3
ACAD_DIMASSOC
360
19F4
  3
AcDbContextDataManager
360
19E3
  0
DICTIONARY
  5
19F6
330
19F5
100
AcDbDictionary
280
     1
281
     1
  3
ACAD_DIMASSOC
360
1A06
  3
AcDbContextDataManager
360
19F7
  0
DICTIONARY
  5
1A08
330
1A07
100
AcDbDictionary
280
     1
281
     1
  3
ACAD_DIMASSOC
360
1A1A
  3
AcDbContextDataManager
360
1A09
  0
DICTIONARY
  5
1A1C
330
1A1B
100
AcDbDictionary
280
     1
281
     1
  3
ACAD_DIMASSOC
360
1A2C
  3
AcDbContextDataManager
360
1A1D
  0
DICTIONARY
  5
1A2E
330
1A2D
100
AcDbDictionary
280
     1
281
     1
  3
ACAD_DIMASSOC
360
1A3E
  3
AcDbContextDataManager
360
1A2F
  0
DICTIONARY
  5
1A4B
330
1A4A
100
AcDbDictionary
280
     1
281
     1
  3
ACAD_DIMASSOC
360
1A5B
  3
AcDbContextDataManager
360
1A4C
  0
DICTIONARY
  5
1A5D
330
1A5C
100
AcDbDictionary
280
     1
281
     1
  3
ACAD_DIMASSOC
360
1A6F
  3
AcDbContextDataManager
360
1A5E
  0
DICTIONARY
  5
1A71
330
1A70
100
AcDbDictionary
280
     1
281
     1
  3
ACAD_DIMASSOC
360
1A83
  3
AcDbContextDataManager
360
1A72
  0
DICTIONARY
  5
1A85
330
1A84
100
AcDbDictionary
280
     1
281
     1
  3
ACAD_DIMASSOC
360
1A95
  3
AcDbContextDataManager
360
1A86
  0
DICTIONARY
  5
1A97
330
1A96
100
AcDbDictionary
280
     1
281
     1
  3
ACAD_DIMASSOC
360
1AA7
  3
AcDbContextDataManager
360
1A98
  0
DICTIONARY
  5
1AA9
330
1AA8
100
AcDbDictionary
280
     1
281
     1
  3
ACAD_DIMASSOC
360
1AB9
  3
AcDbContextDataManager
360
1AAA
  0
DICTIONARY
  5
1ABB
330
1ABA
100
AcDbDictionary
280
     1
281
     1
  3
ACAD_DIMASSOC
360
1ACB
  3
AcDbContextDataManager
360
1ABC
  0
DICTIONARY
  5
1ACD
330
1ACC
100
AcDbDictionary
280
     1
281
     1
  3
ACAD_DIMASSOC
360
1ADF
  3
AcDbContextDataManager
360
1ACE
  0
DICTIONARY
  5
1AE1
330
1AE0
100
AcDbDictionary
280
     1
281
     1
  3
ACAD_DIMASSOC
360
1AF1
  3
AcDbContextDataManager
360
1AE2
  0
DICTIONARY
  5
1AF7
330
1AF6
100
AcDbDictionary
280
     1
281
     1
  3
ACAD_DIMASSOC
360
1B07
  3
AcDbContextDataManager
360
1AF8
  0
DICTIONARY
  5
1B09
330
1B08
100
AcDbDictionary
280
     1
281
     1
  3
ACAD_DIMASSOC
360
1B19
  3
AcDbContextDataManager
360
1B0A
  0
DICTIONARY
  5
1B1B
330
1B1A
100
AcDbDictionary
280
     1
281
     1
  3
ACAD_DIMASSOC
360
1B2B
  3
AcDbContextDataManager
360
1B1C
  0
DICTIONARY
  5
1B2D
330
1B2C
100
AcDbDictionary
280
     1
281
     1
  3
ACAD_DIMASSOC
360
1B3D
  3
AcDbContextDataManager
360
1B2E
  0
DICTIONARY
  5
1B3F
330
1B3E
100
AcDbDictionary
280
     1
281
     1
  3
ACAD_DIMASSOC
360
1B50
  3
AcDbContextDataManager
360
1B40
  0
DICTIONARY
  5
1B52
330
1B51
100
AcDbDictionary
280
     1
281
     1
  3
ACAD_DIMASSOC
360
1B62
  3
AcDbContextDataManager
360
1B53
  0
DICTIONARY
  5
1B7C
330
1B7B
100
AcDbDictionary
280
     1
281
     1
  3
ACAD_DIMASSOC
360
1B8D
  3
AcDbContextDataManager
360
1B7D
  0
DICTIONARY
  5
1CA1
330
1CA0
100
AcDbDictionary
280
     1
281
     1
  3
ACAD_DIMASSOC
360
1CB3
  3
AcDbContextDataManager
360
1CA2
  0
DICTIONARY
  5
1CB5
330
1CB4
100
AcDbDictionary
280
     1
281
     1
  3
ACAD_DIMASSOC
360
1CC6
  3
AcDbContextDataManager
360
1CB6
  0
DICTIONARY
  5
1CE7
330
1CE6
100
AcDbDictionary
280
     1
281
     1
  3
AcDbContextDataManager
360
1CE8
  0
DICTIONARY
  5
1CED
330
1CEC
100
AcDbDictionary
280
     1
281
     1
  3
AcDbContextDataManager
360
1CEE
  0
DICTIONARY
  5
1CF8
330
1CF7
100
AcDbDictionary
280
     1
281
     1
  3
AcDbContextDataManager
360
1CF9
  0
DICTIONARY
  5
1CFD
330
1CFC
100
AcDbDictionary
280
     1
281
     1
  3
AcDbContextDataManager
360
1CFE
  0
DICTIONARY
  5
1DC0
330
1DBF
100
AcDbDictionary
280
     1
281
     1
  3
AcDbContextDataManager
360
1DC1
  0
DICTIONARY
  5
1DC6
330
1DC5
100
AcDbDictionary
280
     1
281
     1
  3
AcDbContextDataManager
360
1DC7
  0
DICTIONARY
  5
2094
330
2093
100
AcDbDictionary
280
     1
281
     1
  3
AcDbContextDataManager
360
2095
  0
DICTIONARY
  5
20C8
330
20C7
100
AcDbDictionary
280
     1
281
     1
  3
ACAD_DIMASSOC
360
20D8
  3
AcDbContextDataManager
360
20C9
  0
DICTIONARY
  5
20DA
330
20D9
100
AcDbDictionary
280
     1
281
     1
  3
ACAD_DIMASSOC
360
20EC
  3
AcDbContextDataManager
360
20DB
  0
DICTIONARY
  5
20EE
330
20ED
100
AcDbDictionary
280
     1
281
     1
  3
ACAD_DIMASSOC
360
2100
  3
AcDbContextDataManager
360
20EF
  0
DICTIONARY
  5
2102
330
2101
100
AcDbDictionary
280
     1
281
     1
  3
ACAD_DIMASSOC
360
2112
  3
AcDbContextDataManager
360
2103
  0
DICTIONARY
  5
2115
330
2114
100
AcDbDictionary
280
     1
281
     1
  3
ACAD_DIMASSOC
360
2127
  3
AcDbContextDataManager
360
2116
  0
DICTIONARY
  5
2129
330
2128
100
AcDbDictionary
280
     1
281
     1
  3
ACAD_DIMASSOC
360
2139
  3
AcDbContextDataManager
360
212A
  0
DICTIONARY
  5
213C
330
213B
100
AcDbDictionary
280
     1
281
     1
  3
ACAD_DIMASSOC
360
214E
  3
AcDbContextDataManager
360
213D
  0
DICTIONARY
  5
2150
330
214F
100
AcDbDictionary
280
     1
281
     1
  3
ACAD_DIMASSOC
360
2160
  3
AcDbContextDataManager
360
2151
  0
DICTIONARY
  5
2162
330
2161
100
AcDbDictionary
280
     1
281
     1
  3
ACAD_DIMASSOC
360
2174
  3
AcDbContextDataManager
360
2163
  0
DICTIONARY
  5
2176
330
2175
100
AcDbDictionary
280
     1
281
     1
  3
ACAD_DIMASSOC
360
2186
  3
AcDbContextDataManager
360
2177
  0
DICTIONARY
  5
2188
330
2187
100
AcDbDictionary
280
     1
281
     1
  3
ACAD_DIMASSOC
360
219A
  3
AcDbContextDataManager
360
2189
  0
DICTIONARY
  5
219C
330
219B
100
AcDbDictionary
280
     1
281
     1
  3
ACAD_DIMASSOC
360
21AC
  3
AcDbContextDataManager
360
219D
  0
DICTIONARY
  5
21AE
330
21AD
100
AcDbDictionary
280
     1
281
     1
  3
ACAD_DIMASSOC
360
21BE
  3
AcDbContextDataManager
360
21AF
  0
DICTIONARY
  5
21C0
330
21BF
100
AcDbDictionary
280
     1
281
     1
  3
ACAD_DIMASSOC
360
21D0
  3
AcDbContextDataManager
360
21C1
  0
DICTIONARY
  5
21D2
330
21D1
100
AcDbDictionary
280
     1
281
     1
  3
ACAD_DIMASSOC
360
21E2
  3
AcDbContextDataManager
360
21D3
  0
DICTIONARY
  5
21E7
330
21E6
100
AcDbDictionary
280
     1
281
     1
  3
ACAD_DIMASSOC
360
21F7
  3
AcDbContextDataManager
360
21E8
  0
DICTIONARY
  5
21F9
330
21F8
100
AcDbDictionary
280
     1
281
     1
  3
ACAD_DIMASSOC
360
2209
  3
AcDbContextDataManager
360
21FA
  0
DICTIONARY
  5
220B
330
220A
100
AcDbDictionary
280
     1
281
     1
  3
ACAD_DIMASSOC
360
221B
  3
AcDbContextDataManager
360
220C
  0
DICTIONARY
  5
221D
330
221C
100
AcDbDictionary
280
     1
281
     1
  3
ACAD_DIMASSOC
360
222D
  3
AcDbContextDataManager
360
221E
  0
DICTIONARY
  5
222F
330
222E
100
AcDbDictionary
280
     1
281
     1
  3
ACAD_DIMASSOC
360
223F
  3
AcDbContextDataManager
360
2230
  0
DICTIONARY
  5
2241
330
2240
100
AcDbDictionary
280
     1
281
     1
  3
AcDbContextDataManager
360
2242
  0
DICTIONARY
  5
2516
330
2515
100
AcDbDictionary
280
     1
281
     1
  3
AcDbContextDataManager
360
2517
  0
DICTIONARY
  5
251B
330
251A
100
AcDbDictionary
280
     1
281
     1
  3
AcDbContextDataManager
360
251C
  0
DICTIONARY
  5
2520
330
251F
100
AcDbDictionary
280
     1
281
     1
  3
AcDbContextDataManager
360
2521
  0
DICTIONARY
  5
2525
330
2524
100
AcDbDictionary
280
     1
281
     1
  3
AcDbContextDataManager
360
2526
  0
DICTIONARY
  5
252A
330
2529
100
AcDbDictionary
280
     1
281
     1
  3
AcDbContextDataManager
360
252B
  0
DICTIONARY
  5
252F
330
252E
100
AcDbDictionary
280
     1
281
     1
  3
AcDbContextDataManager
360
2530
  0
DICTIONARY
  5
2534
330
2533
100
AcDbDictionary
280
     1
281
     1
  3
AcDbContextDataManager
360
2535
  0
DICTIONARY
  5
1862
330
1861
100
AcDbDictionary
280
     1
281
     1
  3
ASDK_XREC_ANNOTATION_SCALE_INFO
360
1863
  0
DICTIONARY
  5
1866
330
1865
100
AcDbDictionary
280
     1
281
     1
  3
ASDK_XREC_ANNOTATION_SCALE_INFO
360
1867
  0
XRECORD
  5
216
102
{ACAD_REACTORS
330
C
102
}
330
C
100
AcDbXrecord
280
     1
300
ACDLT
300
2014
300
ACDLT_F_S
  0
DICTIONARY
  5
6B
102
{ACAD_REACTORS
330
C
102
}
330
C
100
AcDbDictionary
281
     1
  0
DICTIONARY
  5
21B
102
{ACAD_REACTORS
330
C
102
}
330
C
100
AcDbDictionary
281
     1
  3
Metric50
350
21C
  0
DICTIONARY
  5
D
102
{ACAD_REACTORS
330
C
102
}
330
C
100
AcDbDictionary
281
     1
  0
DICTIONARY
  5
1A
102
{ACAD_REACTORS
330
C
102
}
330
C
100
AcDbDictionary
281
     1
  3
15A4
350
185B
  3
Model
350
22
  0
DICTIONARY
  5
6A
102
{ACAD_REACTORS
330
C
102
}
330
C
100
AcDbDictionary
281
     1
  3
ByBlock
350
ED
  3
ByLayer
350
EC
  3
Global
350
EE
  0
DICTIONARY
  5
12D
102
{ACAD_REACTORS
330
C
102
}
330
C
100
AcDbDictionary
281
     1
  3
Annotative
350
13B
  3
Standard
350
12E
  0
DICTIONARY
  5
17
102
{ACAD_REACTORS
330
C
102
}
330
C
100
AcDbDictionary
281
     1
  3
Standard
350
18
  0
DICTIONARY
  5
19
102
{ACAD_REACTORS
330
C
102
}
330
C
100
AcDbDictionary
281
     1
  0
ACDBDICTIONARYWDFLT
  5
E
102
{ACAD_REACTORS
330
C
102
}
330
C
100
AcDbDictionary
281
     1
  3
Normal
350
F
100
AcDbDictionaryWithDefault
340
F
  0
DICTIONARY
  5
10C
102
{ACAD_REACTORS
330
C
102
}
330
C
100
AcDbDictionary
281
     1
  3
A0
350
10D
  3
A1
350
1823
  3
A2
350
1824
  3
A3
350
1825
  3
A4
350
1C0
  3
A5
350
1826
  3
A6
350
1827
  3
A7
350
1828
  3
A8
350
1829
  3
A9
350
182A
  3
B0
350
182B
  3
B1
350
182C
  3
B2
350
182D
  3
B3
350
182E
  3
B4
350
182F
  3
B5
350
1830
  3
B6
350
1831
  3
B7
350
1832
  0
DICTIONARY
  5
219
102
{ACAD_REACTORS
330
C
102
}
330
C
100
AcDbDictionary
281
     1
  3
Metric50
350
21A
  0
DICTIONARY
  5
7E
102
{ACAD_REACTORS
330
C
102
}
330
C
100
AcDbDictionary
281
     1
  3
Standard
350
7F
  0
DICTIONARY
  5
EF
102
{ACAD_REACTORS
330
C
102
}
330
C
100
AcDbDictionary
281
     1
  3
2dWireframe
350
F5
  3
Basic
350
F4
  3
Brighten
350
FB
  3
ColorChange
350
FF
  3
Conceptual
350
F8
  3
Dim
350
FA
  3
EdgeColorOff
350
1E6
  3
Facepattern
350
FE
  3
Flat
350
F0
  3
FlatWithEdges
350
F1
  3
Gouraud
350
F2
  3
GouraudWithEdges
350
F3
  3
Hidden
350
F7
  3
JitterOff
350
1E4
  3
Linepattern
350
FD
  3
OverhangOff
350
1E5
  3
Realistic
350
F9
  3
Shaded
350
1F3
  3
Shaded with edges
350
1F2
  3
Shades of Gray
350
1EF
  3
Sketchy
350
1F0
  3
Thicken
350
FC
  3
Wireframe
350
F6
  3
X-Ray
350
1F1
  0
XRECORD
  5
15DA
102
{ACAD_REACTORS
330
C
102
}
330
C
100
AcDbXrecord
280
     1
 90
   990106
  3

 60
     0
 61
     0
 62
     1
 63
     3
 64
     0
 65
     0
 66
     0
 67
     3
 68
     1
 69
     0
 70
     0
 71
     0
 72
     0
 40
0.0
170
     0
  0
XRECORD
  5
312C
102
{ACAD_REACTORS
330
C
102
}
330
C
100
AcDbXrecord
280
     1
 90
        1
330
7F
330
21A
330
21C
  0
DICTIONARY
  5
5E
102
{ACAD_REACTORS
330
C
102
}
330
C
100
AcDbDictionary
281
     1
  3
CANNOSCALE
350
146
  3
CMLEADERSTYLE
350
145
  3
CTABLESTYLE
350
84
  3
CVIEWDETAILSTYLE
350
227
  3
CVIEWSECTIONSTYLE
350
228
  3
DIMASSOC
350
5F
  3
HIDETEXT
350
63
  3
LAYEREVAL
350
1AE
  3
LAYERNOTIFY
350
1AF
  3
TEXTJUSTIFY
350
270
  0
DICTIONARY
  5
200
102
{ACAD_REACTORS
330
1FF
102
}
330
1FF
100
AcDbDictionary
281
     1
  0
SORTENTSTABLE
  5
256
102
{ACAD_REACTORS
330
1CE
102
}
330
1CE
100
AcDbSortentsTable
330
1F
331
20A4
  5
20C1
331
20A0
  5
20BD
331
209C
  5
20B9
331
2098
  5
20A3
331
191C
  5
1929
331
1918
  5
1925
331
194F
  5
1A84
331
183D
  5
18EF
331
1914
  5
1921
331
1910
  5
191D
331
251F
  5
2524
331
2240
  5
2312
331
2175
  5
21F8
331
19CD
  5
1AF3
331
1A96
  5
1B7A
331
1947
  5
1A70
331
1B2C
  5
1CF1
331
1B7B
  5
1CFC
331
190C
  5
1919
331
1943
  5
1A48
331
1CE6
  5
1DC4
331
1908
  5
1915
331
193F
  5
19F5
331
1904
  5
1910
331
193B
  5
19CD
331
1900
  5
190C
331
2313
  5
18F2
331
2161
  5
21E6
331
18FC
  5
1908
331
1DC5
  5
209D
331
18F8
  5
1904
331
1937
  5
1985
331
18F4
  5
1900
331
1933
  5
194C
331
1B08
  5
1CE6
331
18F0
  5
18FC
331
20C7
  5
214F
331
230F
  5
17CF
331
20C3
  5
2128
331
20BF
  5
20D9
331
20BB
  5
20C4
331
192F
  5
1942
331
18EC
  5
18F6
331
192B
  5
193E
331
1D01
  5
2098
331
1927
  5
1936
331
1923
  5
1930
331
19A9
  5
1AE0
331
252E
  5
2533
331
20A3
  5
20C0
331
221C
  5
2310
331
209F
  5
20BC
331
21D1
  5
2245
331
209B
  5
20A4
331
1A1B
  5
1B08
331
191F
  5
192C
331
191B
  5
1928
331
1CF1
  5
1DCA
331
1917
  5
1924
331
1AE0
  5
1CDD
331
183C
  5
183F
331
1913
  5
1920
331
2093
  5
20A0
331
251A
  5
251F
331
21F8
  5
22FA
331
1A07
  5
1AF6
331
1A4A
  5
1B2C
331
190F
  5
191C
331
1946
  5
1A5C
331
190B
  5
1918
331
1942
  5
1A2D
331
1907
  5
1914
331
193E
  5
19E1
331
1985
  5
1ABA
331
1903
  5
190F
331
193A
  5
19BB
331
250E
  5
18F3
331
2312
  5
183D
331
1ACC
  5
1CB4
331
18FF
  5
190B
331
1DC4
  5
209C
331
18FB
  5
1907
331
18F7
  5
1903
331
1936
  5
1973
331
18F3
  5
18FF
331
1932
  5
194B
331
20C2
  5
2114
331
20BE
  5
20C7
331
219B
  5
221C
331
20BA
  5
20C3
331
18EF
  5
18FB
331
192E
  5
1941
331
192A
  5
193D
331
1926
  5
1935
331
1922
  5
192F
331
1961
  5
1A96
331
2187
  5
220A
331
20A2
  5
20BF
331
2101
  5
2187
331
2529
  5
252E
331
209E
  5
20BB
331
1AA8
  5
1B7B
331
1B3E
  5
1CF5
331
1CFC
  5
2093
331
191E
  5
192B
331
191A
  5
1927
331
183F
  5
18F1
331
1916
  5
1923
331
1912
  5
191F
331
20ED
  5
2175
331
2128
  5
21AD
331
2515
  5
251A
331
1DCA
  5
209F
331
1CEC
  5
1DC5
331
190E
  5
191B
331
1945
  5
1A4A
331
190A
  5
1917
331
1941
  5
1A1B
331
1906
  5
1913
331
193D
  5
19E0
331
1902
  5
190E
331
1939
  5
19A9
331
20D9
  5
2161
331
2311
  5
183C
331
1A84
  5
1B79
331
1B1A
  5
1CEC
331
18FE
  5
190A
331
18FA
  5
1906
331
18F6
  5
1902
331
1935
  5
1961
331
19BB
  5
1AF2
331
18F2
  5
18FE
331
1931
  5
194A
331
222E
  5
2311
331
2114
  5
219B
331
20C1
  5
2101
331
214F
  5
21D1
331
20BD
  5
20C6
331
20B9
  5
20C2
331
1A70
  5
1B51
331
1A2D
  5
1B1A
331
1DBF
  5
209B
331
1CB4
  5
1DBF
331
1B51
  5
1CF7
331
18EE
  5
18F8
331
192D
  5
1940
331
1929
  5
193C
331
1CA0
  5
1D01
331
1925
  5
1932
331
1921
  5
192E
331
20A1
  5
20BE
331
2524
  5
2529
331
209D
  5
20BA
331
213B
  5
21BF
331
1A5C
  5
1B3E
331
1AF6
  5
1CE4
331
1CF7
  5
1EF8
331
191D
  5
192A
331
1919
  5
1926
331
1997
  5
1ACC
331
183E
  5
17CE
331
1915
  5
1922
331
1911
  5
191E
331
21BF
  5
2240
331
2245
  5
2515
331
220A
  5
230F
331
190D
  5
191A
331
1944
  5
1A49
331
1909
  5
1916
331
1940
  5
1A07
331
1905
  5
1911
331
193C
  5
19DF
331
1901
  5
190D
331
1938
  5
1997
331
21AD
  5
222E
331
2310
  5
183B
331
19F5
  5
1AF5
331
18FD
  5
1909
331
18F9
  5
1905
331
18F5
  5
1901
331
1934
  5
194F
331
1973
  5
1AA8
331
18F1
  5
18FD
331
1930
  5
1949
331
21E6
  5
22E8
331
20C4
  5
213B
331
20C0
  5
20ED
331
2533
  5
2A99
331
20BC
  5
20C5
331
1ABA
  5
1CA0
331
19E1
  5
1AF4
331
18ED
  5
18F7
331
192C
  5
193F
331
1928
  5
1937
331
1924
  5
1931
331
1920
  5
192D
  0
DIMASSOC
  5
1960
102
{ACAD_REACTORS
330
1950
102
}
330
1950
100
AcDbDimAssoc
330
194F
 90
        3
 70
     0
 71
     0
  1
AcDbOsnapPointRef
 72
    13
331
18F3
 73
     2
 91
        0
 40
0.0
 10
0.0
 20
0.0
 30
2.000000000000000E+50
 75
     0
  1
AcDbOsnapPointRef
 72
     1
331
1913
 73
     2
 91
        0
 40
1.0
 10
0.0
 20
0.0
 30
2.000000000000000E+50
 75
     0
  0
DICTIONARY
  5
1951
102
{ACAD_REACTORS
330
1950
102
}
330
1950
100
AcDbDictionary
281
     1
  3
ACDB_ANNOTATIONSCALES
350
1952
  0
DIMASSOC
  5
1972
102
{ACAD_REACTORS
330
1962
102
}
330
1962
100
AcDbDimAssoc
330
1961
 90
        3
 70
     0
 71
     0
  1
AcDbOsnapPointRef
 72
    13
331
18F3
 73
     2
 91
        0
 40
0.0
 10
0.0
 20
0.0
 30
2.000000000000000E+50
 75
     0
  1
AcDbOsnapPointRef
 72
     1
331
18F0
 73
     2
 91
        0
 40
1.0
 10
0.0
 20
0.0
 30
2.000000000000000E+50
 75
     0
  0
DICTIONARY
  5
1963
102
{ACAD_REACTORS
330
1962
102
}
330
1962
100
AcDbDictionary
281
     1
  3
ACDB_ANNOTATIONSCALES
350
1964
  0
DIMASSOC
  5
1984
102
{ACAD_REACTORS
330
1974
102
}
330
1974
100
AcDbDimAssoc
330
1973
 90
        3
 70
     0
 71
     0
  1
AcDbOsnapPointRef
 72
     1
331
18F0
 73
     2
 91
        0
 40
1.0
 10
0.0
 20
0.0
 30
2.000000000000000E+50
 75
     0
  1
AcDbOsnapPointRef
 72
     1
331
18EE
 73
     2
 91
        0
 40
1.0
 10
0.0
 20
0.0
 30
2.000000000000000E+50
 75
     0
  0
DICTIONARY
  5
1975
102
{ACAD_REACTORS
330
1974
102
}
330
1974
100
AcDbDictionary
281
     1
  3
ACDB_ANNOTATIONSCALES
350
1976
  0
DIMASSOC
  5
1996
102
{ACAD_REACTORS
330
1986
102
}
330
1986
100
AcDbDimAssoc
330
1985
 90
        3
 70
     0
 71
     0
  1
AcDbOsnapPointRef
 72
     1
331
18EE
 73
     2
 91
        0
 40
1.0
 10
0.0
 20
0.0
 30
2.000000000000000E+50
 75
     0
  1
AcDbOsnapPointRef
 72
     1
331
1913
 73
     2
 91
        0
 40
1.0
 10
0.0
 20
0.0
 30
2.000000000000000E+50
 75
     0
  0
DICTIONARY
  5
1987
102
{ACAD_REACTORS
330
1986
102
}
330
1986
100
AcDbDictionary
281
     1
  3
ACDB_ANNOTATIONSCALES
350
1988
  0
DIMASSOC
  5
19A8
102
{ACAD_REACTORS
330
1998
102
}
330
1998
100
AcDbDimAssoc
330
1997
 90
        3
 70
     0
 71
     0
  1
AcDbOsnapPointRef
 72
    13
331
18F3
 73
     2
 91
        0
 40
0.0
 10
0.0
 20
0.0
 30
2.000000000000000E+50
 75
     0
  1
AcDbOsnapPointRef
 72
     1
331
18EC
 73
     2
 91
        0
 40
1.0
 10
0.0
 20
0.0
 30
2.000000000000000E+50
 75
     0
  0
DICTIONARY
  5
1999
102
{ACAD_REACTORS
330
1998
102
}
330
1998
100
AcDbDictionary
281
     1
  3
ACDB_ANNOTATIONSCALES
350
199A
  0
DIMASSOC
  5
19BA
102
{ACAD_REACTORS
330
19AA
102
}
330
19AA
100
AcDbDimAssoc
330
19A9
 90
        3
 70
     0
 71
     0
  1
AcDbOsnapPointRef
 72
    13
331
18F3
 73
     2
 91
        0
 40
0.0
 10
0.0
 20
0.0
 30
2.000000000000000E+50
 75
     0
  1
AcDbOsnapPointRef
 72
    13
331
18ED
 73
     2
 91
        0
 40
0.0
 10
0.0
 20
0.0
 30
2.000000000000000E+50
 75
     0
  0
DICTIONARY
  5
19AB
102
{ACAD_REACTORS
330
19AA
102
}
330
19AA
100
AcDbDictionary
281
     1
  3
ACDB_ANNOTATIONSCALES
350
19AC
  0
DIMASSOC
  5
19CC
102
{ACAD_REACTORS
330
19BC
102
}
330
19BC
100
AcDbDimAssoc
330
19BB
 90
        3
 70
     0
 71
     0
  1
AcDbOsnapPointRef
 72
    13
331
18F5
 73
     2
 91
        0
 40
0.0
 10
0.0
 20
0.0
 30
2.000000000000000E+50
 75
     0
  1
AcDbOsnapPointRef
 72
    13
331
18F4
 73
     2
 91
        0
 40
0.0
 10
0.0
 20
0.0
 30
2.000000000000000E+50
 75
     0
  0
DICTIONARY
  5
19BD
102
{ACAD_REACTORS
330
19BC
102
}
330
19BC
100
AcDbDictionary
281
     1
  3
ACDB_ANNOTATIONSCALES
350
19BE
  0
DIMASSOC
  5
19DE
102
{ACAD_REACTORS
330
19CE
102
}
330
19CE
100
AcDbDimAssoc
330
19CD
 90
        3
 70
     0
 71
     0
  1
AcDbOsnapPointRef
 72
    13
331
18F4
 73
     2
 91
        0
 40
0.0
 10
0.0
 20
0.0
 30
2.000000000000000E+50
 75
     0
  1
AcDbOsnapPointRef
 72
     1
331
18EC
 73
     2
 91
        0
 40
1.0
 10
0.0
 20
0.0
 30
2.000000000000000E+50
 75
     0
  0
DICTIONARY
  5
19CF
102
{ACAD_REACTORS
330
19CE
102
}
330
19CE
100
AcDbDictionary
281
     1
  3
ACDB_ANNOTATIONSCALES
350
19D0
  0
DIMASSOC
  5
19F4
102
{ACAD_REACTORS
330
19E2
102
}
330
19E2
100
AcDbDimAssoc
330
19E1
 90
        3
 70
     0
 71
     0
  1
AcDbOsnapPointRef
 72
    13
331
1938
 73
     2
 91
        0
 40
0.0
 10
0.0
 20
0.0
 30
2.000000000000000E+50
 75
     0
  1
AcDbOsnapPointRef
 72
    13
331
1937
 73
     2
 91
        0
 40
0.0
 10
0.0
 20
0.0
 30
2.000000000000000E+50
 75
     0
  0
DICTIONARY
  5
19E3
102
{ACAD_REACTORS
330
19E2
102
}
330
19E2
100
AcDbDictionary
281
     1
  3
ACDB_ANNOTATIONSCALES
350
19E4
  0
DIMASSOC
  5
1A06
102
{ACAD_REACTORS
330
19F6
102
}
330
19F6
100
AcDbDimAssoc
330
19F5
 90
        3
 70
     0
 71
     0
  1
AcDbOsnapPointRef
 72
    13
331
1938
 73
     2
 91
        0
 40
0.0
 10
0.0
 20
0.0
 30
2.000000000000000E+50
 75
     0
  1
AcDbOsnapPointRef
 72
    13
331
1939
 73
     2
 91
        0
 40
0.0
 10
0.0
 20
0.0
 30
2.000000000000000E+50
 75
     0
  0
DICTIONARY
  5
19F7
102
{ACAD_REACTORS
330
19F6
102
}
330
19F6
100
AcDbDictionary
281
     1
  3
ACDB_ANNOTATIONSCALES
350
19F8
  0
DIMASSOC
  5
1A1A
102
{ACAD_REACTORS
330
1A08
102
}
330
1A08
100
AcDbDimAssoc
330
1A07
 90
        3
 70
     0
 71
     0
  1
AcDbOsnapPointRef
 72
    13
331
1939
 73
     2
 91
        0
 40
0.0
 10
0.0
 20
0.0
 30
2.000000000000000E+50
 75
     0
  1
AcDbOsnapPointRef
 72
     1
331
1939
 73
     2
 91
        0
 40
1.0
 10
0.0
 20
0.0
 30
2.000000000000000E+50
 75
     0
  0
DICTIONARY
  5
1A09
102
{ACAD_REACTORS
330
1A08
102
}
330
1A08
100
AcDbDictionary
281
     1
  3
ACDB_ANNOTATIONSCALES
350
1A0A
  0
DIMASSOC
  5
1A2C
102
{ACAD_REACTORS
330
1A1C
102
}
330
1A1C
100
AcDbDimAssoc
330
1A1B
 90
        3
 70
     0
 71
     0
  1
AcDbOsnapPointRef
 72
     1
331
1939
 73
     2
 91
        0
 40
1.0
 10
0.0
 20
0.0
 30
2.000000000000000E+50
 75
     0
  1
AcDbOsnapPointRef
 72
    13
331
1937
 73
     2
 91
        0
 40
0.0
 10
0.0
 20
0.0
 30
2.000000000000000E+50
 75
     0
  0
DICTIONARY
  5
1A1D
102
{ACAD_REACTORS
330
1A1C
102
}
330
1A1C
100
AcDbDictionary
281
     1
  3
ACDB_ANNOTATIONSCALES
350
1A1E
  0
DIMASSOC
  5
1A3E
102
{ACAD_REACTORS
330
1A2E
102
}
330
1A2E
100
AcDbDimAssoc
330
1A2D
 90
        3
 70
     0
 71
     0
  1
AcDbOsnapPointRef
 72
    13
331
18FC
 73
     2
 91
        0
 40
0.0
 10
0.0
 20
0.0
 30
2.000000000000000E+50
 75
     0
  1
AcDbOsnapPointRef
 72
    13
331
1905
 73
     2
 91
        0
 40
0.0
 10
0.0
 20
0.0
 30
2.000000000000000E+50
 75
     0
  0
DICTIONARY
  5
1A2F
102
{ACAD_REACTORS
330
1A2E
102
}
330
1A2E
100
AcDbDictionary
281
     1
  3
ACDB_ANNOTATIONSCALES
350
1A30
  0
DIMASSOC
  5
1A5B
102
{ACAD_REACTORS
330
1A4B
102
}
330
1A4B
100
AcDbDimAssoc
330
1A4A
 90
        3
 70
     0
 71
     0
  1
AcDbOsnapPointRef
 72
     1
331
18F6
 73
     2
 91
        0
 40
1.0
 10
0.0
 20
0.0
 30
2.000000000000000E+50
 75
     0
  1
AcDbOsnapPointRef
 72
     1
331
191B
 73
     2
 91
        0
 40
1.0
 10
0.0
 20
0.0
 30
2.000000000000000E+50
 75
     0
  0
DICTIONARY
  5
1A4C
102
{ACAD_REACTORS
330
1A4B
102
}
330
1A4B
100
AcDbDictionary
281
     1
  3
ACDB_ANNOTATIONSCALES
350
1A4D
  0
DIMASSOC
  5
1A6F
102
{ACAD_REACTORS
330
1A5D
102
}
330
1A5D
100
AcDbDimAssoc
330
1A5C
 90
        3
 70
     0
 71
     0
  1
AcDbOsnapPointRef
 72
     1
331
18F6
 73
     2
 91
        0
 40
1.0
 10
0.0
 20
0.0
 30
2.000000000000000E+50
 75
     0
  1
AcDbOsnapPointRef
 72
    13
331
1921
 73
     2
 91
        0
 40
0.0
 10
0.0
 20
0.0
 30
2.000000000000000E+50
 75
     0
  0
DICTIONARY
  5
1A5E
102
{ACAD_REACTORS
330
1A5D
102
}
330
1A5D
100
AcDbDictionary
281
     1
  3
ACDB_ANNOTATIONSCALES
350
1A5F
  0
DIMASSOC
  5
1A83
102
{ACAD_REACTORS
330
1A71
102
}
330
1A71
100
AcDbDimAssoc
330
1A70
 90
        3
 70
     0
 71
     0
  1
AcDbOsnapPointRef
 72
     1
331
191B
 73
     2
 91
        0
 40
1.0
 10
0.0
 20
0.0
 30
2.000000000000000E+50
 75
     0
  1
AcDbOsnapPointRef
 72
     1
331
1923
 73
     2
 91
        0
 40
1.0
 10
0.0
 20
0.0
 30
2.000000000000000E+50
 75
     0
  0
DICTIONARY
  5
1A72
102
{ACAD_REACTORS
330
1A71
102
}
330
1A71
100
AcDbDictionary
281
     1
  3
ACDB_ANNOTATIONSCALES
350
1A73
  0
DIMASSOC
  5
1A95
102
{ACAD_REACTORS
330
1A85
102
}
330
1A85
100
AcDbDimAssoc
330
1A84
 90
        3
 70
     0
 71
     0
  1
AcDbOsnapPointRef
 72
    13
331
18FE
 73
     2
 91
        0
 40
0.0
 10
0.0
 20
0.0
 30
2.000000000000000E+50
 75
     0
  1
AcDbOsnapPointRef
 72
    13
331
1921
 73
     2
 91
        0
 40
0.0
 10
0.0
 20
0.0
 30
2.000000000000000E+50
 75
     0
  0
DICTIONARY
  5
1A86
102
{ACAD_REACTORS
330
1A85
102
}
330
1A85
100
AcDbDictionary
281
     1
  3
ACDB_ANNOTATIONSCALES
350
1A87
  0
DIMASSOC
  5
1AA7
102
{ACAD_REACTORS
330
1A97
102
}
330
1A97
100
AcDbDimAssoc
330
1A96
 90
        3
 70
     0
 71
     0
  1
AcDbOsnapPointRef
 72
     1
331
1926
 73
     2
 91
        0
 40
1.0
 10
0.0
 20
0.0
 30
2.000000000000000E+50
 75
     0
  1
AcDbOsnapPointRef
 72
     1
331
1931
 73
     2
 91
        0
 40
1.0
 10
0.0
 20
0.0
 30
2.000000000000000E+50
 75
     0
  0
DICTIONARY
  5
1A98
102
{ACAD_REACTORS
330
1A97
102
}
330
1A97
100
AcDbDictionary
281
     1
  3
ACDB_ANNOTATIONSCALES
350
1A99
  0
DIMASSOC
  5
1AB9
102
{ACAD_REACTORS
330
1AA9
102
}
330
1AA9
100
AcDbDimAssoc
330
1AA8
 90
        3
 70
     0
 71
     0
  1
AcDbOsnapPointRef
 72
     1
331
1926
 73
     2
 91
        0
 40
1.0
 10
0.0
 20
0.0
 30
2.000000000000000E+50
 75
     0
  1
AcDbOsnapPointRef
 72
     1
331
1927
 73
     2
 91
        0
 40
1.0
 10
0.0
 20
0.0
 30
2.000000000000000E+50
 75
     0
  0
DICTIONARY
  5
1AAA
102
{ACAD_REACTORS
330
1AA9
102
}
330
1AA9
100
AcDbDictionary
281
     1
  3
ACDB_ANNOTATIONSCALES
350
1AAB
  0
DIMASSOC
  5
1ACB
102
{ACAD_REACTORS
330
1ABB
102
}
330
1ABB
100
AcDbDimAssoc
330
1ABA
 90
        3
 70
     0
 71
     0
  1
AcDbOsnapPointRef
 72
     1
331
1927
 73
     2
 91
        0
 40
1.0
 10
0.0
 20
0.0
 30
2.000000000000000E+50
 75
     0
  1
AcDbOsnapPointRef
 72
    13
331
1931
 73
     2
 91
        0
 40
0.0
 10
0.0
 20
0.0
 30
2.000000000000000E+50
 75
     0
  0
DICTIONARY
  5
1ABC
102
{ACAD_REACTORS
330
1ABB
102
}
330
1ABB
100
AcDbDictionary
281
     1
  3
ACDB_ANNOTATIONSCALES
350
1ABD
  0
DIMASSOC
  5
1ADF
102
{ACAD_REACTORS
330
1ACD
102
}
330
1ACD
100
AcDbDimAssoc
330
1ACC
 90
        3
 70
     0
 71
     0
  1
AcDbOsnapPointRef
 72
    13
331
1932
 73
     2
 91
        0
 40
0.0
 10
0.0
 20
0.0
 30
2.000000000000000E+50
 75
     0
  1
AcDbOsnapPointRef
 72
     1
331
1927
 73
     2
 91
        0
 40
1.0
 10
0.0
 20
0.0
 30
2.000000000000000E+50
 75
     0
  0
DICTIONARY
  5
1ACE
102
{ACAD_REACTORS
330
1ACD
102
}
330
1ACD
100
AcDbDictionary
281
     1
  3
ACDB_ANNOTATIONSCALES
350
1ACF
  0
DIMASSOC
  5
1AF1
102
{ACAD_REACTORS
330
1AE1
102
}
330
1AE1
100
AcDbDimAssoc
330
1AE0
 90
        3
 70
     0
 71
     0
  1
AcDbOsnapPointRef
 72
    13
331
1932
 73
     2
 91
        0
 40
0.0
 10
0.0
 20
0.0
 30
2.000000000000000E+50
 75
     0
  1
AcDbOsnapPointRef
 72
    13
331
1931
 73
     2
 91
        0
 40
0.0
 10
0.0
 20
0.0
 30
2.000000000000000E+50
 75
     0
  0
DICTIONARY
  5
1AE2
102
{ACAD_REACTORS
330
1AE1
102
}
330
1AE1
100
AcDbDictionary
281
     1
  3
ACDB_ANNOTATIONSCALES
350
1AE3
  0
DIMASSOC
  5
1B07
102
{ACAD_REACTORS
330
1AF7
102
}
330
1AF7
100
AcDbDimAssoc
330
1AF6
 90
        3
 70
     0
 71
     0
  1
AcDbOsnapPointRef
 72
     1
331
192B
 73
     2
 91
        0
 40
1.0
 10
0.0
 20
0.0
 30
2.000000000000000E+50
 75
     0
  1
AcDbOsnapPointRef
 72
    13
331
1936
 73
     2
 91
        0
 40
0.0
 10
0.0
 20
0.0
 30
2.000000000000000E+50
 75
     0
  0
DICTIONARY
  5
1AF8
102
{ACAD_REACTORS
330
1AF7
102
}
330
1AF7
100
AcDbDictionary
281
     1
  3
ACDB_ANNOTATIONSCALES
350
1AF9
  0
DIMASSOC
  5
1B19
102
{ACAD_REACTORS
330
1B09
102
}
330
1B09
100
AcDbDimAssoc
330
1B08
 90
        3
 70
     0
 71
     0
  1
AcDbOsnapPointRef
 72
     1
331
192B
 73
     2
 91
        0
 40
1.0
 10
0.0
 20
0.0
 30
2.000000000000000E+50
 75
     0
  1
AcDbOsnapPointRef
 72
    13
331
192C
 73
     2
 91
        0
 40
0.0
 10
0.0
 20
0.0
 30
2.000000000000000E+50
 75
     0
  0
DICTIONARY
  5
1B0A
102
{ACAD_REACTORS
330
1B09
102
}
330
1B09
100
AcDbDictionary
281
     1
  3
ACDB_ANNOTATIONSCALES
350
1B0B
  0
DIMASSOC
  5
1B2B
102
{ACAD_REACTORS
330
1B1B
102
}
330
1B1B
100
AcDbDimAssoc
330
1B1A
 90
        3
 70
     0
 71
     0
  1
AcDbOsnapPointRef
 72
    13
331
192C
 73
     2
 91
        0
 40
0.0
 10
0.0
 20
0.0
 30
2.000000000000000E+50
 75
     0
  1
AcDbOsnapPointRef
 72
    13
331
1936
 73
     2
 91
        0
 40
0.0
 10
0.0
 20
0.0
 30
2.000000000000000E+50
 75
     0
  0
DICTIONARY
  5
1B1C
102
{ACAD_REACTORS
330
1B1B
102
}
330
1B1B
100
AcDbDictionary
281
     1
  3
ACDB_ANNOTATIONSCALES
350
1B1D
  0
DIMASSOC
  5
1B3D
102
{ACAD_REACTORS
330
1B2D
102
}
330
1B2D
100
AcDbDimAssoc
330
1B2C
 90
        3
 70
     0
 71
     0
  1
AcDbOsnapPointRef
 72
     1
331
1933
 73
     2
 91
        0
 40
0.9999999999999998
 10
0.0
 20
0.0
 30
2.000000000000000E+50
 75
     0
  1
AcDbOsnapPointRef
 72
     1
331
1936
 73
     2
 91
        0
 40
1.0
 10
0.0
 20
0.0
 30
2.000000000000000E+50
 75
     0
  0
DICTIONARY
  5
1B2E
102
{ACAD_REACTORS
330
1B2D
102
}
330
1B2D
100
AcDbDictionary
281
     1
  3
ACDB_ANNOTATIONSCALES
350
1B2F
  0
DIMASSOC
  5
1B50
102
{ACAD_REACTORS
330
1B3F
102
}
330
1B3F
100
AcDbDimAssoc
330
1B3E
 90
        3
 70
     0
 71
     0
  1
AcDbOsnapPointRef
 72
     1
331
1933
 73
     2
 91
        0
 40
0.9999999999999998
 10
0.0
 20
0.0
 30
2.000000000000000E+50
 75
     0
  1
AcDbOsnapPointRef
 72
    13
331
1933
 73
     2
 91
        0
 40
0.0
 10
0.0
 20
0.0
 30
2.000000000000000E+50
 75
     0
  0
DICTIONARY
  5
1B40
102
{ACAD_REACTORS
330
1B3F
102
}
330
1B3F
100
AcDbDictionary
281
     1
  3
ACDB_ANNOTATIONSCALES
350
1B41
  0
DIMASSOC
  5
1B62
102
{ACAD_REACTORS
330
1B52
102
}
330
1B52
100
AcDbDimAssoc
330
1B51
 90
        3
 70
     0
 71
     0
  1
AcDbOsnapPointRef
 72
     1
331
1932
 73
     2
 91
        0
 40
1.0
 10
0.0
 20
0.0
 30
2.000000000000000E+50
 75
     0
  1
AcDbOsnapPointRef
 72
     1
331
192F
 73
     2
 91
        0
 40
1.0
 10
0.0
 20
0.0
 30
2.000000000000000E+50
 75
     0
  0
DICTIONARY
  5
1B53
102
{ACAD_REACTORS
330
1B52
102
}
330
1B52
100
AcDbDictionary
281
     1
  3
ACDB_ANNOTATIONSCALES
350
1B54
  0
DIMASSOC
  5
1B8D
102
{ACAD_REACTORS
330
1B7C
102
}
330
1B7C
100
AcDbDimAssoc
330
1B7B
 90
        3
 70
     0
 71
     0
  1
AcDbOsnapPointRef
 72
    13
331
1944
 73
     2
 91
        0
 40
0.0
 10
0.0
 20
0.0
 30
2.000000000000000E+50
 75
     0
  1
AcDbOsnapPointRef
 72
     1
331
192C
 73
     2
 91
        0
 40
1.0
 10
0.0
 20
0.0
 30
2.000000000000000E+50
 75
     0
  0
DICTIONARY
  5
1B7D
102
{ACAD_REACTORS
330
1B7C
102
}
330
1B7C
100
AcDbDictionary
281
     1
  3
ACDB_ANNOTATIONSCALES
350
1B7E
  0
DIMASSOC
  5
1CB3
102
{ACAD_REACTORS
330
1CA1
102
}
330
1CA1
100
AcDbDimAssoc
330
1CA0
 90
        3
 70
     0
 71
     0
  1
AcDbOsnapPointRef
 72
    13
331
1944
 73
     2
 91
        0
 40
0.0
 10
0.0
 20
0.0
 30
2.000000000000000E+50
 75
     0
  1
AcDbOsnapPointRef
 72
     1
331
1928
 73
     2
 91
        0
 40
0.9999999999999998
 10
0.0
 20
0.0
 30
2.000000000000000E+50
 75
     0
  0
DICTIONARY
  5
1CA2
102
{ACAD_REACTORS
330
1CA1
102
}
330
1CA1
100
AcDbDictionary
281
     1
  3
ACDB_ANNOTATIONSCALES
350
1CA3
  0
DIMASSOC
  5
1CC6
102
{ACAD_REACTORS
330
1CB5
102
}
330
1CB5
100
AcDbDimAssoc
330
1CB4
 90
        3
 70
     0
 71
     0
  1
AcDbOsnapPointRef
 72
     1
331
192B
 73
     2
 91
        0
 40
1.0
 10
0.0
 20
0.0
 30
2.000000000000000E+50
 75
     0
  1
AcDbOsnapPointRef
 72
    13
331
1926
 73
     2
 91
        0
 40
0.0
 10
0.0
 20
0.0
 30
2.000000000000000E+50
 75
     0
  0
DICTIONARY
  5
1CB6
102
{ACAD_REACTORS
330
1CB5
102
}
330
1CB5
100
AcDbDictionary
281
     1
  3
ACDB_ANNOTATIONSCALES
350
1CB7
  0
DICTIONARY
  5
1CE8
102
{ACAD_REACTORS
330
1CE7
102
}
330
1CE7
100
AcDbDictionary
281
     1
  3
ACDB_ANNOTATIONSCALES
350
1CE9
  0
DICTIONARY
  5
1CEE
102
{ACAD_REACTORS
330
1CED
102
}
330
1CED
100
AcDbDictionary
281
     1
  3
ACDB_ANNOTATIONSCALES
350
1CEF
  0
DICTIONARY
  5
1CF9
102
{ACAD_REACTORS
330
1CF8
102
}
330
1CF8
100
AcDbDictionary
281
     1
  3
ACDB_ANNOTATIONSCALES
350
1CFA
  0
DICTIONARY
  5
1CFE
102
{ACAD_REACTORS
330
1CFD
102
}
330
1CFD
100
AcDbDictionary
281
     1
  3
ACDB_ANNOTATIONSCALES
350
1CFF
  0
DICTIONARY
  5
1DC1
102
{ACAD_REACTORS
330
1DC0
102
}
330
1DC0
100
AcDbDictionary
281
     1
  3
ACDB_ANNOTATIONSCALES
350
1DC2
  0
DICTIONARY
  5
1DC7
102
{ACAD_REACTORS
330
1DC6
102
}
330
1DC6
100
AcDbDictionary
281
     1
  3
ACDB_ANNOTATIONSCALES
350
1DC8
  0
DICTIONARY
  5
2095
102
{ACAD_REACTORS
330
2094
102
}
330
2094
100
AcDbDictionary
281
     1
  3
ACDB_ANNOTATIONSCALES
350
2096
  0
DIMASSOC
  5
20D8
102
{ACAD_REACTORS
330
20C8
102
}
330
20C8
100
AcDbDimAssoc
330
20C7
 90
        3
 70
     0
 71
     0
  1
AcDbOsnapPointRef
 72
     1
331
20C0
 73
     2
 91
        0
 40
1.0
 10
0.0
 20
0.0
 30
2.000000000000000E+50
 75
     0
  1
AcDbOsnapPointRef
 72
     1
331
20BF
 73
     2
 91
        0
 40
1.0
 10
0.0
 20
0.0
 30
2.000000000000000E+50
 75
     0
  0
DICTIONARY
  5
20C9
102
{ACAD_REACTORS
330
20C8
102
}
330
20C8
100
AcDbDictionary
281
     1
  3
ACDB_ANNOTATIONSCALES
350
20CA
  0
DIMASSOC
  5
20EC
102
{ACAD_REACTORS
330
20DA
102
}
330
20DA
100
AcDbDimAssoc
330
20D9
 90
        3
 70
     0
 71
     0
  1
AcDbOsnapPointRef
 72
    13
331
20C1
 73
     2
 91
        0
 40
0.0
 10
0.0
 20
0.0
 30
2.000000000000000E+50
 75
     0
  1
AcDbOsnapPointRef
 72
     6
331
20C1
 73
     2
 91
        0
 40
0.9999999999999936
 10
0.0
 20
0.0
 30
0.0
332
20A0
 74
     2
 92
        0
 75
     0
  0
DICTIONARY
  5
20DB
102
{ACAD_REACTORS
330
20DA
102
}
330
20DA
100
AcDbDictionary
281
     1
  3
ACDB_ANNOTATIONSCALES
350
20DC
  0
DIMASSOC
  5
2100
102
{ACAD_REACTORS
330
20EE
102
}
330
20EE
100
AcDbDimAssoc
330
20ED
 90
        3
 70
     0
 71
     0
  1
AcDbOsnapPointRef
 72
    13
331
20C0
 73
     2
 91
        0
 40
0.0
 10
0.0
 20
0.0
 30
2.000000000000000E+50
 75
     0
  1
AcDbOsnapPointRef
 72
    13
331
20BF
 73
     2
 91
        0
 40
0.0
 10
0.0
 20
0.0
 30
2.000000000000000E+50
 75
     0
  0
DICTIONARY
  5
20EF
102
{ACAD_REACTORS
330
20EE
102
}
330
20EE
100
AcDbDictionary
281
     1
  3
ACDB_ANNOTATIONSCALES
350
20F0
  0
DIMASSOC
  5
2112
102
{ACAD_REACTORS
330
2102
102
}
330
2102
100
AcDbDimAssoc
330
2101
 90
        3
 70
     0
 71
     0
  1
AcDbOsnapPointRef
 72
    13
331
20BF
 73
     2
 91
        0
 40
0.0
 10
0.0
 20
0.0
 30
2.000000000000000E+50
 75
     0
  1
AcDbOsnapPointRef
 72
     6
331
20C1
 73
     2
 91
        0
 40
0.9999999999999936
 10
0.0
 20
0.0
 30
0.0
332
20A0
 74
     2
 92
        0
 75
     0
  0
DICTIONARY
  5
2103
102
{ACAD_REACTORS
330
2102
102
}
330
2102
100
AcDbDictionary
281
     1
  3
ACDB_ANNOTATIONSCALES
350
2104
  0
DIMASSOC
  5
2127
102
{ACAD_REACTORS
330
2115
102
}
330
2115
100
AcDbDimAssoc
330
2114
 90
        3
 70
     0
 71
     0
  1
AcDbOsnapPointRef
 72
     6
331
20C3
 73
     2
 91
        0
 40
0.4999999999999991
 10
0.0
 20
0.0
 30
0.0
332
20A1
 74
     2
 92
        0
 75
     0
  1
AcDbOsnapPointRef
 72
     6
331
20A1
 73
     2
 91
        0
 40
0.8461538461538461
 10
0.0
 20
0.0
 30
0.0
332
209F
 74
     2
 92
        0
 75
     0
  0
DICTIONARY
  5
2116
102
{ACAD_REACTORS
330
2115
102
}
330
2115
100
AcDbDictionary
281
     1
  3
ACDB_ANNOTATIONSCALES
350
2117
  0
DIMASSOC
  5
2139
102
{ACAD_REACTORS
330
2129
102
}
330
2129
100
AcDbDimAssoc
330
2128
 90
        3
 70
     0
 71
     0
  1
AcDbOsnapPointRef
 72
     6
331
20C3
 73
     2
 91
        0
 40
0.4999999999999991
 10
0.0
 20
0.0
 30
0.0
332
20A1
 74
     2
 92
        0
 75
     0
  1
AcDbOsnapPointRef
 72
     1
331
20A1
 73
     2
 91
        0
 40
1.0
 10
0.0
 20
0.0
 30
2.000000000000000E+50
 75
     0
  0
DICTIONARY
  5
212A
102
{ACAD_REACTORS
330
2129
102
}
330
2129
100
AcDbDictionary
281
     1
  3
ACDB_ANNOTATIONSCALES
350
212B
  0
DIMASSOC
  5
214E
102
{ACAD_REACTORS
330
213C
102
}
330
213C
100
AcDbDimAssoc
330
213B
 90
        3
 70
     0
 71
     0
  1
AcDbOsnapPointRef
 72
     6
331
20BA
 73
     2
 91
        0
 40
0.4999999999999995
 10
0.0
 20
0.0
 30
0.0
332
209E
 74
     2
 92
        0
 75
     0
  1
AcDbOsnapPointRef
 72
     6
331
20A4
 73
     2
 91
        0
 40
0.4999999999999995
 10
0.0
 20
0.0
 30
0.0
332
209E
 74
     2
 92
        0
 75
     0
  0
DICTIONARY
  5
213D
102
{ACAD_REACTORS
330
213C
102
}
330
213C
100
AcDbDictionary
281
     1
  3
ACDB_ANNOTATIONSCALES
350
213E
  0
DIMASSOC
  5
2160
102
{ACAD_REACTORS
330
2150
102
}
330
2150
100
AcDbDimAssoc
330
214F
 90
        3
 70
     0
 71
     0
  1
AcDbOsnapPointRef
 72
     6
331
20BA
 73
     2
 91
        0
 40
0.4999999999999995
 10
0.0
 20
0.0
 30
0.0
332
209E
 74
     2
 92
        0
 75
     0
  1
AcDbOsnapPointRef
 72
    13
331
209E
 73
     2
 91
        0
 40
0.0
 10
0.0
 20
0.0
 30
2.000000000000000E+50
 75
     0
  0
DICTIONARY
  5
2151
102
{ACAD_REACTORS
330
2150
102
}
330
2150
100
AcDbDictionary
281
     1
  3
ACDB_ANNOTATIONSCALES
350
2152
  0
DIMASSOC
  5
2174
102
{ACAD_REACTORS
330
2162
102
}
330
2162
100
AcDbDimAssoc
330
2161
 90
        3
 70
     0
 71
     0
  1
AcDbOsnapPointRef
 72
     6
331
20BD
 73
     2
 91
        0
 40
0.4999999999999995
 10
0.0
 20
0.0
 30
0.0
332
20A1
 74
     2
 92
        0
 75
     0
  1
AcDbOsnapPointRef
 72
     6
331
20A1
 73
     2
 91
        0
 40
0.1538461538461531
 10
0.0
 20
0.0
 30
0.0
332
209C
 74
     2
 92
        0
 75
     0
  0
DICTIONARY
  5
2163
102
{ACAD_REACTORS
330
2162
102
}
330
2162
100
AcDbDictionary
281
     1
  3
ACDB_ANNOTATIONSCALES
350
2164
  0
DIMASSOC
  5
2186
102
{ACAD_REACTORS
330
2176
102
}
330
2176
100
AcDbDimAssoc
330
2175
 90
        3
 70
     0
 71
     0
  1
AcDbOsnapPointRef
 72
     6
331
20BD
 73
     2
 91
        0
 40
0.4999999999999995
 10
0.0
 20
0.0
 30
0.0
332
20A1
 74
     2
 92
        0
 75
     0
  1
AcDbOsnapPointRef
 72
    13
331
20A1
 73
     2
 91
        0
 40
0.0
 10
0.0
 20
0.0
 30
2.000000000000000E+50
 75
     0
  0
DICTIONARY
  5
2177
102
{ACAD_REACTORS
330
2176
102
}
330
2176
100
AcDbDictionary
281
     1
  3
ACDB_ANNOTATIONSCALES
350
2178
  0
DIMASSOC
  5
219A
102
{ACAD_REACTORS
330
2188
102
}
330
2188
100
AcDbDimAssoc
330
2187
 90
        3
 70
     0
 71
     0
  1
AcDbOsnapPointRef
 72
     6
331
20C0
 73
     2
 91
        0
 40
0.4999999999999995
 10
0.0
 20
0.0
 30
0.0
332
209E
 74
     2
 92
        0
 75
     0
  1
AcDbOsnapPointRef
 72
     6
331
20A2
 73
     2
 91
        0
 40
0.4999999999999991
 10
0.0
 20
0.0
 30
0.0
332
209E
 74
     2
 92
        0
 75
     0
  0
DICTIONARY
  5
2189
102
{ACAD_REACTORS
330
2188
102
}
330
2188
100
AcDbDictionary
281
     1
  3
ACDB_ANNOTATIONSCALES
350
218A
  0
DIMASSOC
  5
21AC
102
{ACAD_REACTORS
330
219C
102
}
330
219C
100
AcDbDimAssoc
330
219B
 90
        3
 70
     0
 71
     0
  1
AcDbOsnapPointRef
 72
     6
331
20C0
 73
     2
 91
        0
 40
0.4999999999999995
 10
0.0
 20
0.0
 30
0.0
332
209E
 74
     2
 92
        0
 75
     0
  1
AcDbOsnapPointRef
 72
     1
331
209E
 73
     2
 91
        0
 40
1.0
 10
0.0
 20
0.0
 30
2.000000000000000E+50
 75
     0
  0
DICTIONARY
  5
219D
102
{ACAD_REACTORS
330
219C
102
}
330
219C
100
AcDbDictionary
281
     1
  3
ACDB_ANNOTATIONSCALES
350
219E
  0
DIMASSOC
  5
21BE
102
{ACAD_REACTORS
330
21AE
102
}
330
21AE
100
AcDbDimAssoc
330
21AD
 90
        3
 70
     0
 71
     0
  1
AcDbOsnapPointRef
 72
    13
331
209F
 73
     2
 91
        0
 40
0.0
 10
0.0
 20
0.0
 30
2.000000000000000E+50
 75
     0
  1
AcDbOsnapPointRef
 72
     1
331
20A3
 73
     2
 91
        0
 40
1.0
 10
0.0
 20
0.0
 30
2.000000000000000E+50
 75
     0
  0
DICTIONARY
  5
21AF
102
{ACAD_REACTORS
330
21AE
102
}
330
21AE
100
AcDbDictionary
281
     1
  3
ACDB_ANNOTATIONSCALES
350
21B0
  0
DIMASSOC
  5
21D0
102
{ACAD_REACTORS
330
21C0
102
}
330
21C0
100
AcDbDimAssoc
330
21BF
 90
        3
 70
     0
 71
     0
  1
AcDbOsnapPointRef
 72
    13
331
209D
 73
     2
 91
        0
 40
0.0
 10
0.0
 20
0.0
 30
2.000000000000000E+50
 75
     0
  1
AcDbOsnapPointRef
 72
    13
331
209B
 73
     2
 91
        0
 40
0.0
 10
0.0
 20
0.0
 30
2.000000000000000E+50
 75
     0
  0
DICTIONARY
  5
21C1
102
{ACAD_REACTORS
330
21C0
102
}
330
21C0
100
AcDbDictionary
281
     1
  3
ACDB_ANNOTATIONSCALES
350
21C2
  0
DIMASSOC
  5
21E2
102
{ACAD_REACTORS
330
21D2
102
}
330
21D2
100
AcDbDimAssoc
330
21D1
 90
        3
 70
     0
 71
     0
  1
AcDbOsnapPointRef
 72
    13
331
209F
 73
     2
 91
        0
 40
0.0
 10
0.0
 20
0.0
 30
2.000000000000000E+50
 75
     0
  1
AcDbOsnapPointRef
 72
    13
331
209C
 73
     2
 91
        0
 40
0.0
 10
0.0
 20
0.0
 30
2.000000000000000E+50
 75
     0
  0
DICTIONARY
  5
21D3
102
{ACAD_REACTORS
330
21D2
102
}
330
21D2
100
AcDbDictionary
281
     1
  3
ACDB_ANNOTATIONSCALES
350
21D4
  0
DIMASSOC
  5
21F7
102
{ACAD_REACTORS
330
21E7
102
}
330
21E7
100
AcDbDimAssoc
330
21E6
 90
        3
 70
     0
 71
     0
  1
AcDbOsnapPointRef
 72
    13
331
209C
 73
     2
 91
        0
 40
0.0
 10
0.0
 20
0.0
 30
2.000000000000000E+50
 75
     0
  1
AcDbOsnapPointRef
 72
    13
331
20A3
 73
     2
 91
        0
 40
0.0
 10
0.0
 20
0.0
 30
2.000000000000000E+50
 75
     0
  0
DICTIONARY
  5
21E8
102
{ACAD_REACTORS
330
21E7
102
}
330
21E7
100
AcDbDictionary
281
     1
  3
ACDB_ANNOTATIONSCALES
350
21E9
  0
DIMASSOC
  5
2209
102
{ACAD_REACTORS
330
21F9
102
}
330
21F9
100
AcDbDimAssoc
330
21F8
 90
        3
 70
     0
 71
     0
  1
AcDbOsnapPointRef
 72
    13
331
20A4
 73
     2
 91
        0
 40
0.0
 10
0.0
 20
0.0
 30
2.000000000000000E+50
 75
     0
  1
AcDbOsnapPointRef
 72
    13
331
209B
 73
     2
 91
        0
 40
0.0
 10
0.0
 20
0.0
 30
2.000000000000000E+50
 75
     0
  0
DICTIONARY
  5
21FA
102
{ACAD_REACTORS
330
21F9
102
}
330
21F9
100
AcDbDictionary
281
     1
  3
ACDB_ANNOTATIONSCALES
350
21FB
  0
DIMASSOC
  5
221B
102
{ACAD_REACTORS
330
220B
102
}
330
220B
100
AcDbDimAssoc
330
220A
 90
        3
 70
     0
 71
     0
  1
AcDbOsnapPointRef
 72
    13
331
20A4
 73
     2
 91
        0
 40
0.0
 10
0.0
 20
0.0
 30
2.000000000000000E+50
 75
     0
  1
AcDbOsnapPointRef
 72
    13
331
20A2
 73
     2
 91
        0
 40
0.0
 10
0.0
 20
0.0
 30
2.000000000000000E+50
 75
     0
  0
DICTIONARY
  5
220C
102
{ACAD_REACTORS
330
220B
102
}
330
220B
100
AcDbDictionary
281
     1
  3
ACDB_ANNOTATIONSCALES
350
220D
  0
DIMASSOC
  5
222D
102
{ACAD_REACTORS
330
221D
102
}
330
221D
100
AcDbDimAssoc
330
221C
 90
        3
 70
     0
 71
     0
  1
AcDbOsnapPointRef
 72
    13
331
20A2
 73
     2
 91
        0
 40
0.0
 10
0.0
 20
0.0
 30
2.000000000000000E+50
 75
     0
  1
AcDbOsnapPointRef
 72
    13
331
20A0
 73
     2
 91
        0
 40
0.0
 10
0.0
 20
0.0
 30
2.000000000000000E+50
 75
     0
  0
DICTIONARY
  5
221E
102
{ACAD_REACTORS
330
221D
102
}
330
221D
100
AcDbDictionary
281
     1
  3
ACDB_ANNOTATIONSCALES
350
221F
  0
DIMASSOC
  5
223F
102
{ACAD_REACTORS
330
222F
102
}
330
222F
100
AcDbDimAssoc
330
222E
 90
        3
 70
     0
 71
     0
  1
AcDbOsnapPointRef
 72
     1
331
209B
 73
     2
 91
        0
 40
1.0
 10
0.0
 20
0.0
 30
2.000000000000000E+50
 75
     0
  1
AcDbOsnapPointRef
 72
    13
331
209B
 73
     2
 91
        0
 40
0.0
 10
0.0
 20
0.0
 30
2.000000000000000E+50
 75
     0
  0
DICTIONARY
  5
2230
102
{ACAD_REACTORS
330
222F
102
}
330
222F
100
AcDbDictionary
281
     1
  3
ACDB_ANNOTATIONSCALES
350
2231
  0
DICTIONARY
  5
2242
102
{ACAD_REACTORS
330
2241
102
}
330
2241
100
AcDbDictionary
281
     1
  3
ACDB_ANNOTATIONSCALES
350
2243
  0
DICTIONARY
  5
2517
102
{ACAD_REACTORS
330
2516
102
}
330
2516
100
AcDbDictionary
281
     1
  3
ACDB_ANNOTATIONSCALES
350
2518
  0
DICTIONARY
  5
251C
102
{ACAD_REACTORS
330
251B
102
}
330
251B
100
AcDbDictionary
281
     1
  3
ACDB_ANNOTATIONSCALES
350
251D
  0
DICTIONARY
  5
2521
102
{ACAD_REACTORS
330
2520
102
}
330
2520
100
AcDbDictionary
281
     1
  3
ACDB_ANNOTATIONSCALES
350
2522
  0
DICTIONARY
  5
2526
102
{ACAD_REACTORS
330
2525
102
}
330
2525
100
AcDbDictionary
281
     1
  3
ACDB_ANNOTATIONSCALES
350
2527
  0
DICTIONARY
  5
252B
102
{ACAD_REACTORS
330
252A
102
}
330
252A
100
AcDbDictionary
281
     1
  3
ACDB_ANNOTATIONSCALES
350
252C
  0
DICTIONARY
  5
2530
102
{ACAD_REACTORS
330
252F
102
}
330
252F
100
AcDbDictionary
281
     1
  3
ACDB_ANNOTATIONSCALES
350
2531
  0
DICTIONARY
  5
2535
102
{ACAD_REACTORS
330
2534
102
}
330
2534
100
AcDbDictionary
281
     1
  3
ACDB_ANNOTATIONSCALES
350
2536
  0
XRECORD
  5
1863
102
{ACAD_REACTORS
330
1862
102
}
330
1862
100
AcDbXrecord
280
     1
 90
        1
340
10D
  0
XRECORD
  5
1867
102
{ACAD_REACTORS
330
1866
102
}
330
1866
100
AcDbXrecord
280
     1
 90
        1
340
1823
  0
ACDBDETAILVIEWSTYLE
  5
21C
102
{ACAD_XDICTIONARY
360
236
102
}
102
{ACAD_REACTORS
330
21B
102
}
330
21B
100
AcDbModelDocViewStyle
 70
     0
  3
Metric50
290
     0
100
AcDbDetailViewStyle
 70
     0
 71
     0
 90
        3
 71
     1
340
11
 62
   256
 40
5.0
340
0
 62
   256
 40
5.0
300

 40
0.0
280
     1
 71
     2
340
16
 90
       25
 62
   256
 71
     3
340
11
 62
   256
 40
5.0
 90
        0
 40
15.0
 90
        1
300
%<\AcVar ViewDetailId>% (%<\AcVar ViewScale \f "%sn">%)
 71
     4
340
16
 90
       25
 62
   256
340
16
 90
       25
 62
   256
280
     0
  0
LAYOUT
  5
185B
102
{ACAD_REACTORS
330
1A
102
}
330
1A
100
AcDbPlotSettings
  1

  2
KONICA MINOLTA C360iSeriesPCL
  4
A4
  6

 40
5.027082920074462
 41
5.027099609375
 42
5.027069091796875
 43
5.027069091796875
 44
209.9733276367187
 45
296.9259948730469
 46
0.0
 47
0.0
 48
0.0
 49
0.0
140
0.0
141
0.0
142
1.0
143
1.0
 70
   688
 72
     1
 73
     1
 74
     5
  7

 75
    16
147
1.0
 76
     0
 77
     2
 78
   300
148
0.0
149
0.0
100
AcDbLayout
  1
15A4
 70
     1
 71
     1
 10
-5.027069091796875
 20
-5.027082920074462
 11
291.89892578125
 21
204.9462447166443
 12
0.0
 22
0.0
 32
0.0
 14
-5.0
 24
-5.0
 34
0.0
 15
292.0
 25
205.0
 35
0.0
146
0.0
 13
0.0
 23
0.0
 33
0.0
 16
1.0
 26
0.0
 36
0.0
 17
0.0
 27
1.0
 37
0.0
 76
     0
330
185A
331
1861
1001
ACAD_PSEXT
1000
KONICA MINOLTA C360iSeriesPCL
1000
KONICA MINOLTA C360iSeriesPCL
1000
IP_192.168.100.51
1000

1070
     0
  0
LAYOUT
  5
22
102
{ACAD_XDICTIONARY
360
205
102
}
102
{ACAD_REACTORS
330
1A
102
}
330
1A
100
AcDbPlotSettings
  1

  2
none_device
  4
ISO_A4_(210.00_x_297.00_MM)
  6

 40
7.5
 41
20.0
 42
7.5
 43
20.0
 44
210.0
 45
297.0
 46
11.54999923706054
 47
-13.65000009536743
 48
0.0
 49
0.0
140
0.0
141
0.0
142
1.0
143
8.704084754739808
 70
 11952
 72
     1
 73
     0
 74
     0
  7

 75
     0
147
0.1148885871608098
 76
     0
 77
     2
 78
   300
148
0.0
149
0.0
100
AcDbLayout
  1
Model
 70
     1
 71
     0
 10
0.0
 20
0.0
 11
12.0
 21
9.0
 12
0.0
 22
0.0
 32
0.0
 14
0.0
 24
0.0
 34
0.0
 15
0.0
 25
0.0
 35
0.0
146
0.0
 13
0.0
 23
0.0
 33
0.0
 16
1.0
 26
0.0
 36
0.0
 17
0.0
 27
1.0
 37
0.0
 76
     0
330
1F
331
EA
1001
ACAD_PSEXT
1000
None
1000
None
1000
Not applicable
1000
The layout will not be plotted unless a new plotter configuration name is selected.
1070
     0
  0
MATERIAL
  5
ED
102
{ACAD_XDICTIONARY
360
1F9
102
}
102
{ACAD_REACTORS
330
6A
102
}
330
6A
100
AcDbMaterial
  1
ByBlock
 94
       63
  0
MATERIAL
  5
EC
102
{ACAD_XDICTIONARY
360
1F7
102
}
102
{ACAD_REACTORS
330
6A
102
}
330
6A
100
AcDbMaterial
  1
ByLayer
 94
       63
  0
MATERIAL
  5
EE
102
{ACAD_XDICTIONARY
360
173
102
}
102
{ACAD_REACTORS
330
6A
102
}
330
6A
100
AcDbMaterial
  1
Global
 43
0.0007999999797903
 43
0.0
 43
0.0
 43
0.0
 43
0.0
 43
0.0007999999797903
 43
0.0
 43
0.0
 43
0.0
 43
0.0
 43
1.0
 43
0.0
 43
0.0
 43
0.0
 43
0.0
 43
1.0
 49
0.0007999999797903
 49
0.0
 49
0.0
 49
0.0
 49
0.0
 49
0.0007999999797903
 49
0.0
 49
0.0
 49
0.0
 49
0.0
 49
1.0
 49
0.0
 49
0.0
 49
0.0
 49
0.0
 49
1.0
142
0.0007999999797903
142
0.0
142
0.0
142
0.0
142
0.0
142
0.0007999999797903
142
0.0
142
0.0
142
0.0
142
0.0
142
1.0
142
0.0
142
0.0
142
0.0
142
0.0
142
1.0
144
0.0007999999797903
144
0.0
144
0.0
144
0.0
144
0.0
144
0.0007999999797903
144
0.0
144
0.0
144
0.0
144
0.0
144
1.0
144
0.0
144
0.0
144
0.0
144
0.0
144
1.0
 94
       63
1001
ACAD
1070
    -1
1070
     3
1070
     0
1000

1071
        0
1070
     0
  0
MLEADERSTYLE
  5
13B
102
{ACAD_REACTORS
330
12D
102
}
330
12D
100
AcDbMLeaderStyle
179
     2
170
     2
171
     1
172
     0
 90
        2
 40
0.0
 41
0.0
173
     1
 91
-1056964608
340
14
 92
       -2
290
     1
 42
2.0
291
     1
 43
8.0
  3
Standard
 44
4.0
300

342
11
174
     1
178
     1
175
     1
176
     0
 93
-1056964608
 45
4.0
292
     0
297
     0
 46
4.0
 94
-1056964608
 47
1.0
 49
1.0
140
1.0
293
     1
141
0.0
294
     1
177
     0
142
1.0
295
     0
296
     1
143
3.75
271
     0
272
     9
273
     9
298
     0
  0
MLEADERSTYLE
  5
12E
102
{ACAD_REACTORS
330
12D
102
}
330
12D
100
AcDbMLeaderStyle
179
     2
170
     2
171
     1
172
     0
 90
        2
 40
0.0
 41
0.0
173
     1
 91
-1056964608
340
14
 92
       -2
290
     1
 42
2.0
291
     1
 43
8.0
  3
Standard
 44
4.0
300

342
11
174
     1
178
     1
175
     1
176
     0
 93
-1056964608
 45
4.0
292
     0
297
     0
 46
4.0
 94
-1056964608
 47
1.0
 49
1.0
140
1.0
293
     1
141
0.0
294
     1
177
     0
142
1.0
295
     0
296
     0
143
3.75
271
     0
272
     9
273
     9
298
     0
  0
MLINESTYLE
  5
18
102
{ACAD_REACTORS
330
17
102
}
330
17
100
AcDbMlineStyle
  2
STANDARD
 70
     0
  3

 62
   256
 51
90.0
 52
90.0
 71
     2
 49
0.5
 62
   256
  6
BYLAYER
 49
-0.5
 62
   256
  6
BYLAYER
  0
ACDBPLACEHOLDER
  5
F
102
{ACAD_REACTORS
330
E
102
}
330
E
  0
SCALE
  5
10D
102
{ACAD_REACTORS
330
10C
102
}
330
10C
100
AcDbScale
 70
     0
300
1:1
140
1.0
141
1.0
290
     1
  0
SCALE
  5
1823
102
{ACAD_REACTORS
330
10C
102
}
330
10C
100
AcDbScale
 70
     0
300
1:15
140
1.0
141
15.0
290
     0
  0
SCALE
  5
1824
102
{ACAD_REACTORS
330
10C
102
}
330
10C
100
AcDbScale
 70
     0
300
1:2
140
1.0
141
2.0
290
     0
  0
SCALE
  5
1825
102
{ACAD_REACTORS
330
10C
102
}
330
10C
100
AcDbScale
 70
     0
300
1:4
140
1.0
141
4.0
290
     0
  0
SCALE
  5
1C0
102
{ACAD_REACTORS
330
10C
102
}
330
10C
100
AcDbScale
 70
     0
300
1:5
140
1.0
141
5.0
290
     0
  0
SCALE
  5
1826
102
{ACAD_REACTORS
330
10C
102
}
330
10C
100
AcDbScale
 70
     0
300
1:8
140
1.0
141
8.0
290
     0
  0
SCALE
  5
1827
102
{ACAD_REACTORS
330
10C
102
}
330
10C
100
AcDbScale
 70
     0
300
1:10
140
1.0
141
10.0
290
     0
  0
SCALE
  5
1828
102
{ACAD_REACTORS
330
10C
102
}
330
10C
100
AcDbScale
 70
     0
300
1:16
140
1.0
141
16.0
290
     0
  0
SCALE
  5
1829
102
{ACAD_REACTORS
330
10C
102
}
330
10C
100
AcDbScale
 70
     0
300
1:20
140
1.0
141
20.0
290
     0
  0
SCALE
  5
182A
102
{ACAD_REACTORS
330
10C
102
}
330
10C
100
AcDbScale
 70
     0
300
1:30
140
1.0
141
30.0
290
     0
  0
SCALE
  5
182B
102
{ACAD_REACTORS
330
10C
102
}
330
10C
100
AcDbScale
 70
     0
300
1:40
140
1.0
141
40.0
290
     0
  0
SCALE
  5
182C
102
{ACAD_REACTORS
330
10C
102
}
330
10C
100
AcDbScale
 70
     0
300
1:50
140
1.0
141
50.0
290
     0
  0
SCALE
  5
182D
102
{ACAD_REACTORS
330
10C
102
}
330
10C
100
AcDbScale
 70
     0
300
1:100
140
1.0
141
100.0
290
     0
  0
SCALE
  5
182E
102
{ACAD_REACTORS
330
10C
102
}
330
10C
100
AcDbScale
 70
     0
300
2:1
140
2.0
141
1.0
290
     0
  0
SCALE
  5
182F
102
{ACAD_REACTORS
330
10C
102
}
330
10C
100
AcDbScale
 70
     0
300
4:1
140
4.0
141
1.0
290
     0
  0
SCALE
  5
1830
102
{ACAD_REACTORS
330
10C
102
}
330
10C
100
AcDbScale
 70
     0
300
8:1
140
8.0
141
1.0
290
     0
  0
SCALE
  5
1831
102
{ACAD_REACTORS
330
10C
102
}
330
10C
100
AcDbScale
 70
     0
300
10:1
140
10.0
141
1.0
290
     0
  0
SCALE
  5
1832
102
{ACAD_REACTORS
330
10C
102
}
330
10C
100
AcDbScale
 70
     0
300
100:1
140
100.0
141
1.0
290
     0
  0
ACDBSECTIONVIEWSTYLE
  5
21A
102
{ACAD_XDICTIONARY
360
234
102
}
102
{ACAD_REACTORS
330
219
102
}
330
219
100
AcDbModelDocViewStyle
 70
     0
  3
Metric50
290
     0
100
AcDbSectionViewStyle
 70
     0
 71
     0
 90
      102
 71
     1
340
11
 62
   256
 40
5.0
340
0
340
0
 62
   256
 40
5.0
300
I, O, Q, S, X, Z
 40
10.0
 90
        0
 40
2.5
 90
        0
 71
     2
340
16
 90
       25
 62
   256
340
16
 90
       50
 62
   256
 40
5.0
 40
2.5
 40
5.0
 71
     3
340
11
 62
   256
 40
5.0
 90
        0
 40
15.0
 90
        1
300
%<\AcVar ViewSectionStartId>%-%<\AcVar ViewSectionEndId>% (%<\AcVar ViewScale \f "%sn">%)
 71
     4
 62
   256
 62
   257
300
ANSI31
 40
1.0
 90
        0
290
     0
290
     0
 90
        6
 40
0.0
 40
1.570796326794896
 40
0.2617993877991494
 40
1.308996938995747
 40
-0.2617993877991494
 40
1.832595714594046
  0
TABLESTYLE
  5
7F
102
{ACAD_XDICTIONARY
360
162
102
}
102
{ACAD_REACTORS
330
7E
102
}
330
7E
100
AcDbTableStyle
280
     0
  3
Standard
 70
     0
 71
     0
 40
1.5
 41
1.5
280
     0
281
     0
  7
Standard
140
4.5
170
     2
 62
     0
 63
     7
283
     0
 90
      512
 91
        0
  1

274
    -2
284
     1
 64
     0
275
    -2
285
     1
 65
     0
276
    -2
286
     1
 66
     0
277
    -2
287
     1
 67
     0
278
    -2
288
     1
 68
     0
279
    -2
289
     1
 69
     0
  7
Standard
140
6.0
170
     5
 62
     0
 63
     7
283
     0
 90
      512
 91
        0
  1

274
    -2
284
     1
 64
     0
275
    -2
285
     1
 65
     0
276
    -2
286
     1
 66
     0
277
    -2
287
     1
 67
     0
278
    -2
288
     1
 68
     0
279
    -2
289
     1
 69
     0
  7
Standard
140
4.5
170
     5
 62
     0
 63
     7
283
     0
 90
      512
 91
        0
  1

274
    -2
284
     1
 64
     0
275
    -2
285
     1
 65
     0
276
    -2
286
     1
 66
     0
277
    -2
287
     1
 67
     0
278
    -2
288
     1
 68
     0
279
    -2
289
     1
 69
     0
  0
VISUALSTYLE
  5
F5
102
{ACAD_REACTORS
330
EF
102
}
330
EF
100
AcDbVisualStyle
  2
2dWireframe
 70
     4
177
     3
291
     0
 70
    58
 90
        0
176
     1
 90
        2
176
     1
 90
        1
176
     1
 90
        0
176
     1
 40
0.6
176
     1
 40
30.0
176
     1
 62
     7
420
 16777215
176
     1
 90
        1
176
     1
 90
        4
176
     1
 62
     7
176
     1
 62
   257
176
     1
 90
        1
176
     1
 90
        1
176
     1
 40
1.0
176
     1
 90
        0
176
     1
 62
   257
176
     1
 40
1.0
176
     1
 90
        1
176
     1
 90
        6
176
     1
 90
        2
176
     1
 62
     7
176
     1
 90
        5
176
     1
 90
        0
176
     1
 90
        0
176
     1
290
     0
176
     1
 90
        1
176
     1
 40
0.0
176
     1
 90
        0
176
     1
290
     1
176
     1
290
     1
176
     1
290
     0
176
     1
290
     0
176
     1
290
     0
176
     1
290
     0
176
     1
290
     0
176
     1
290
     0
176
     1
290
     0
176
     1
 90
       50
176
     1
 40
0.0
176
     1
 40
1.0
176
     1
 90
        0
176
     1
 62
    18
420
        0
176
     1
 90
       50
176
     1
 90
        3
176
     1
 62
     5
420
      255
176
     1
290
     0
176
     1
 90
       50
176
     1
 90
       50
176
     1
 90
       50
176
     1
290
     0
176
     1
 90
       50
176
     1
 62
   256
176
     0
 40
1.0
176
     0
 90
        2
176
     1
  1
strokes_ogs.tif
176
     1
290
     0
176
     1
 40
1.0
176
     1
 40
1.0
176
     1
  0
VISUALSTYLE
  5
F4
102
{ACAD_REACTORS
330
EF
102
}
330
EF
100
AcDbVisualStyle
  2
Basic
 70
     7
177
     3
291
     1
 70
    58
 90
        1
176
     1
 90
        0
176
     1
 90
        1
176
     1
 90
        0
176
     1
 40
0.6
176
     1
 40
30.0
176
     1
 62
     7
420
 16777215
176
     1
 90
        0
176
     1
 90
        4
176
     1
 62
     7
176
     1
 62
   257
176
     1
 90
        1
176
     1
 90
        1
176
     1
 40
1.0
176
     1
 90
        8
176
     1
 62
     7
176
     1
 40
1.0
176
     1
 90
        1
176
     1
 90
        6
176
     1
 90
        2
176
     1
 62
     7
176
     1
 90
        5
176
     1
 90
        0
176
     1
 90
        0
176
     1
290
     0
176
     1
 90
        1
176
     1
 40
0.0
176
     1
 90
        0
176
     1
290
     0
176
     1
290
     1
176
     1
290
     1
176
     1
290
     0
176
     1
290
     0
176
     1
290
     0
176
     1
290
     0
176
     1
290
     0
176
     1
290
     0
176
     1
 90
       50
176
     1
 40
0.0
176
     1
 40
1.0
176
     1
 90
        0
176
     1
 62
    18
420
        0
176
     1
 90
       50
176
     1
 90
        3
176
     1
 62
     5
420
      255
176
     1
290
     0
176
     1
 90
       50
176
     1
 90
       50
176
     1
 90
       50
176
     1
290
     0
176
     1
 90
       50
176
     1
 62
   256
176
     0
 40
1.0
176
     0
 90
        2
176
     1
  1
strokes_ogs.tif
176
     1
290
     0
176
     1
 40
1.0
176
     1
 40
1.0
176
     1
  0
VISUALSTYLE
  5
FB
102
{ACAD_REACTORS
330
EF
102
}
330
EF
100
AcDbVisualStyle
  2
Brighten
 70
    12
177
     3
291
     1
 70
    58
 90
        2
176
     1
 90
        2
176
     1
 90
        1
176
     1
 90
        0
176
     1
 40
0.6
176
     1
 40
30.0
176
     1
 62
     7
420
 16777215
176
     1
 90
        1
176
     1
 90
        4
176
     1
 62
     7
176
     1
 62
   257
176
     1
 90
        1
176
     1
 90
        1
176
     1
 40
1.0
176
     1
 90
        8
176
     1
 62
     7
176
     1
 40
1.0
176
     1
 90
        1
176
     1
 90
        6
176
     1
 90
        2
176
     1
 62
     7
176
     1
 90
        5
176
     1
 90
        0
176
     1
 90
        0
176
     1
290
     0
176
     1
 90
        1
176
     1
 40
50.0
176
     1
 90
        0
176
     1
290
     0
176
     1
290
     1
176
     1
290
     1
176
     1
290
     0
176
     1
290
     0
176
     1
290
     0
176
     1
290
     0
176
     1
290
     0
176
     1
290
     0
176
     1
 90
       50
176
     1
 40
0.0
176
     1
 40
1.0
176
     1
 90
        0
176
     1
 62
    18
420
        0
176
     1
 90
       50
176
     1
 90
        3
176
     1
 62
     5
420
      255
176
     1
290
     0
176
     1
 90
       50
176
     1
 90
       50
176
     1
 90
       50
176
     1
290
     0
176
     1
 90
       50
176
     1
 62
   256
176
     0
 40
1.0
176
     0
 90
        2
176
     1
  1
strokes_ogs.tif
176
     1
290
     0
176
     1
 40
1.0
176
     1
 40
1.0
176
     1
  0
VISUALSTYLE
  5
FF
102
{ACAD_REACTORS
330
EF
102
}
330
EF
100
AcDbVisualStyle
  2
ColorChange
 70
    16
177
     3
291
     1
 70
    58
 90
        2
176
     1
 90
        2
176
     1
 90
        3
176
     1
 90
        0
176
     1
 40
0.6
176
     1
 40
30.0
176
     1
 62
     8
420
  8421504
176
     1
 90
        1
176
     1
 90
        4
176
     1
 62
     7
176
     1
 62
   257
176
     1
 90
        1
176
     1
 90
        1
176
     1
 40
1.0
176
     1
 90
        8
176
     1
 62
     8
420
  8421504
176
     1
 40
1.0
176
     1
 90
        1
176
     1
 90
        6
176
     1
 90
        2
176
     1
 62
     7
176
     1
 90
        5
176
     1
 90
        0
176
     1
 90
        0
176
     1
290
     0
176
     1
 90
        1
176
     1
 40
0.0
176
     1
 90
        0
176
     1
290
     0
176
     1
290
     1
176
     1
290
     1
176
     1
290
     0
176
     1
290
     0
176
     1
290
     0
176
     1
290
     0
176
     1
290
     0
176
     1
290
     0
176
     1
 90
       50
176
     1
 40
0.0
176
     1
 40
1.0
176
     1
 90
        0
176
     1
 62
    18
420
        0
176
     1
 90
       50
176
     1
 90
        3
176
     1
 62
     5
420
      255
176
     1
290
     0
176
     1
 90
       50
176
     1
 90
       50
176
     1
 90
       50
176
     1
290
     0
176
     1
 90
       50
176
     1
 62
   256
176
     0
 40
1.0
176
     0
 90
        2
176
     1
  1
strokes_ogs.tif
176
     1
290
     0
176
     1
 40
1.0
176
     1
 40
1.0
176
     1
  0
VISUALSTYLE
  5
F8
102
{ACAD_REACTORS
330
EF
102
}
330
EF
100
AcDbVisualStyle
  2
Conceptual
 70
     9
177
     3
291
     0
 70
    58
 90
        3
176
     1
 90
        2
176
     1
 90
        1
176
     1
 90
        0
176
     1
 40
0.6
176
     1
 40
30.0
176
     1
 62
     7
420
 16777215
176
     1
 90
        2
176
     1
 90
        2
176
     1
 62
     7
176
     1
 62
   257
176
     1
 90
        1
176
     1
 90
        1
176
     1
 40
40.0
176
     1
 90
        8
176
     1
 62
     7
176
     1
 40
1.0
176
     1
 90
        1
176
     1
 90
        6
176
     1
 90
        2
176
     1
 62
     7
176
     1
 90
        3
176
     1
 90
        0
176
     1
 90
        0
176
     1
290
     0
176
     1
 90
        1
176
     1
 40
0.0
176
     1
 90
        0
176
     1
290
     0
176
     1
290
     1
176
     1
290
     1
176
     1
290
     0
176
     1
290
     0
176
     1
290
     0
176
     1
290
     0
176
     1
290
     0
176
     1
290
     0
176
     1
 90
       50
176
     1
 40
0.0
176
     1
 40
1.0
176
     1
 90
        0
176
     1
 62
    18
420
        0
176
     1
 90
       50
176
     1
 90
        3
176
     1
 62
     5
420
      255
176
     1
290
     0
176
     1
 90
       50
176
     1
 90
       50
176
     1
 90
       50
176
     1
290
     0
176
     1
 90
       50
176
     1
 62
   256
176
     0
 40
1.0
176
     0
 90
        2
176
     1
  1
strokes_ogs.tif
176
     1
290
     0
176
     1
 40
1.0
176
     1
 40
1.0
176
     1
  0
VISUALSTYLE
  5
FA
102
{ACAD_REACTORS
330
EF
102
}
330
EF
100
AcDbVisualStyle
  2
Dim
 70
    11
177
     3
291
     1
 70
    58
 90
        2
176
     1
 90
        2
176
     1
 90
        1
176
     1
 90
        0
176
     1
 40
0.6
176
     1
 40
30.0
176
     1
 62
     7
420
 16777215
176
     1
 90
        1
176
     1
 90
        4
176
     1
 62
     7
176
     1
 62
   257
176
     1
 90
        1
176
     1
 90
        1
176
     1
 40
1.0
176
     1
 90
        8
176
     1
 62
     7
176
     1
 40
1.0
176
     1
 90
        1
176
     1
 90
        6
176
     1
 90
        2
176
     1
 62
     7
176
     1
 90
        5
176
     1
 90
        0
176
     1
 90
        0
176
     1
290
     0
176
     1
 90
        1
176
     1
 40
-50.0
176
     1
 90
        0
176
     1
290
     0
176
     1
290
     1
176
     1
290
     1
176
     1
290
     0
176
     1
290
     0
176
     1
290
     0
176
     1
290
     0
176
     1
290
     0
176
     1
290
     0
176
     1
 90
       50
176
     1
 40
0.0
176
     1
 40
1.0
176
     1
 90
        0
176
     1
 62
    18
420
        0
176
     1
 90
       50
176
     1
 90
        3
176
     1
 62
     5
420
      255
176
     1
290
     0
176
     1
 90
       50
176
     1
 90
       50
176
     1
 90
       50
176
     1
290
     0
176
     1
 90
       50
176
     1
 62
   256
176
     0
 40
1.0
176
     0
 90
        2
176
     1
  1
strokes_ogs.tif
176
     1
290
     0
176
     1
 40
1.0
176
     1
 40
1.0
176
     1
  0
VISUALSTYLE
  5
1E6
102
{ACAD_REACTORS
330
EF
102
}
330
EF
100
AcDbVisualStyle
  2
EdgeColorOff
 70
    22
177
     3
291
     1
 70
    58
 90
        2
176
     0
 90
        2
176
     0
 90
        0
176
     0
 90
        0
176
     0
 40
0.6
176
     0
 40
30.0
176
     0
 62
     7
420
 16777215
176
     0
 90
        1
176
     0
 90
        4
176
     0
 62
     7
176
     0
 62
   257
176
     0
 90
        1
176
     0
 90
        1
176
     0
 40
1.0
176
     0
 90
        8
176
     2
 62
     7
176
     0
 40
1.0
176
     0
 90
        1
176
     0
 90
        6
176
     0
 90
        2
176
     0
 62
     7
176
     0
 90
        5
176
     0
 90
        0
176
     0
 90
        0
176
     0
290
     0
176
     0
 90
        1
176
     0
 40
0.0
176
     0
 90
        0
176
     0
290
     0
176
     1
290
     1
176
     1
290
     1
176
     1
290
     0
176
     1
290
     0
176
     1
290
     0
176
     1
290
     0
176
     1
290
     0
176
     1
290
     0
176
     1
 90
       50
176
     1
 40
0.0
176
     1
 40
1.0
176
     1
 90
        0
176
     1
 62
    18
420
        0
176
     1
 90
       50
176
     1
 90
        3
176
     1
 62
     5
420
      255
176
     1
290
     0
176
     1
 90
       50
176
     1
 90
       50
176
     1
 90
       50
176
     1
290
     0
176
     1
 90
       50
176
     1
 62
   256
176
     0
 40
1.0
176
     0
 90
        2
176
     1
  1
strokes_ogs.tif
176
     1
290
     0
176
     1
 40
1.0
176
     1
 40
1.0
176
     1
  0
VISUALSTYLE
  5
FE
102
{ACAD_REACTORS
330
EF
102
}
330
EF
100
AcDbVisualStyle
  2
Facepattern
 70
    15
177
     3
291
     1
 70
    58
 90
        2
176
     1
 90
        2
176
     1
 90
        1
176
     1
 90
        0
176
     1
 40
0.6
176
     1
 40
30.0
176
     1
 62
     7
420
 16777215
176
     1
 90
        1
176
     1
 90
        4
176
     1
 62
     7
176
     1
 62
   257
176
     1
 90
        1
176
     1
 90
        1
176
     1
 40
1.0
176
     1
 90
        8
176
     1
 62
     7
176
     1
 40
1.0
176
     1
 90
        1
176
     1
 90
        6
176
     1
 90
        2
176
     1
 62
     7
176
     1
 90
        5
176
     1
 90
        0
176
     1
 90
        0
176
     1
290
     0
176
     1
 90
        1
176
     1
 40
0.0
176
     1
 90
        0
176
     1
290
     0
176
     1
290
     1
176
     1
290
     1
176
     1
290
     0
176
     1
290
     0
176
     1
290
     0
176
     1
290
     0
176
     1
290
     0
176
     1
290
     0
176
     1
 90
       50
176
     1
 40
0.0
176
     1
 40
1.0
176
     1
 90
        0
176
     1
 62
    18
420
        0
176
     1
 90
       50
176
     1
 90
        3
176
     1
 62
     5
420
      255
176
     1
290
     0
176
     1
 90
       50
176
     1
 90
       50
176
     1
 90
       50
176
     1
290
     0
176
     1
 90
       50
176
     1
 62
   256
176
     0
 40
1.0
176
     0
 90
        2
176
     1
  1
strokes_ogs.tif
176
     1
290
     0
176
     1
 40
1.0
176
     1
 40
1.0
176
     1
  0
VISUALSTYLE
  5
F0
102
{ACAD_REACTORS
330
EF
102
}
330
EF
100
AcDbVisualStyle
  2
Flat
 70
     0
177
     3
291
     1
 70
    58
 90
        2
176
     1
 90
        1
176
     1
 90
        1
176
     1
 90
        2
176
     1
 40
0.6
176
     1
 40
30.0
176
     1
 62
     7
420
 16777215
176
     1
 90
        0
176
     1
 90
        0
176
     1
 62
     7
176
     1
 62
   257
176
     1
 90
        1
176
     1
 90
        1
176
     1
 40
1.0
176
     1
 90
        8
176
     1
 62
     7
176
     1
 40
1.0
176
     1
 90
        1
176
     1
 90
        6
176
     1
 90
        2
176
     1
 62
     7
176
     1
 90
        5
176
     1
 90
        0
176
     1
 90
        0
176
     1
290
     0
176
     1
 90
       13
176
     1
 40
0.0
176
     1
 90
        0
176
     1
290
     0
176
     1
290
     1
176
     1
290
     1
176
     1
290
     0
176
     1
290
     0
176
     1
290
     0
176
     1
290
     0
176
     1
290
     0
176
     1
290
     0
176
     1
 90
       50
176
     1
 40
0.0
176
     1
 40
1.0
176
     1
 90
        0
176
     1
 62
    18
420
        0
176
     1
 90
       50
176
     1
 90
        3
176
     1
 62
     5
420
      255
176
     1
290
     0
176
     1
 90
       50
176
     1
 90
       50
176
     1
 90
       50
176
     1
290
     0
176
     1
 90
       50
176
     1
 62
   256
176
     0
 40
1.0
176
     0
 90
        2
176
     1
  1
strokes_ogs.tif
176
     1
290
     0
176
     1
 40
1.0
176
     1
 40
1.0
176
     1
  0
VISUALSTYLE
  5
F1
102
{ACAD_REACTORS
330
EF
102
}
330
EF
100
AcDbVisualStyle
  2
FlatWithEdges
 70
     1
177
     3
291
     1
 70
    58
 90
        2
176
     1
 90
        1
176
     1
 90
        1
176
     1
 90
        2
176
     1
 40
0.6
176
     1
 40
30.0
176
     1
 62
     7
420
 16777215
176
     1
 90
        1
176
     1
 90
        0
176
     1
 62
     7
176
     1
 62
   257
176
     1
 90
        1
176
     1
 90
        1
176
     1
 40
1.0
176
     1
 90
        0
176
     1
 62
   257
176
     1
 40
1.0
176
     1
 90
        1
176
     1
 90
        6
176
     1
 90
        2
176
     1
 62
     7
176
     1
 90
        5
176
     1
 90
        0
176
     1
 90
        0
176
     1
290
     0
176
     1
 90
       13
176
     1
 40
0.0
176
     1
 90
        0
176
     1
290
     0
176
     1
290
     1
176
     1
290
     1
176
     1
290
     0
176
     1
290
     0
176
     1
290
     0
176
     1
290
     0
176
     1
290
     0
176
     1
290
     0
176
     1
 90
       50
176
     1
 40
0.0
176
     1
 40
1.0
176
     1
 90
        0
176
     1
 62
    18
420
        0
176
     1
 90
       50
176
     1
 90
        3
176
     1
 62
     5
420
      255
176
     1
290
     0
176
     1
 90
       50
176
     1
 90
       50
176
     1
 90
       50
176
     1
290
     0
176
     1
 90
       50
176
     1
 62
   256
176
     0
 40
1.0
176
     0
 90
        2
176
     1
  1
strokes_ogs.tif
176
     1
290
     0
176
     1
 40
1.0
176
     1
 40
1.0
176
     1
  0
VISUALSTYLE
  5
F2
102
{ACAD_REACTORS
330
EF
102
}
330
EF
100
AcDbVisualStyle
  2
Gouraud
 70
     2
177
     3
291
     1
 70
    58
 90
        2
176
     1
 90
        2
176
     1
 90
        1
176
     1
 90
        2
176
     1
 40
0.6
176
     1
 40
30.0
176
     1
 62
     7
420
 16777215
176
     1
 90
        0
176
     1
 90
        0
176
     1
 62
     7
176
     1
 62
   257
176
     1
 90
        1
176
     1
 90
        1
176
     1
 40
1.0
176
     1
 90
        0
176
     1
 62
     7
176
     1
 40
1.0
176
     1
 90
        1
176
     1
 90
        6
176
     1
 90
        2
176
     1
 62
     7
176
     1
 90
        5
176
     1
 90
        0
176
     1
 90
        0
176
     1
290
     0
176
     1
 90
       13
176
     1
 40
0.0
176
     1
 90
        0
176
     1
290
     0
176
     1
290
     1
176
     1
290
     1
176
     1
290
     0
176
     1
290
     0
176
     1
290
     0
176
     1
290
     0
176
     1
290
     0
176
     1
290
     0
176
     1
 90
       50
176
     1
 40
0.0
176
     1
 40
1.0
176
     1
 90
        0
176
     1
 62
    18
420
        0
176
     1
 90
       50
176
     1
 90
        3
176
     1
 62
     5
420
      255
176
     1
290
     0
176
     1
 90
       50
176
     1
 90
       50
176
     1
 90
       50
176
     1
290
     0
176
     1
 90
       50
176
     1
 62
   256
176
     0
 40
1.0
176
     0
 90
        2
176
     1
  1
strokes_ogs.tif
176
     1
290
     0
176
     1
 40
1.0
176
     1
 40
1.0
176
     1
  0
VISUALSTYLE
  5
F3
102
{ACAD_REACTORS
330
EF
102
}
330
EF
100
AcDbVisualStyle
  2
GouraudWithEdges
 70
     3
177
     3
291
     1
 70
    58
 90
        2
176
     1
 90
        2
176
     1
 90
        1
176
     1
 90
        2
176
     1
 40
0.6
176
     1
 40
30.0
176
     1
 62
     7
420
 16777215
176
     1
 90
        1
176
     1
 90
        0
176
     1
 62
     7
176
     1
 62
   257
176
     1
 90
        1
176
     1
 90
        1
176
     1
 40
1.0
176
     1
 90
        0
176
     1
 62
   257
176
     1
 40
1.0
176
     1
 90
        1
176
     1
 90
        6
176
     1
 90
        2
176
     1
 62
     7
176
     1
 90
        5
176
     1
 90
        0
176
     1
 90
        0
176
     1
290
     0
176
     1
 90
       13
176
     1
 40
0.0
176
     1
 90
        0
176
     1
290
     0
176
     1
290
     1
176
     1
290
     1
176
     1
290
     0
176
     1
290
     0
176
     1
290
     0
176
     1
290
     0
176
     1
290
     0
176
     1
290
     0
176
     1
 90
       50
176
     1
 40
0.0
176
     1
 40
1.0
176
     1
 90
        0
176
     1
 62
    18
420
        0
176
     1
 90
       50
176
     1
 90
        3
176
     1
 62
     5
420
      255
176
     1
290
     0
176
     1
 90
       50
176
     1
 90
       50
176
     1
 90
       50
176
     1
290
     0
176
     1
 90
       50
176
     1
 62
   256
176
     0
 40
1.0
176
     0
 90
        2
176
     1
  1
strokes_ogs.tif
176
     1
290
     0
176
     1
 40
1.0
176
     1
 40
1.0
176
     1
  0
VISUALSTYLE
  5
F7
102
{ACAD_REACTORS
330
EF
102
}
330
EF
100
AcDbVisualStyle
  2
Hidden
 70
     6
177
     3
291
     0
 70
    58
 90
        1
176
     1
 90
        2
176
     1
 90
        2
176
     1
 90
        0
176
     1
 40
0.6
176
     1
 40
30.0
176
     1
 62
     7
420
 16777215
176
     1
 90
        2
176
     1
 90
        2
176
     1
 62
     7
176
     1
 62
   257
176
     1
 90
        2
176
     1
 90
        1
176
     1
 40
40.0
176
     1
 90
        0
176
     1
 62
   257
176
     1
 40
1.0
176
     1
 90
        1
176
     1
 90
        6
176
     1
 90
        2
176
     1
 62
     7
176
     1
 90
        3
176
     1
 90
        0
176
     1
 90
        0
176
     1
290
     0
176
     1
 90
        1
176
     1
 40
0.0
176
     1
 90
        0
176
     1
290
     0
176
     1
290
     1
176
     1
290
     1
176
     1
290
     0
176
     1
290
     0
176
     1
290
     0
176
     1
290
     0
176
     1
290
     0
176
     1
290
     0
176
     1
 90
       50
176
     1
 40
0.0
176
     1
 40
1.0
176
     1
 90
        0
176
     1
 62
    18
420
        0
176
     1
 90
       50
176
     1
 90
        3
176
     1
 62
     5
420
      255
176
     1
290
     0
176
     1
 90
       50
176
     1
 90
       50
176
     1
 90
       50
176
     1
290
     0
176
     1
 90
       50
176
     1
 62
   256
176
     0
 40
1.0
176
     0
 90
        2
176
     1
  1
strokes_ogs.tif
176
     1
290
     0
176
     1
 40
1.0
176
     1
 40
1.0
176
     1
  0
VISUALSTYLE
  5
1E4
102
{ACAD_REACTORS
330
EF
102
}
330
EF
100
AcDbVisualStyle
  2
JitterOff
 70
    20
177
     3
291
     1
 70
    58
 90
        2
176
     0
 90
        2
176
     0
 90
        0
176
     0
 90
        0
176
     0
 40
0.6
176
     0
 40
30.0
176
     0
 62
     7
420
 16777215
176
     0
 90
        1
176
     0
 90
        4
176
     0
 62
     7
176
     0
 62
   257
176
     0
 90
        1
176
     0
 90
        1
176
     0
 40
1.0
176
     0
 90
       10
176
     2
 62
     7
176
     0
 40
1.0
176
     0
 90
        1
176
     0
 90
        6
176
     0
 90
        2
176
     0
 62
     7
176
     0
 90
        5
176
     0
 90
        0
176
     0
 90
        0
176
     0
290
     0
176
     0
 90
        1
176
     0
 40
0.0
176
     0
 90
        0
176
     0
290
     0
176
     1
290
     1
176
     1
290
     1
176
     1
290
     0
176
     1
290
     0
176
     1
290
     0
176
     1
290
     0
176
     1
290
     0
176
     1
290
     0
176
     1
 90
       50
176
     1
 40
0.0
176
     1
 40
1.0
176
     1
 90
        0
176
     1
 62
    18
420
        0
176
     1
 90
       50
176
     1
 90
        3
176
     1
 62
     5
420
      255
176
     1
290
     0
176
     1
 90
       50
176
     1
 90
       50
176
     1
 90
       50
176
     1
290
     0
176
     1
 90
       50
176
     1
 62
   256
176
     0
 40
1.0
176
     0
 90
        2
176
     1
  1
strokes_ogs.tif
176
     1
290
     0
176
     1
 40
1.0
176
     1
 40
1.0
176
     1
  0
VISUALSTYLE
  5
FD
102
{ACAD_REACTORS
330
EF
102
}
330
EF
100
AcDbVisualStyle
  2
Linepattern
 70
    14
177
     3
291
     1
 70
    58
 90
        2
176
     1
 90
        2
176
     1
 90
        1
176
     1
 90
        0
176
     1
 40
0.6
176
     1
 40
30.0
176
     1
 62
     7
420
 16777215
176
     1
 90
        1
176
     1
 90
        4
176
     1
 62
     7
176
     1
 62
   257
176
     1
 90
        7
176
     1
 90
        7
176
     1
 40
1.0
176
     1
 90
        8
176
     1
 62
     7
176
     1
 40
1.0
176
     1
 90
        1
176
     1
 90
        6
176
     1
 90
        2
176
     1
 62
     7
176
     1
 90
        5
176
     1
 90
        0
176
     1
 90
        0
176
     1
290
     0
176
     1
 90
        1
176
     1
 40
0.0
176
     1
 90
        0
176
     1
290
     0
176
     1
290
     1
176
     1
290
     1
176
     1
290
     0
176
     1
290
     0
176
     1
290
     0
176
     1
290
     0
176
     1
290
     0
176
     1
290
     0
176
     1
 90
       50
176
     1
 40
0.0
176
     1
 40
1.0
176
     1
 90
        0
176
     1
 62
    18
420
        0
176
     1
 90
       50
176
     1
 90
        3
176
     1
 62
     5
420
      255
176
     1
290
     0
176
     1
 90
       50
176
     1
 90
       50
176
     1
 90
       50
176
     1
290
     0
176
     1
 90
       50
176
     1
 62
   256
176
     0
 40
1.0
176
     0
 90
        2
176
     1
  1
strokes_ogs.tif
176
     1
290
     0
176
     1
 40
1.0
176
     1
 40
1.0
176
     1
  0
VISUALSTYLE
  5
1E5
102
{ACAD_REACTORS
330
EF
102
}
330
EF
100
AcDbVisualStyle
  2
OverhangOff
 70
    21
177
     3
291
     1
 70
    58
 90
        2
176
     0
 90
        2
176
     0
 90
        0
176
     0
 90
        0
176
     0
 40
0.6
176
     0
 40
30.0
176
     0
 62
     7
420
 16777215
176
     0
 90
        1
176
     0
 90
        4
176
     0
 62
     7
176
     0
 62
   257
176
     0
 90
        1
176
     0
 90
        1
176
     0
 40
1.0
176
     0
 90
        9
176
     2
 62
     7
176
     0
 40
1.0
176
     0
 90
        1
176
     0
 90
        6
176
     0
 90
        2
176
     0
 62
     7
176
     0
 90
        5
176
     0
 90
        0
176
     0
 90
        0
176
     0
290
     0
176
     0
 90
        1
176
     0
 40
0.0
176
     0
 90
        0
176
     0
290
     0
176
     1
290
     1
176
     1
290
     1
176
     1
290
     0
176
     1
290
     0
176
     1
290
     0
176
     1
290
     0
176
     1
290
     0
176
     1
290
     0
176
     1
 90
       50
176
     1
 40
0.0
176
     1
 40
1.0
176
     1
 90
        0
176
     1
 62
    18
420
        0
176
     1
 90
       50
176
     1
 90
        3
176
     1
 62
     5
420
      255
176
     1
290
     0
176
     1
 90
       50
176
     1
 90
       50
176
     1
 90
       50
176
     1
290
     0
176
     1
 90
       50
176
     1
 62
   256
176
     0
 40
1.0
176
     0
 90
        2
176
     1
  1
strokes_ogs.tif
176
     1
290
     0
176
     1
 40
1.0
176
     1
 40
1.0
176
     1
  0
VISUALSTYLE
  5
F9
102
{ACAD_REACTORS
330
EF
102
}
330
EF
100
AcDbVisualStyle
  2
Realistic
 70
     8
177
     3
291
     0
 70
    58
 90
        2
176
     1
 90
        3
176
     1
 90
        0
176
     1
 90
        2
176
     1
 40
0.6
176
     1
 40
30.0
176
     1
 62
     7
420
 16777215
176
     1
 90
        0
176
     1
 90
        0
176
     1
 62
     7
176
     1
 62
   257
176
     1
 90
        1
176
     1
 90
        1
176
     1
 40
1.0
176
     1
 90
        8
176
     1
 62
   257
176
     1
 40
1.0
176
     1
 90
        1
176
     1
 90
        6
176
     1
 90
        2
176
     1
 62
     7
176
     1
 90
        3
176
     1
 90
        0
176
     1
 90
        0
176
     1
290
     0
176
     1
 90
       13
176
     1
 40
0.0
176
     1
 90
        0
176
     1
290
     0
176
     1
290
     1
176
     1
290
     1
176
     1
290
     0
176
     1
290
     0
176
     1
290
     0
176
     1
290
     0
176
     1
290
     0
176
     1
290
     0
176
     1
 90
       50
176
     1
 40
0.0
176
     1
 40
1.0
176
     1
 90
        0
176
     1
 62
    18
420
        0
176
     1
 90
       50
176
     1
 90
        3
176
     1
 62
     5
420
      255
176
     1
290
     0
176
     1
 90
       50
176
     1
 90
       50
176
     1
 90
       50
176
     1
290
     0
176
     1
 90
       50
176
     1
 62
   256
176
     0
 40
1.0
176
     0
 90
        2
176
     1
  1
strokes_ogs.tif
176
     1
290
     0
176
     1
 40
1.0
176
     1
 40
1.0
176
     1
  0
VISUALSTYLE
  5
1F3
102
{ACAD_REACTORS
330
EF
102
}
330
EF
100
AcDbVisualStyle
  2
Shaded
 70
    27
177
     3
291
     0
 70
    58
 90
        2
176
     1
 90
        2
176
     1
 90
        1
176
     1
 90
        2
176
     1
 40
0.6
176
     1
 40
30.0
176
     1
 62
     7
420
 16777215
176
     1
 90
        0
176
     1
 90
        4
176
     1
 62
     7
176
     1
 62
   257
176
     1
 90
        1
176
     1
 90
        1
176
     1
 40
1.0
176
     1
 90
        8
176
     1
 62
   257
176
     1
 40
1.0
176
     1
 90
        1
176
     1
 90
        6
176
     1
 90
        2
176
     1
 62
     8
420
  7895160
176
     1
 90
        3
176
     1
 90
        0
176
     1
 90
        0
176
     1
290
     0
176
     1
 90
        5
176
     1
 40
0.0
176
     1
 90
        0
176
     1
290
     0
176
     1
290
     1
176
     1
290
     1
176
     1
290
     0
176
     1
290
     0
176
     1
290
     0
176
     1
290
     0
176
     1
290
     0
176
     1
290
     0
176
     1
 90
       50
176
     1
 40
0.0
176
     1
 40
1.0
176
     1
 90
        0
176
     1
 62
    18
420
        0
176
     1
 90
       50
176
     1
 90
        3
176
     1
 62
     5
420
      255
176
     1
290
     0
176
     1
 90
       50
176
     1
 90
       50
176
     1
 90
       50
176
     1
290
     0
176
     1
 90
       50
176
     1
 62
   256
176
     0
 40
1.0
176
     0
 90
        2
176
     1
  1
strokes_ogs.tif
176
     1
290
     0
176
     1
 40
1.0
176
     1
 40
1.0
176
     1
  0
VISUALSTYLE
  5
1F2
102
{ACAD_REACTORS
330
EF
102
}
330
EF
100
AcDbVisualStyle
  2
Shaded with edges
 70
    26
177
     3
291
     0
 70
    58
 90
        2
176
     1
 90
        2
176
     1
 90
        1
176
     1
 90
        2
176
     1
 40
0.6
176
     1
 40
30.0
176
     1
 62
     7
420
 16777215
176
     1
 90
        1
176
     1
 90
       10
176
     1
 62
     7
176
     1
 62
   257
176
     1
 90
        2
176
     1
 90
        1
176
     1
 40
1.0
176
     1
 90
        8
176
     1
 62
   257
176
     1
 40
1.0
176
     1
 90
        1
176
     1
 90
        6
176
     1
 90
        2
176
     1
 62
     7
176
     1
 90
        3
176
     1
 90
        0
176
     1
 90
        0
176
     1
290
     0
176
     1
 90
        5
176
     1
 40
0.0
176
     1
 90
        0
176
     1
290
     0
176
     1
290
     1
176
     1
290
     1
176
     1
290
     0
176
     1
290
     0
176
     1
290
     0
176
     1
290
     0
176
     1
290
     0
176
     1
290
     0
176
     1
 90
       50
176
     1
 40
0.0
176
     1
 40
1.0
176
     1
 90
        0
176
     1
 62
    18
420
        0
176
     1
 90
       50
176
     1
 90
        3
176
     1
 62
     5
420
      255
176
     1
290
     0
176
     1
 90
       50
176
     1
 90
       50
176
     1
 90
       50
176
     1
290
     0
176
     1
 90
       50
176
     1
 62
   256
176
     0
 40
1.0
176
     0
 90
        2
176
     1
  1
strokes_ogs.tif
176
     1
290
     0
176
     1
 40
1.0
176
     1
 40
1.0
176
     1
  0
VISUALSTYLE
  5
1EF
102
{ACAD_REACTORS
330
EF
102
}
330
EF
100
AcDbVisualStyle
  2
Shades of Gray
 70
    23
177
     3
291
     0
 70
    58
 90
        2
176
     1
 90
        2
176
     1
 90
        3
176
     1
 90
        0
176
     1
 40
0.6
176
     1
 40
30.0
176
     1
 62
     7
420
 16777215
176
     1
 90
        2
176
     1
 90
        2
176
     1
 62
     7
176
     1
 62
     7
176
     1
 90
        1
176
     1
 90
        1
176
     1
 40
40.0
176
     1
 90
        8
176
     1
 62
     7
176
     1
 40
1.0
176
     1
 90
        1
176
     1
 90
        6
176
     1
 90
        2
176
     1
 62
     7
176
     1
 90
        3
176
     1
 90
        0
176
     1
 90
        0
176
     1
290
     0
176
     1
 90
        1
176
     1
 40
0.0
176
     1
 90
        0
176
     1
290
     0
176
     1
290
     1
176
     1
290
     1
176
     1
290
     0
176
     1
290
     0
176
     1
290
     0
176
     1
290
     0
176
     1
290
     0
176
     1
290
     0
176
     1
 90
       50
176
     1
 40
0.0
176
     1
 40
1.0
176
     1
 90
        0
176
     1
 62
    18
420
        0
176
     1
 90
       50
176
     1
 90
        3
176
     1
 62
     5
420
      255
176
     1
290
     0
176
     1
 90
       50
176
     1
 90
       50
176
     1
 90
       50
176
     1
290
     0
176
     1
 90
       50
176
     1
 62
   256
176
     0
 40
1.0
176
     0
 90
        2
176
     1
  1
strokes_ogs.tif
176
     1
290
     0
176
     1
 40
1.0
176
     1
 40
1.0
176
     1
  0
VISUALSTYLE
  5
1F0
102
{ACAD_REACTORS
330
EF
102
}
330
EF
100
AcDbVisualStyle
  2
Sketchy
 70
    24
177
     3
291
     0
 70
    58
 90
        1
176
     1
 90
        2
176
     1
 90
        2
176
     1
 90
        0
176
     1
 40
0.6
176
     1
 40
30.0
176
     1
 62
     7
420
 16777215
176
     1
 90
        2
176
     1
 90
        2
176
     1
 62
     7
176
     1
 62
     7
176
     1
 90
        1
176
     1
 90
        1
176
     1
 40
40.0
176
     1
 90
       11
176
     1
 62
     7
176
     1
 40
1.0
176
     1
 90
        1
176
     1
 90
        6
176
     1
 90
        2
176
     1
 62
     7
176
     1
 90
        6
176
     1
 90
        0
176
     1
 90
        0
176
     1
290
     0
176
     1
 90
        1
176
     1
 40
0.0
176
     1
 90
        0
176
     1
290
     0
176
     1
290
     1
176
     1
290
     1
176
     1
290
     0
176
     1
290
     0
176
     1
290
     0
176
     1
290
     0
176
     1
290
     0
176
     1
290
     0
176
     1
 90
       50
176
     1
 40
0.0
176
     1
 40
1.0
176
     1
 90
        0
176
     1
 62
    18
420
        0
176
     1
 90
       50
176
     1
 90
        3
176
     1
 62
     5
420
      255
176
     1
290
     0
176
     1
 90
       50
176
     1
 90
       50
176
     1
 90
       50
176
     1
290
     0
176
     1
 90
       50
176
     1
 62
   256
176
     0
 40
1.0
176
     0
 90
        2
176
     1
  1
strokes_ogs.tif
176
     1
290
     0
176
     1
 40
1.0
176
     1
 40
1.0
176
     1
  0
VISUALSTYLE
  5
FC
102
{ACAD_REACTORS
330
EF
102
}
330
EF
100
AcDbVisualStyle
  2
Thicken
 70
    13
177
     3
291
     1
 70
    58
 90
        2
176
     1
 90
        2
176
     1
 90
        1
176
     1
 90
        0
176
     1
 40
0.6
176
     1
 40
30.0
176
     1
 62
     7
420
 16777215
176
     1
 90
        1
176
     1
 90
        4
176
     1
 62
     7
176
     1
 62
   257
176
     1
 90
        1
176
     1
 90
        1
176
     1
 40
1.0
176
     1
 90
       12
176
     1
 62
     7
176
     1
 40
1.0
176
     1
 90
        1
176
     1
 90
        6
176
     1
 90
        2
176
     1
 62
     7
176
     1
 90
        5
176
     1
 90
        0
176
     1
 90
        0
176
     1
290
     0
176
     1
 90
        1
176
     1
 40
0.0
176
     1
 90
        0
176
     1
290
     0
176
     1
290
     1
176
     1
290
     1
176
     1
290
     0
176
     1
290
     0
176
     1
290
     0
176
     1
290
     0
176
     1
290
     0
176
     1
290
     0
176
     1
 90
       50
176
     1
 40
0.0
176
     1
 40
1.0
176
     1
 90
        0
176
     1
 62
    18
420
        0
176
     1
 90
       50
176
     1
 90
        3
176
     1
 62
     5
420
      255
176
     1
290
     0
176
     1
 90
       50
176
     1
 90
       50
176
     1
 90
       50
176
     1
290
     0
176
     1
 90
       50
176
     1
 62
   256
176
     0
 40
1.0
176
     0
 90
        2
176
     1
  1
strokes_ogs.tif
176
     1
290
     0
176
     1
 40
1.0
176
     1
 40
1.0
176
     1
  0
VISUALSTYLE
  5
F6
102
{ACAD_REACTORS
330
EF
102
}
330
EF
100
AcDbVisualStyle
  2
Wireframe
 70
     5
177
     3
291
     0
 70
    58
 90
        0
176
     1
 90
        2
176
     1
 90
        0
176
     1
 90
        0
176
     1
 40
0.6
176
     1
 40
30.0
176
     1
 62
     7
420
 16777215
176
     1
 90
        1
176
     1
 90
        4
176
     1
 62
     7
176
     1
 62
   257
176
     1
 90
        1
176
     1
 90
        1
176
     1
 40
1.0
176
     1
 90
        0
176
     1
 62
   257
176
     1
 40
1.0
176
     1
 90
        1
176
     1
 90
        6
176
     1
 90
        2
176
     1
 62
     7
176
     1
 90
        3
176
     1
 90
        0
176
     1
 90
        0
176
     1
290
     0
176
     1
 90
        1
176
     1
 40
0.0
176
     1
 90
        0
176
     1
290
     0
176
     1
290
     1
176
     1
290
     1
176
     1
290
     0
176
     1
290
     0
176
     1
290
     0
176
     1
290
     0
176
     1
290
     0
176
     1
290
     0
176
     1
 90
       50
176
     1
 40
0.0
176
     1
 40
1.0
176
     1
 90
        0
176
     1
 62
    18
420
        0
176
     1
 90
       50
176
     1
 90
        3
176
     1
 62
     5
420
      255
176
     1
290
     0
176
     1
 90
       50
176
     1
 90
       50
176
     1
 90
       50
176
     1
290
     0
176
     1
 90
       50
176
     1
 62
   256
176
     0
 40
1.0
176
     0
 90
        2
176
     1
  1
strokes_ogs.tif
176
     1
290
     0
176
     1
 40
1.0
176
     1
 40
1.0
176
     1
  0
VISUALSTYLE
  5
1F1
102
{ACAD_REACTORS
330
EF
102
}
330
EF
100
AcDbVisualStyle
  2
X-Ray
 70
    25
177
     3
291
     0
 70
    58
 90
        2
176
     1
 90
        2
176
     1
 90
        1
176
     1
 90
        1
176
     1
 40
0.5
176
     1
 40
30.0
176
     1
 62
     7
420
 16777215
176
     1
 90
        1
176
     1
 90
        0
176
     1
 62
     7
176
     1
 62
   257
176
     1
 90
        1
176
     1
 90
        1
176
     1
 40
1.0
176
     1
 90
        8
176
     1
 62
     7
176
     1
 40
1.0
176
     1
 90
        1
176
     1
 90
        6
176
     1
 90
        2
176
     1
 62
     7
176
     1
 90
        3
176
     1
 90
        0
176
     1
 90
        0
176
     1
290
     0
176
     1
 90
       13
176
     1
 40
0.0
176
     1
 90
        0
176
     1
290
     0
176
     1
290
     1
176
     1
290
     1
176
     1
290
     0
176
     1
290
     0
176
     1
290
     0
176
     1
290
     0
176
     1
290
     0
176
     1
290
     0
176
     1
 90
       50
176
     1
 40
0.0
176
     1
 40
1.0
176
     1
 90
        0
176
     1
 62
    18
420
        0
176
     1
 90
       50
176
     1
 90
        3
176
     1
 62
     5
420
      255
176
     1
290
     0
176
     1
 90
       50
176
     1
 90
       50
176
     1
 90
       50
176
     1
290
     0
176
     1
 90
       50
176
     1
 62
   256
176
     0
 40
1.0
176
     0
 90
        2
176
     1
  1
strokes_ogs.tif
176
     1
290
     0
176
     1
 40
1.0
176
     1
 40
1.0
176
     1
  0
DICTIONARYVAR
  5
146
102
{ACAD_REACTORS
330
5E
102
}
330
5E
100
DictionaryVariables
280
     0
  1
1:15
  0
DICTIONARYVAR
  5
145
102
{ACAD_REACTORS
330
5E
102
}
330
5E
100
DictionaryVariables
280
     0
  1
Annotative
  0
DICTIONARYVAR
  5
84
102
{ACAD_REACTORS
330
5E
102
}
330
5E
100
DictionaryVariables
280
     0
  1
STANDARD
  0
DICTIONARYVAR
  5
227
102
{ACAD_REACTORS
330
5E
102
}
330
5E
100
DictionaryVariables
280
     0
  1
Metric50
  0
DICTIONARYVAR
  5
228
102
{ACAD_REACTORS
330
5E
102
}
330
5E
100
DictionaryVariables
280
     0
  1
Metric50
  0
DICTIONARYVAR
  5
5F
102
{ACAD_REACTORS
330
5E
102
}
330
5E
100
DictionaryVariables
280
     0
  1
2
  0
DICTIONARYVAR
  5
63
102
{ACAD_REACTORS
330
5E
102
}
330
5E
100
DictionaryVariables
280
     0
  1
1
  0
DICTIONARYVAR
  5
1AE
102
{ACAD_REACTORS
330
5E
102
}
330
5E
100
DictionaryVariables
280
     0
  1
0
  0
DICTIONARYVAR
  5
1AF
102
{ACAD_REACTORS
330
5E
102
}
330
5E
100
DictionaryVariables
280
     0
  1
0
  0
DICTIONARYVAR
  5
270
102
{ACAD_REACTORS
330
5E
102
}
330
5E
100
DictionaryVariables
280
     0
  1
中央
  0
DICTIONARY
  5
1952
102
{ACAD_REACTORS
330
1951
102
}
330
1951
100
AcDbDictionary
281
     1
  3
*A1
350
1953
  0
DICTIONARY
  5
1964
102
{ACAD_REACTORS
330
1963
102
}
330
1963
100
AcDbDictionary
281
     1
  3
*A1
350
1965
  0
DICTIONARY
  5
1976
102
{ACAD_REACTORS
330
1975
102
}
330
1975
100
AcDbDictionary
281
     1
  3
*A1
350
1977
  0
DICTIONARY
  5
1988
102
{ACAD_REACTORS
330
1987
102
}
330
1987
100
AcDbDictionary
281
     1
  3
*A1
350
1989
  0
DICTIONARY
  5
199A
102
{ACAD_REACTORS
330
1999
102
}
330
1999
100
AcDbDictionary
281
     1
  3
*A1
350
199B
  0
DICTIONARY
  5
19AC
102
{ACAD_REACTORS
330
19AB
102
}
330
19AB
100
AcDbDictionary
281
     1
  3
*A1
350
19AD
  0
DICTIONARY
  5
19BE
102
{ACAD_REACTORS
330
19BD
102
}
330
19BD
100
AcDbDictionary
281
     1
  3
*A1
350
19BF
  0
DICTIONARY
  5
19D0
102
{ACAD_REACTORS
330
19CF
102
}
330
19CF
100
AcDbDictionary
281
     1
  3
*A1
350
19D1
  0
DICTIONARY
  5
19E4
102
{ACAD_REACTORS
330
19E3
102
}
330
19E3
100
AcDbDictionary
281
     1
  3
*A1
350
19E5
  0
DICTIONARY
  5
19F8
102
{ACAD_REACTORS
330
19F7
102
}
330
19F7
100
AcDbDictionary
281
     1
  3
*A1
350
19F9
  0
DICTIONARY
  5
1A0A
102
{ACAD_REACTORS
330
1A09
102
}
330
1A09
100
AcDbDictionary
281
     1
  3
*A1
350
1A0B
  0
DICTIONARY
  5
1A1E
102
{ACAD_REACTORS
330
1A1D
102
}
330
1A1D
100
AcDbDictionary
281
     1
  3
*A1
350
1A1F
  0
DICTIONARY
  5
1A30
102
{ACAD_REACTORS
330
1A2F
102
}
330
1A2F
100
AcDbDictionary
281
     1
  3
*A1
350
1A31
  0
DICTIONARY
  5
1A4D
102
{ACAD_REACTORS
330
1A4C
102
}
330
1A4C
100
AcDbDictionary
281
     1
  3
*A1
350
1A4E
  0
DICTIONARY
  5
1A5F
102
{ACAD_REACTORS
330
1A5E
102
}
330
1A5E
100
AcDbDictionary
281
     1
  3
*A1
350
1A60
  0
DICTIONARY
  5
1A73
102
{ACAD_REACTORS
330
1A72
102
}
330
1A72
100
AcDbDictionary
281
     1
  3
*A1
350
1A74
  0
DICTIONARY
  5
1A87
102
{ACAD_REACTORS
330
1A86
102
}
330
1A86
100
AcDbDictionary
281
     1
  3
*A1
350
1A88
  0
DICTIONARY
  5
1A99
102
{ACAD_REACTORS
330
1A98
102
}
330
1A98
100
AcDbDictionary
281
     1
  3
*A1
350
1A9A
  0
DICTIONARY
  5
1AAB
102
{ACAD_REACTORS
330
1AAA
102
}
330
1AAA
100
AcDbDictionary
281
     1
  3
*A1
350
1AAC
  0
DICTIONARY
  5
1ABD
102
{ACAD_REACTORS
330
1ABC
102
}
330
1ABC
100
AcDbDictionary
281
     1
  3
*A1
350
1ABE
  0
DICTIONARY
  5
1ACF
102
{ACAD_REACTORS
330
1ACE
102
}
330
1ACE
100
AcDbDictionary
281
     1
  3
*A1
350
1AD0
  0
DICTIONARY
  5
1AE3
102
{ACAD_REACTORS
330
1AE2
102
}
330
1AE2
100
AcDbDictionary
281
     1
  3
*A1
350
1AE4
  0
DICTIONARY
  5
1AF9
102
{ACAD_REACTORS
330
1AF8
102
}
330
1AF8
100
AcDbDictionary
281
     1
  3
*A1
350
1AFA
  0
DICTIONARY
  5
1B0B
102
{ACAD_REACTORS
330
1B0A
102
}
330
1B0A
100
AcDbDictionary
281
     1
  3
*A1
350
1B0C
  0
DICTIONARY
  5
1B1D
102
{ACAD_REACTORS
330
1B1C
102
}
330
1B1C
100
AcDbDictionary
281
     1
  3
*A1
350
1B1E
  0
DICTIONARY
  5
1B2F
102
{ACAD_REACTORS
330
1B2E
102
}
330
1B2E
100
AcDbDictionary
281
     1
  3
*A1
350
1B30
  0
DICTIONARY
  5
1B41
102
{ACAD_REACTORS
330
1B40
102
}
330
1B40
100
AcDbDictionary
281
     1
  3
*A1
350
1B42
  0
DICTIONARY
  5
1B54
102
{ACAD_REACTORS
330
1B53
102
}
330
1B53
100
AcDbDictionary
281
     1
  3
*A1
350
1B55
  0
DICTIONARY
  5
1B7E
102
{ACAD_REACTORS
330
1B7D
102
}
330
1B7D
100
AcDbDictionary
281
     1
  3
*A1
350
1B7F
  0
DICTIONARY
  5
1CA3
102
{ACAD_REACTORS
330
1CA2
102
}
330
1CA2
100
AcDbDictionary
281
     1
  3
*A1
350
1CA4
  0
DICTIONARY
  5
1CB7
102
{ACAD_REACTORS
330
1CB6
102
}
330
1CB6
100
AcDbDictionary
281
     1
  3
*A1
350
1CB8
  0
DICTIONARY
  5
1CE9
102
{ACAD_REACTORS
330
1CE8
102
}
330
1CE8
100
AcDbDictionary
281
     1
  3
*A1
350
1CEA
  0
DICTIONARY
  5
1CEF
102
{ACAD_REACTORS
330
1CEE
102
}
330
1CEE
100
AcDbDictionary
281
     1
  3
*A1
350
1CF0
  0
DICTIONARY
  5
1CFA
102
{ACAD_REACTORS
330
1CF9
102
}
330
1CF9
100
AcDbDictionary
281
     1
  3
*A1
350
1CFB
  0
DICTIONARY
  5
1CFF
102
{ACAD_REACTORS
330
1CFE
102
}
330
1CFE
100
AcDbDictionary
281
     1
  3
*A1
350
1D00
  0
DICTIONARY
  5
1DC2
102
{ACAD_REACTORS
330
1DC1
102
}
330
1DC1
100
AcDbDictionary
281
     1
  3
*A1
350
1DC3
  0
DICTIONARY
  5
1DC8
102
{ACAD_REACTORS
330
1DC7
102
}
330
1DC7
100
AcDbDictionary
281
     1
  3
*A1
350
1DC9
  0
DICTIONARY
  5
2096
102
{ACAD_REACTORS
330
2095
102
}
330
2095
100
AcDbDictionary
281
     1
  3
*A1
350
2097
  0
DICTIONARY
  5
20CA
102
{ACAD_REACTORS
330
20C9
102
}
330
20C9
100
AcDbDictionary
281
     1
  3
*A1
350
20CB
  0
DICTIONARY
  5
20DC
102
{ACAD_REACTORS
330
20DB
102
}
330
20DB
100
AcDbDictionary
281
     1
  3
*A1
350
20DD
  0
DICTIONARY
  5
20F0
102
{ACAD_REACTORS
330
20EF
102
}
330
20EF
100
AcDbDictionary
281
     1
  3
*A1
350
20F1
  0
DICTIONARY
  5
2104
102
{ACAD_REACTORS
330
2103
102
}
330
2103
100
AcDbDictionary
281
     1
  3
*A1
350
2105
  0
DICTIONARY
  5
2117
102
{ACAD_REACTORS
330
2116
102
}
330
2116
100
AcDbDictionary
281
     1
  3
*A1
350
2118
  0
DICTIONARY
  5
212B
102
{ACAD_REACTORS
330
212A
102
}
330
212A
100
AcDbDictionary
281
     1
  3
*A1
350
212C
  0
DICTIONARY
  5
213E
102
{ACAD_REACTORS
330
213D
102
}
330
213D
100
AcDbDictionary
281
     1
  3
*A1
350
213F
  0
DICTIONARY
  5
2152
102
{ACAD_REACTORS
330
2151
102
}
330
2151
100
AcDbDictionary
281
     1
  3
*A1
350
2153
  0
DICTIONARY
  5
2164
102
{ACAD_REACTORS
330
2163
102
}
330
2163
100
AcDbDictionary
281
     1
  3
*A1
350
2165
  0
DICTIONARY
  5
2178
102
{ACAD_REACTORS
330
2177
102
}
330
2177
100
AcDbDictionary
281
     1
  3
*A1
350
2179
  0
DICTIONARY
  5
218A
102
{ACAD_REACTORS
330
2189
102
}
330
2189
100
AcDbDictionary
281
     1
  3
*A1
350
218B
  0
DICTIONARY
  5
219E
102
{ACAD_REACTORS
330
219D
102
}
330
219D
100
AcDbDictionary
281
     1
  3
*A1
350
219F
  0
DICTIONARY
  5
21B0
102
{ACAD_REACTORS
330
21AF
102
}
330
21AF
100
AcDbDictionary
281
     1
  3
*A1
350
21B1
  0
DICTIONARY
  5
21C2
102
{ACAD_REACTORS
330
21C1
102
}
330
21C1
100
AcDbDictionary
281
     1
  3
*A1
350
21C3
  0
DICTIONARY
  5
21D4
102
{ACAD_REACTORS
330
21D3
102
}
330
21D3
100
AcDbDictionary
281
     1
  3
*A1
350
21D5
  0
DICTIONARY
  5
21E9
102
{ACAD_REACTORS
330
21E8
102
}
330
21E8
100
AcDbDictionary
281
     1
  3
*A1
350
21EA
  0
DICTIONARY
  5
21FB
102
{ACAD_REACTORS
330
21FA
102
}
330
21FA
100
AcDbDictionary
281
     1
  3
*A1
350
21FC
  0
DICTIONARY
  5
220D
102
{ACAD_REACTORS
330
220C
102
}
330
220C
100
AcDbDictionary
281
     1
  3
*A1
350
220E
  0
DICTIONARY
  5
221F
102
{ACAD_REACTORS
330
221E
102
}
330
221E
100
AcDbDictionary
281
     1
  3
*A1
350
2220
  0
DICTIONARY
  5
2231
102
{ACAD_REACTORS
330
2230
102
}
330
2230
100
AcDbDictionary
281
     1
  3
*A1
350
2232
  0
DICTIONARY
  5
2243
102
{ACAD_REACTORS
330
2242
102
}
330
2242
100
AcDbDictionary
281
     1
  3
*A1
350
2244
  0
DICTIONARY
  5
2518
102
{ACAD_REACTORS
330
2517
102
}
330
2517
100
AcDbDictionary
281
     1
  3
*A1
350
2519
  0
DICTIONARY
  5
251D
102
{ACAD_REACTORS
330
251C
102
}
330
251C
100
AcDbDictionary
281
     1
  3
*A1
350
251E
  0
DICTIONARY
  5
2522
102
{ACAD_REACTORS
330
2521
102
}
330
2521
100
AcDbDictionary
281
     1
  3
*A1
350
2523
  0
DICTIONARY
  5
2527
102
{ACAD_REACTORS
330
2526
102
}
330
2526
100
AcDbDictionary
281
     1
  3
*A1
350
2528
  0
DICTIONARY
  5
252C
102
{ACAD_REACTORS
330
252B
102
}
330
252B
100
AcDbDictionary
281
     1
  3
*A1
350
252D
  0
DICTIONARY
  5
2531
102
{ACAD_REACTORS
330
2530
102
}
330
2530
100
AcDbDictionary
281
     1
  3
*A1
350
2532
  0
DICTIONARY
  5
2536
102
{ACAD_REACTORS
330
2535
102
}
330
2535
100
AcDbDictionary
281
     1
  3
*A1
350
2537
  0
DICTIONARY
  5
236
330
21C
100
AcDbDictionary
280
     1
281
     1
  3
ACAD_XREC_ROUNDTRIP
360
312B
  0
DICTIONARY
  5
205
330
22
100
AcDbDictionary
280
     1
281
     1
  0
DICTIONARY
  5
1F9
330
ED
100
AcDbDictionary
280
     1
281
     1
  3
FBXASSET
360
1FA
  0
DICTIONARY
  5
1F7
330
EC
100
AcDbDictionary
280
     1
281
     1
  3
FBXASSET
360
1F8
  0
DICTIONARY
  5
173
330
EE
100
AcDbDictionary
280
     1
281
     1
  3
BUMPTILE
360
175
  3
DIFFUSETILE
360
174
  3
FBXASSET
360
1FB
  3
OPACITYTILE
360
176
  3
REFLECTIONTILE
360
177
  0
DICTIONARY
  5
234
330
21A
100
AcDbDictionary
280
     1
281
     1
  3
ACAD_XREC_ROUNDTRIP
360
312A
  0
DICTIONARY
  5
162
330
7F
100
AcDbDictionary
280
     1
281
     1
  3
ACAD_ROUNDTRIP_2008_TABLESTYLE_CELLSTYLEMAP
360
3129
  0
ACDB_ALDIMOBJECTCONTEXTDATA_CLASS
  5
1953
102
{ACAD_REACTORS
330
1952
102
}
330
1952
100
AcDbObjectContextData
 70
     4
290
     1
100
AcDbAnnotScaleObjectContextData
340
1823
100
AcDbDimensionObjectContextData
  2
*D1
293
     0
 10
857.4999999999997
 20
2252.5
294
     1
140
0.0
298
     0
291
     0
 70
     0
292
     0
 71
     0
280
     0
295
     0
296
     0
297
     0
100
AcDbAlignedDimensionObjectContextData
 11
880.0
 21
2302.5
 31
0.0
  0
ACDB_ALDIMOBJECTCONTEXTDATA_CLASS
  5
1965
102
{ACAD_REACTORS
330
1964
102
}
330
1964
100
AcDbObjectContextData
 70
     4
290
     1
100
AcDbAnnotScaleObjectContextData
340
1823
100
AcDbDimensionObjectContextData
  2
*D2
293
     0
 10
857.4999999999997
 20
2052.500000000001
294
     1
140
0.0
298
     0
291
     0
 70
     0
292
     0
 71
     0
280
     0
295
     0
296
     0
297
     0
100
AcDbAlignedDimensionObjectContextData
 11
880.0
 21
1902.5
 31
0.0
  0
ACDB_ALDIMOBJECTCONTEXTDATA_CLASS
  5
1977
102
{ACAD_REACTORS
330
1976
102
}
330
1976
100
AcDbObjectContextData
 70
     4
290
     1
100
AcDbAnnotScaleObjectContextData
340
1823
100
AcDbDimensionObjectContextData
  2
*D3
293
     0
 10
857.4999999999997
 20
1852.5
294
     1
140
0.0
298
     0
291
     0
 70
     0
292
     0
 71
     0
280
     0
295
     0
296
     0
297
     0
100
AcDbAlignedDimensionObjectContextData
 11
880.0
 21
1802.5
 31
0.0
  0
ACDB_ALDIMOBJECTCONTEXTDATA_CLASS
  5
1989
102
{ACAD_REACTORS
330
1988
102
}
330
1988
100
AcDbObjectContextData
 70
     4
290
     1
100
AcDbAnnotScaleObjectContextData
340
1823
100
AcDbDimensionObjectContextData
  2
*D4
293
     0
 10
752.4999999999996
 20
2052.5
294
     1
140
0.0
298
     0
291
     0
 70
     0
292
     0
 71
     0
280
     0
295
     0
296
     0
297
     0
100
AcDbAlignedDimensionObjectContextData
 11
775.0
 21
2302.5
 31
0.0
  0
ACDB_ALDIMOBJECTCONTEXTDATA_CLASS
  5
199B
102
{ACAD_REACTORS
330
199A
102
}
330
199A
100
AcDbObjectContextData
 70
     4
290
     1
100
AcDbAnnotScaleObjectContextData
340
1823
100
AcDbDimensionObjectContextData
  2
*D5
293
     0
 10
1035.0
 20
2430.0
294
     1
140
0.0
298
     0
291
     0
 70
     0
292
     0
 71
     0
280
     0
295
     0
296
     0
297
     0
100
AcDbAlignedDimensionObjectContextData
 11
985.0000000000003
 21
2407.5
 31
0.0
  0
ACDB_ALDIMOBJECTCONTEXTDATA_CLASS
  5
19AD
102
{ACAD_REACTORS
330
19AC
102
}
330
19AC
100
AcDbObjectContextData
 70
     4
290
     1
100
AcDbAnnotScaleObjectContextData
340
1823
100
AcDbDimensionObjectContextData
  2
*D6
293
     0
 10
1235.0
 20
2429.999999999998
294
     1
140
0.0
298
     0
291
     0
 70
     0
292
     0
 71
     0
280
     0
295
     0
296
     0
297
     0
100
AcDbAlignedDimensionObjectContextData
 11
1385.0
 21
2407.499999999998
 31
0.0
  0
ACDB_ALDIMOBJECTCONTEXTDATA_CLASS
  5
19BF
102
{ACAD_REACTORS
330
19BE
102
}
330
19BE
100
AcDbObjectContextData
 70
     4
290
     1
100
AcDbAnnotScaleObjectContextData
340
1823
100
AcDbDimensionObjectContextData
  2
*D7
293
     0
 10
1435.0
 20
2429.999999999999
294
     1
140
0.0
298
     0
291
     0
 70
     0
292
     0
 71
     0
280
     0
295
     0
296
     0
297
     0
100
AcDbAlignedDimensionObjectContextData
 11
1485.0
 21
2407.499999999999
 31
0.0
  0
ACDB_ALDIMOBJECTCONTEXTDATA_CLASS
  5
19D1
102
{ACAD_REACTORS
330
19D0
102
}
330
19D0
100
AcDbObjectContextData
 70
     4
290
     1
100
AcDbAnnotScaleObjectContextData
340
1823
100
AcDbDimensionObjectContextData
  2
*D8
293
     0
 10
1235.0
 20
2535.0
294
     1
140
0.0
298
     0
291
     0
 70
     0
292
     0
 71
     0
280
     0
295
     0
296
     0
297
     0
100
AcDbAlignedDimensionObjectContextData
 11
985.0000000000003
 21
2512.5
 31
0.0
  0
ACDB_ALDIMOBJECTCONTEXTDATA_CLASS
  5
19E5
102
{ACAD_REACTORS
330
19E4
102
}
330
19E4
100
AcDbObjectContextData
 70
     4
290
     1
100
AcDbAnnotScaleObjectContextData
340
1823
100
AcDbDimensionObjectContextData
  2
*D9
293
     0
 10
1567.5
 20
2273.197969543148
294
     1
140
0.0
298
     0
291
     0
 70
     0
292
     0
 71
     0
280
     0
295
     0
296
     0
297
     0
100
AcDbAlignedDimensionObjectContextData
 11
1590.0
 21
2217.5
 31
0.0
  0
ACDB_ALDIMOBJECTCONTEXTDATA_CLASS
  5
19F9
102
{ACAD_REACTORS
330
19F8
102
}
330
19F8
100
AcDbObjectContextData
 70
     4
290
     1
100
AcDbAnnotScaleObjectContextData
340
1823
100
AcDbDimensionObjectContextData
  2
*D10
293
     0
 10
1567.499999999999
 20
2052.500000000001
294
     1
140
0.0
298
     0
291
     0
 70
     0
292
     0
 71
     0
280
     0
295
     0
296
     0
297
     0
100
AcDbAlignedDimensionObjectContextData
 11
1590.0
 21
1902.5
 31
0.0
  0
ACDB_ALDIMOBJECTCONTEXTDATA_CLASS
  5
1A0B
102
{ACAD_REACTORS
330
1A0A
102
}
330
1A0A
100
AcDbObjectContextData
 70
     4
290
     1
100
AcDbAnnotScaleObjectContextData
340
1823
100
AcDbDimensionObjectContextData
  2
*D11
293
     0
 10
1567.499999999999
 20
1831.802030456853
294
     1
140
0.0
298
     0
291
     0
 70
     0
292
     0
 71
     0
280
     0
295
     0
296
     0
297
     0
100
AcDbAlignedDimensionObjectContextData
 11
1590.0
 21
1887.5
 31
0.0
  0
ACDB_ALDIMOBJECTCONTEXTDATA_CLASS
  5
1A1F
102
{ACAD_REACTORS
330
1A1E
102
}
330
1A1E
100
AcDbObjectContextData
 70
     4
290
     1
100
AcDbAnnotScaleObjectContextData
340
1823
100
AcDbDimensionObjectContextData
  2
*D12
293
     0
 10
1672.5
 20
2052.500000000001
294
     1
140
0.0
298
     0
291
     0
 70
     0
292
     0
 71
     0
280
     0
295
     0
296
     0
297
     0
100
AcDbAlignedDimensionObjectContextData
 11
1695.0
 21
2217.5
 31
0.0
  0
ACDB_ALDIMOBJECTCONTEXTDATA_CLASS
  5
1A31
102
{ACAD_REACTORS
330
1A30
102
}
330
1A30
100
AcDbObjectContextData
 70
     4
290
     1
100
AcDbAnnotScaleObjectContextData
340
1823
100
AcDbDimensionObjectContextData
  2
*D13
293
     0
 10
752.4999999999993
 20
912.5000000000001
294
     1
140
0.0
298
     0
291
     0
 70
     0
292
     0
 71
     0
280
     0
295
     0
296
     0
297
     0
100
AcDbAlignedDimensionObjectContextData
 11
774.9999999999995
 21
1212.5
 31
0.0
  0
ACDB_ALDIMOBJECTCONTEXTDATA_CLASS
  5
1A4E
102
{ACAD_REACTORS
330
1A4D
102
}
330
1A4D
100
AcDbObjectContextData
 70
     4
290
     1
100
AcDbAnnotScaleObjectContextData
340
1823
100
AcDbDimensionObjectContextData
  2
*D14
293
     0
 10
1235.0
 20
529.9999999999998
294
     1
140
0.0
298
     0
291
     0
 70
     0
292
     0
 71
     0
280
     0
295
     0
296
     0
297
     0
100
AcDbAlignedDimensionObjectContextData
 11
1385.0
 21
507.4999999999999
 31
0.0
  0
ACDB_ALDIMOBJECTCONTEXTDATA_CLASS
  5
1A60
102
{ACAD_REACTORS
330
1A5F
102
}
330
1A5F
100
AcDbObjectContextData
 70
     4
290
     1
100
AcDbAnnotScaleObjectContextData
340
1823
100
AcDbDimensionObjectContextData
  2
*D15
293
     0
 10
1014.302030456853
 20
530.0000000000001
294
     1
140
0.0
298
     0
291
     0
 70
     0
292
     0
 71
     0
280
     0
295
     0
296
     0
297
     0
100
AcDbAlignedDimensionObjectContextData
 11
1070.0
 21
507.5000000000001
 31
0.0
  0
ACDB_ALDIMOBJECTCONTEXTDATA_CLASS
  5
1A74
102
{ACAD_REACTORS
330
1A73
102
}
330
1A73
100
AcDbObjectContextData
 70
     4
290
     1
100
AcDbAnnotScaleObjectContextData
340
1823
100
AcDbDimensionObjectContextData
  2
*D16
293
     0
 10
1455.697969543147
 20
529.9999999999998
294
     1
140
0.0
298
     0
291
     0
 70
     0
292
     0
 71
     0
280
     0
295
     0
296
     0
297
     0
100
AcDbAlignedDimensionObjectContextData
 11
1400.0
 21
507.4999999999999
 31
0.0
  0
ACDB_ALDIMOBJECTCONTEXTDATA_CLASS
  5
1A88
102
{ACAD_REACTORS
330
1A87
102
}
330
1A87
100
AcDbObjectContextData
 70
     4
290
     1
100
AcDbAnnotScaleObjectContextData
340
1823
100
AcDbDimensionObjectContextData
  2
*D17
293
     0
 10
1235.0
 20
425.0
294
     1
140
0.0
298
     0
291
     0
 70
     0
292
     0
 71
     0
280
     0
295
     0
296
     0
297
     0
100
AcDbAlignedDimensionObjectContextData
 11
1070.0
 21
402.5
 31
0.0
  0
ACDB_ALDIMOBJECTCONTEXTDATA_CLASS
  5
1A9A
102
{ACAD_REACTORS
330
1A99
102
}
330
1A99
100
AcDbObjectContextData
 70
     4
290
     1
100
AcDbAnnotScaleObjectContextData
340
1823
100
AcDbDimensionObjectContextData
  2
*D18
293
     0
 10
2475.0
 20
425.0
294
     1
140
0.0
298
     0
291
     0
 70
     0
292
     0
 71
     0
280
     0
295
     0
296
     0
297
     0
100
AcDbAlignedDimensionObjectContextData
 11
2425.0
 21
402.5
 31
0.0
  0
ACDB_ALDIMOBJECTCONTEXTDATA_CLASS
  5
1AAC
102
{ACAD_REACTORS
330
1AAB
102
}
330
1AAB
100
AcDbObjectContextData
 70
     4
290
     1
100
AcDbAnnotScaleObjectContextData
340
1823
100
AcDbDimensionObjectContextData
  2
*D19
293
     0
 10
2675.0
 20
424.9999999999999
294
     1
140
0.0
298
     0
291
     0
 70
     0
292
     0
 71
     0
280
     0
295
     0
296
     0
297
     0
100
AcDbAlignedDimensionObjectContextData
 11
2825.0
 21
402.4999999999999
 31
0.0
  0
ACDB_ALDIMOBJECTCONTEXTDATA_CLASS
  5
1ABE
102
{ACAD_REACTORS
330
1ABD
102
}
330
1ABD
100
AcDbObjectContextData
 70
     4
290
     1
100
AcDbAnnotScaleObjectContextData
340
1823
100
AcDbDimensionObjectContextData
  2
*D20
293
     0
 10
2875.0
 20
425.0
294
     1
140
0.0
298
     0
291
     0
 70
     0
292
     0
 71
     0
280
     0
295
     0
296
     0
297
     0
100
AcDbAlignedDimensionObjectContextData
 11
2925.0
 21
402.5
 31
0.0
  0
ACDB_ALDIMOBJECTCONTEXTDATA_CLASS
  5
1AD0
102
{ACAD_REACTORS
330
1ACF
102
}
330
1ACF
100
AcDbObjectContextData
 70
     4
290
     1
100
AcDbAnnotScaleObjectContextData
340
1823
100
AcDbDimensionObjectContextData
  2
*D21
293
     0
 10
2767.779187817259
 20
530.0000000000001
294
     1
140
0.0
298
     0
291
     0
 70
     0
292
     0
 71
     0
280
     0
295
     0
296
     0
297
     0
100
AcDbAlignedDimensionObjectContextData
 11
2825.0
 21
507.5000000000001
 31
0.0
  0
ACDB_ALDIMOBJECTCONTEXTDATA_CLASS
  5
1AE4
102
{ACAD_REACTORS
330
1AE3
102
}
330
1AE3
100
AcDbObjectContextData
 70
     4
290
     1
100
AcDbAnnotScaleObjectContextData
340
1823
100
AcDbDimensionObjectContextData
  2
*D22
293
     0
 10
2890.0
 20
529.999999999999
294
     1
140
0.0
298
     0
291
     0
 70
     0
292
     0
 71
     0
280
     0
295
     0
296
     0
297
     0
100
AcDbAlignedDimensionObjectContextData
 11
2925.0
 21
507.4999999999991
 31
0.0
  0
ACDB_ALDIMOBJECTCONTEXTDATA_CLASS
  5
1AFA
102
{ACAD_REACTORS
330
1AF9
102
}
330
1AF9
100
AcDbObjectContextData
 70
     4
290
     1
100
AcDbAnnotScaleObjectContextData
340
1823
100
AcDbDimensionObjectContextData
  2
*D23
293
     0
 10
2297.499999999999
 20
1182.5
294
     1
140
0.0
298
     0
291
     0
 70
     0
292
     0
 71
     0
280
     0
295
     0
296
     0
297
     0
100
AcDbAlignedDimensionObjectContextData
 11
2320.0
 21
1212.5
 31
0.0
  0
ACDB_ALDIMOBJECTCONTEXTDATA_CLASS
  5
1B0C
102
{ACAD_REACTORS
330
1B0B
102
}
330
1B0B
100
AcDbObjectContextData
 70
     4
290
     1
100
AcDbAnnotScaleObjectContextData
340
1823
100
AcDbDimensionObjectContextData
  2
*D24
293
     0
 10
2297.5
 20
882.5000000000002
294
     1
140
0.0
298
     0
291
     0
 70
     0
292
     0
 71
     0
280
     0
295
     0
296
     0
297
     0
100
AcDbAlignedDimensionObjectContextData
 11
2320.0
 21
612.4999999999999
 31
0.0
  0
ACDB_ALDIMOBJECTCONTEXTDATA_CLASS
  5
1B1E
102
{ACAD_REACTORS
330
1B1D
102
}
330
1B1D
100
AcDbObjectContextData
 70
     4
290
     1
100
AcDbAnnotScaleObjectContextData
340
1823
100
AcDbDimensionObjectContextData
  2
*D25
293
     0
 10
2192.5
 20
912.5000000000003
294
     1
140
0.0
298
     0
291
     0
 70
     0
292
     0
 71
     0
280
     0
295
     0
296
     0
297
     0
100
AcDbAlignedDimensionObjectContextData
 11
2215.0
 21
1212.5
 31
0.0
  0
ACDB_ALDIMOBJECTCONTEXTDATA_CLASS
  5
1B30
102
{ACAD_REACTORS
330
1B2F
102
}
330
1B2F
100
AcDbObjectContextData
 70
     4
290
     1
100
AcDbAnnotScaleObjectContextData
340
1823
100
AcDbDimensionObjectContextData
  2
*D26
293
     0
 10
3007.5
 20
1162.5
294
     1
140
0.0
298
     0
291
     0
 70
     0
292
     0
 71
     0
280
     0
295
     0
296
     0
297
     0
100
AcDbAlignedDimensionObjectContextData
 11
3030.0
 21
1212.5
 31
0.0
  0
ACDB_ALDIMOBJECTCONTEXTDATA_CLASS
  5
1B42
102
{ACAD_REACTORS
330
1B41
102
}
330
1B41
100
AcDbObjectContextData
 70
     4
290
     1
100
AcDbAnnotScaleObjectContextData
340
1823
100
AcDbDimensionObjectContextData
  2
*D27
293
     0
 10
3007.5
 20
1087.5
294
     1
140
0.0
298
     0
291
     0
 70
     0
292
     1
 71
     0
280
     8
295
     0
296
     0
297
     0
100
AcDbAlignedDimensionObjectContextData
 11
3030.0
 21
1062.5
 31
0.0
  0
ACDB_ALDIMOBJECTCONTEXTDATA_CLASS
  5
1B55
102
{ACAD_REACTORS
330
1B54
102
}
330
1B54
100
AcDbObjectContextData
 70
     4
290
     1
100
AcDbAnnotScaleObjectContextData
340
1823
100
AcDbDimensionObjectContextData
  2
*D28
293
     0
 10
3007.5
 20
837.5000000000005
294
     1
140
0.0
298
     0
291
     0
 70
     0
292
     0
 71
     0
280
     0
295
     0
296
     0
297
     0
100
AcDbAlignedDimensionObjectContextData
 11
3030.0
 21
612.5
 31
0.0
  0
ACDB_ALDIMOBJECTCONTEXTDATA_CLASS
  5
1B7F
102
{ACAD_REACTORS
330
1B7E
102
}
330
1B7E
100
AcDbObjectContextData
 70
     4
290
     1
100
AcDbAnnotScaleObjectContextData
340
1823
100
AcDbDimensionObjectContextData
  2
*D29
293
     0
 10
2367.39847715736
 20
1340.0
294
     1
140
0.0
298
     0
291
     0
 70
     0
292
     0
 71
     0
280
     0
295
     0
296
     0
297
     0
100
AcDbAlignedDimensionObjectContextData
 11
2425.0
 21
1317.5
 31
0.0
  0
ACDB_ALDIMOBJECTCONTEXTDATA_CLASS
  5
1CA4
102
{ACAD_REACTORS
330
1CA3
102
}
330
1CA3
100
AcDbObjectContextData
 70
     4
290
     1
100
AcDbAnnotScaleObjectContextData
340
1823
100
AcDbDimensionObjectContextData
  2
*D30
293
     0
 10
2475.0
 20
1340.0
294
     1
140
0.0
298
     0
291
     0
 70
     0
292
     1
 71
     0
280
     8
295
     0
296
     0
297
     0
100
AcDbAlignedDimensionObjectContextData
 11
2477.5
 21
1317.5
 31
0.0
  0
ACDB_ALDIMOBJECTCONTEXTDATA_CLASS
  5
1CB8
102
{ACAD_REACTORS
330
1CB7
102
}
330
1CB7
100
AcDbObjectContextData
 70
     4
290
     1
100
AcDbAnnotScaleObjectContextData
340
1823
100
AcDbDimensionObjectContextData
  2
*D31
293
     0
 10
2582.60152284264
 20
1340.0
294
     1
140
0.0
298
     0
291
     0
 70
     0
292
     0
 71
     0
280
     0
295
     0
296
     0
297
     0
100
AcDbAlignedDimensionObjectContextData
 11
2525.0
 21
1317.5
 31
0.0
  0
ACDB_LEADEROBJECTCONTEXTDATA_CLASS
  5
1CEA
102
{ACAD_REACTORS
330
1CE9
102
}
330
1CE9
100
AcDbObjectContextData
 70
     4
290
     1
100
AcDbAnnotScaleObjectContextData
340
1823
 70
     2
 10
2428.0
 20
1209.5
 30
0.0
 10
2380.0
 20
1257.5
 30
0.0
 11
1.0
 21
0.0
 31
0.0
290
     1
 12
0.0
 22
0.0
 32
0.0
 13
0.0
 23
0.0
 33
0.0
  0
ACDB_TEXTOBJECTCONTEXTDATA_CLASS
  5
1CF0
102
{ACAD_REACTORS
330
1CEF
102
}
330
1CEF
100
AcDbObjectContextData
 70
     4
290
     1
100
AcDbAnnotScaleObjectContextData
340
1823
 70
     2
 50
0.0
 10
2333.096446700508
 20
1262.982233502538
 11
2380.0
 21
1257.5
  0
ACDB_LEADEROBJECTCONTEXTDATA_CLASS
  5
1CFB
102
{ACAD_REACTORS
330
1CFA
102
}
330
1CFA
100
AcDbObjectContextData
 70
     4
290
     1
100
AcDbAnnotScaleObjectContextData
340
1823
 70
     2
 10
2877.770537388908
 20
1210.0
 30
0.0
 10
2829.770537388908
 20
1258.0
 30
0.0
 11
1.0
 21
0.0
 31
0.0
290
     1
 12
0.0
 22
0.0
 32
0.0
 13
0.0
 23
0.0
 33
0.0
  0
ACDB_TEXTOBJECTCONTEXTDATA_CLASS
  5
1D00
102
{ACAD_REACTORS
330
1CFF
102
}
330
1CFF
100
AcDbObjectContextData
 70
     4
290
     1
100
AcDbAnnotScaleObjectContextData
340
1823
 70
     2
 50
0.0
 10
2784.38982672901
 20
1263.482233502538
 11
2829.770537388908
 21
1258.0
  0
ACDB_TEXTOBJECTCONTEXTDATA_CLASS
  5
1DC3
102
{ACAD_REACTORS
330
1DC2
102
}
330
1DC2
100
AcDbObjectContextData
 70
     4
290
     1
100
AcDbAnnotScaleObjectContextData
340
1823
 70
     0
 50
0.0
 10
774.9999999999995
 20
1354.352791878173
 11
774.9999999999995
 21
1347.5
  0
ACDB_TEXTOBJECTCONTEXTDATA_CLASS
  5
1DC9
102
{ACAD_REACTORS
330
1DC8
102
}
330
1DC8
100
AcDbObjectContextData
 70
     4
290
     1
100
AcDbAnnotScaleObjectContextData
340
1823
 70
     0
 50
0.0
 10
2215.0
 20
1429.352791878172
 11
2215.0
 21
1422.5
  0
ACDB_TEXTOBJECTCONTEXTDATA_CLASS
  5
2097
102
{ACAD_REACTORS
330
2096
102
}
330
2096
100
AcDbObjectContextData
 70
     4
290
     1
100
AcDbAnnotScaleObjectContextData
340
1823
 70
     0
 50
0.0
 10
775.0
 20
2624.352791878172
 11
775.0
 21
2617.5
  0
ACDB_ALDIMOBJECTCONTEXTDATA_CLASS
  5
20CB
102
{ACAD_REACTORS
330
20CA
102
}
330
20CA
100
AcDbObjectContextData
 70
     4
290
     1
100
AcDbAnnotScaleObjectContextData
340
1823
100
AcDbDimensionObjectContextData
  2
*D32
293
     0
 10
3007.5
 20
2052.500000000001
294
     1
140
0.0
298
     0
291
     0
 70
     0
292
     0
 71
     0
280
     0
295
     0
296
     0
297
     0
100
AcDbAlignedDimensionObjectContextData
 11
3030.0
 21
1902.500000000001
 31
0.0
  0
ACDB_ALDIMOBJECTCONTEXTDATA_CLASS
  5
20DD
102
{ACAD_REACTORS
330
20DC
102
}
330
20DC
100
AcDbObjectContextData
 70
     4
290
     1
100
AcDbAnnotScaleObjectContextData
340
1823
100
AcDbDimensionObjectContextData
  2
*D33
293
     0
 10
3007.5
 20
2273.197969543149
294
     1
140
0.0
298
     0
291
     0
 70
     0
292
     0
 71
     0
280
     0
295
     0
296
     0
297
     0
100
AcDbAlignedDimensionObjectContextData
 11
3030.0
 21
2217.500000000001
 31
0.0
  0
ACDB_ALDIMOBJECTCONTEXTDATA_CLASS
  5
20F1
102
{ACAD_REACTORS
330
20F0
102
}
330
20F0
100
AcDbObjectContextData
 70
     4
290
     1
100
AcDbAnnotScaleObjectContextData
340
1823
100
AcDbDimensionObjectContextData
  2
*D34
293
     0
 10
3007.5
 20
1831.802030456854
294
     1
140
0.0
298
     0
291
     0
 70
     0
292
     0
 71
     0
280
     0
295
     0
296
     0
297
     0
100
AcDbAlignedDimensionObjectContextData
 11
3030.0
 21
1887.5
 31
0.0
  0
ACDB_ALDIMOBJECTCONTEXTDATA_CLASS
  5
2105
102
{ACAD_REACTORS
330
2104
102
}
330
2104
100
AcDbObjectContextData
 70
     4
290
     1
100
AcDbAnnotScaleObjectContextData
340
1823
100
AcDbDimensionObjectContextData
  2
*D35
293
     0
 10
3112.5
 20
2052.500000000001
294
     1
140
0.0
298
     0
291
     0
 70
     0
292
     0
 71
     0
280
     0
295
     0
296
     0
297
     0
100
AcDbAlignedDimensionObjectContextData
 11
3135.0
 21
2217.5
 31
0.0
  0
ACDB_ALDIMOBJECTCONTEXTDATA_CLASS
  5
2118
102
{ACAD_REACTORS
330
2117
102
}
330
2117
100
AcDbObjectContextData
 70
     4
290
     1
100
AcDbAnnotScaleObjectContextData
340
1823
100
AcDbDimensionObjectContextData
  2
*D36
293
     0
 10
2577.5
 20
1959.720812182742
294
     1
140
0.0
298
     0
291
     0
 70
     0
292
     0
 71
     0
280
     0
295
     0
296
     0
297
     0
100
AcDbAlignedDimensionObjectContextData
 11
2600.0
 21
1902.5
 31
0.0
  0
ACDB_ALDIMOBJECTCONTEXTDATA_CLASS
  5
212C
102
{ACAD_REACTORS
330
212B
102
}
330
212B
100
AcDbObjectContextData
 70
     4
290
     1
100
AcDbAnnotScaleObjectContextData
340
1823
100
AcDbDimensionObjectContextData
  2
*D37
293
     0
 10
2577.5
 20
1837.500000000001
294
     1
140
0.0
298
     0
291
     0
 70
     0
292
     0
 71
     0
280
     0
295
     0
296
     0
297
     0
100
AcDbAlignedDimensionObjectContextData
 11
2600.0
 21
1802.5
 31
0.0
  0
ACDB_ALDIMOBJECTCONTEXTDATA_CLASS
  5
213F
102
{ACAD_REACTORS
330
213E
102
}
330
213E
100
AcDbObjectContextData
 70
     4
290
     1
100
AcDbAnnotScaleObjectContextData
340
1823
100
AcDbDimensionObjectContextData
  2
*D38
293
     0
 10
2582.220812182742
 20
2150.000000000002
294
     1
140
0.0
298
     0
291
     0
 70
     0
292
     0
 71
     0
280
     0
295
     0
296
     0
297
     0
100
AcDbAlignedDimensionObjectContextData
 11
2525.0
 21
2127.500000000001
 31
0.0
  0
ACDB_ALDIMOBJECTCONTEXTDATA_CLASS
  5
2153
102
{ACAD_REACTORS
330
2152
102
}
330
2152
100
AcDbObjectContextData
 70
     4
290
     1
100
AcDbAnnotScaleObjectContextData
340
1823
100
AcDbDimensionObjectContextData
  2
*D39
293
     0
 10
2460.0
 20
2150.000000000002
294
     1
140
0.0
298
     0
291
     0
 70
     0
292
     0
 71
     0
280
     0
295
     0
296
     0
297
     0
100
AcDbAlignedDimensionObjectContextData
 11
2425.0
 21
2127.500000000001
 31
0.0
  0
ACDB_ALDIMOBJECTCONTEXTDATA_CLASS
  5
2165
102
{ACAD_REACTORS
330
2164
102
}
330
2164
100
AcDbObjectContextData
 70
     4
290
     1
100
AcDbAnnotScaleObjectContextData
340
1823
100
AcDbDimensionObjectContextData
  2
*D40
293
     0
 10
2727.499999999998
 20
2145.27918781726
294
     1
140
0.0
298
     0
291
     0
 70
     0
292
     0
 71
     0
280
     0
295
     0
296
     0
297
     0
100
AcDbAlignedDimensionObjectContextData
 11
2749.999999999998
 21
2202.500000000001
 31
0.0
  0
ACDB_ALDIMOBJECTCONTEXTDATA_CLASS
  5
2179
102
{ACAD_REACTORS
330
2178
102
}
330
2178
100
AcDbObjectContextData
 70
     4
290
     1
100
AcDbAnnotScaleObjectContextData
340
1823
100
AcDbDimensionObjectContextData
  2
*D41
293
     0
 10
2727.499999999998
 20
2267.500000000001
294
     1
140
0.0
298
     0
291
     0
 70
     0
292
     0
 71
     0
280
     0
295
     0
296
     0
297
     0
100
AcDbAlignedDimensionObjectContextData
 11
2749.999999999998
 21
2302.500000000001
 31
0.0
  0
ACDB_ALDIMOBJECTCONTEXTDATA_CLASS
  5
218B
102
{ACAD_REACTORS
330
218A
102
}
330
218A
100
AcDbObjectContextData
 70
     4
290
     1
100
AcDbAnnotScaleObjectContextData
340
1823
100
AcDbDimensionObjectContextData
  2
*D42
293
     0
 10
2767.779187817259
 20
2000.0
294
     1
140
0.0
298
     0
291
     0
 70
     0
292
     0
 71
     0
280
     0
295
     0
296
     0
297
     0
100
AcDbAlignedDimensionObjectContextData
 11
2825.0
 21
1977.5
 31
0.0
  0
ACDB_ALDIMOBJECTCONTEXTDATA_CLASS
  5
219F
102
{ACAD_REACTORS
330
219E
102
}
330
219E
100
AcDbObjectContextData
 70
     4
290
     1
100
AcDbAnnotScaleObjectContextData
340
1823
100
AcDbDimensionObjectContextData
  2
*D43
293
     0
 10
2890.0
 20
2000.0
294
     1
140
0.0
298
     0
291
     0
 70
     0
292
     0
 71
     0
280
     0
295
     0
296
     0
297
     0
100
AcDbAlignedDimensionObjectContextData
 11
2925.0
 21
1977.5
 31
0.0
  0
ACDB_ALDIMOBJECTCONTEXTDATA_CLASS
  5
21B1
102
{ACAD_REACTORS
330
21B0
102
}
330
21B0
100
AcDbObjectContextData
 70
     4
290
     1
100
AcDbAnnotScaleObjectContextData
340
1823
100
AcDbDimensionObjectContextData
  2
*D44
293
     0
 10
2297.499999999999
 20
1852.5
294
     1
140
0.0
298
     0
291
     0
 70
     0
292
     0
 71
     0
280
     0
295
     0
296
     0
297
     0
100
AcDbAlignedDimensionObjectContextData
 11
2320.0
 21
1802.5
 31
0.0
  0
ACDB_ALDIMOBJECTCONTEXTDATA_CLASS
  5
21C3
102
{ACAD_REACTORS
330
21C2
102
}
330
21C2
100
AcDbObjectContextData
 70
     4
290
     1
100
AcDbAnnotScaleObjectContextData
340
1823
100
AcDbDimensionObjectContextData
  2
*D45
293
     0
 10
2192.5
 20
2052.500000000001
294
     1
140
0.0
298
     0
291
     0
 70
     0
292
     0
 71
     0
280
     0
295
     0
296
     0
297
     0
100
AcDbAlignedDimensionObjectContextData
 11
2215.0
 21
2302.5
 31
0.0
  0
ACDB_ALDIMOBJECTCONTEXTDATA_CLASS
  5
21D5
102
{ACAD_REACTORS
330
21D4
102
}
330
21D4
100
AcDbObjectContextData
 70
     4
290
     1
100
AcDbAnnotScaleObjectContextData
340
1823
100
AcDbDimensionObjectContextData
  2
*D46
293
     0
 10
2297.5
 20
2052.500000000001
294
     1
140
0.0
298
     0
291
     0
 70
     0
292
     0
 71
     0
280
     0
295
     0
296
     0
297
     0
100
AcDbAlignedDimensionObjectContextData
 11
2320.000000000001
 21
2202.500000000001
 31
0.0
  0
ACDB_ALDIMOBJECTCONTEXTDATA_CLASS
  5
21EA
102
{ACAD_REACTORS
330
21E9
102
}
330
21E9
100
AcDbObjectContextData
 70
     4
290
     1
100
AcDbAnnotScaleObjectContextData
340
1823
100
AcDbDimensionObjectContextData
  2
*D47
293
     0
 10
2297.499999999999
 20
2252.500000000001
294
     1
140
0.0
298
     0
291
     0
 70
     0
292
     0
 71
     0
280
     0
295
     0
296
     0
297
     0
100
AcDbAlignedDimensionObjectContextData
 11
2320.0
 21
2302.5
 31
0.0
  0
ACDB_ALDIMOBJECTCONTEXTDATA_CLASS
  5
21FC
102
{ACAD_REACTORS
330
21FB
102
}
330
21FB
100
AcDbObjectContextData
 70
     4
290
     1
100
AcDbAnnotScaleObjectContextData
340
1823
100
AcDbDimensionObjectContextData
  2
*D48
293
     0
 10
2475.0
 20
2429.999999999999
294
     1
140
0.0
298
     0
291
     0
 70
     0
292
     0
 71
     0
280
     0
295
     0
296
     0
297
     0
100
AcDbAlignedDimensionObjectContextData
 11
2425.0
 21
2407.499999999999
 31
0.0
  0
ACDB_ALDIMOBJECTCONTEXTDATA_CLASS
  5
220E
102
{ACAD_REACTORS
330
220D
102
}
330
220D
100
AcDbObjectContextData
 70
     4
290
     1
100
AcDbAnnotScaleObjectContextData
340
1823
100
AcDbDimensionObjectContextData
  2
*D49
293
     0
 10
2675.0
 20
2430.000000000001
294
     1
140
0.0
298
     0
291
     0
 70
     0
292
     0
 71
     0
280
     0
295
     0
296
     0
297
     0
100
AcDbAlignedDimensionObjectContextData
 11
2825.0
 21
2407.500000000001
 31
0.0
  0
ACDB_ALDIMOBJECTCONTEXTDATA_CLASS
  5
2220
102
{ACAD_REACTORS
330
221F
102
}
330
221F
100
AcDbObjectContextData
 70
     4
290
     1
100
AcDbAnnotScaleObjectContextData
340
1823
100
AcDbDimensionObjectContextData
  2
*D50
293
     0
 10
2875.0
 20
2430.0
294
     1
140
0.0
298
     0
291
     0
 70
     0
292
     0
 71
     0
280
     0
295
     0
296
     0
297
     0
100
AcDbAlignedDimensionObjectContextData
 11
2925.0
 21
2407.5
 31
0.0
  0
ACDB_ALDIMOBJECTCONTEXTDATA_CLASS
  5
2232
102
{ACAD_REACTORS
330
2231
102
}
330
2231
100
AcDbObjectContextData
 70
     4
290
     1
100
AcDbAnnotScaleObjectContextData
340
1823
100
AcDbDimensionObjectContextData
  2
*D51
293
     0
 10
2675.0
 20
2535.0
294
     1
140
0.0
298
     0
291
     0
 70
     0
292
     0
 71
     0
280
     0
295
     0
296
     0
297
     0
100
AcDbAlignedDimensionObjectContextData
 11
2425.0
 21
2512.5
 31
0.0
  0
ACDB_TEXTOBJECTCONTEXTDATA_CLASS
  5
2244
102
{ACAD_REACTORS
330
2243
102
}
330
2243
100
AcDbObjectContextData
 70
     4
290
     1
100
AcDbAnnotScaleObjectContextData
340
1823
 70
     0
 50
0.0
 10
2215.0
 20
2624.352791878172
 11
2215.0
 21
2617.5
  0
ACDB_TEXTOBJECTCONTEXTDATA_CLASS
  5
2519
102
{ACAD_REACTORS
330
2518
102
}
330
2518
100
AcDbObjectContextData
 70
     4
290
     1
100
AcDbAnnotScaleObjectContextData
340
1823
 70
     4
 50
0.0
 10
3397.290609137056
 20
185.0824873096446
 11
3780.0
 21
202.5
  0
ACDB_TEXTOBJECTCONTEXTDATA_CLASS
  5
251E
102
{ACAD_REACTORS
330
251D
102
}
330
251D
100
AcDbObjectContextData
 70
     4
290
     1
100
AcDbAnnotScaleObjectContextData
340
1823
 70
     1
 50
0.0
 10
3307.53807106599
 20
288.75
 11
3405.0
 21
307.5
  0
ACDB_TEXTOBJECTCONTEXTDATA_CLASS
  5
2523
102
{ACAD_REACTORS
330
2522
102
}
330
2522
100
AcDbObjectContextData
 70
     4
290
     1
100
AcDbAnnotScaleObjectContextData
340
1823
 70
     1
 50
0.0
 10
3847.861675126904
 20
288.75
 11
3930.0
 21
307.5
  0
ACDB_TEXTOBJECTCONTEXTDATA_CLASS
  5
2528
102
{ACAD_REACTORS
330
2527
102
}
330
2527
100
AcDbObjectContextData
 70
     4
290
     1
100
AcDbAnnotScaleObjectContextData
340
1823
 70
     1
 50
0.0
 10
3334.473350253807
 20
393.75
 11
3405.0
 21
412.5
  0
ACDB_TEXTOBJECTCONTEXTDATA_CLASS
  5
252D
102
{ACAD_REACTORS
330
252C
102
}
330
252C
100
AcDbObjectContextData
 70
     4
290
     1
100
AcDbAnnotScaleObjectContextData
340
1823
 70
     1
 50
0.0
 10
3736.5038071066
 20
393.75
 11
3930.0
 21
412.5
  0
ACDB_TEXTOBJECTCONTEXTDATA_CLASS
  5
2532
102
{ACAD_REACTORS
330
2531
102
}
330
2531
100
AcDbObjectContextData
 70
     4
290
     1
100
AcDbAnnotScaleObjectContextData
340
1823
 70
     1
 50
0.0
 10
3331.903553299492
 20
498.7499999999999
 11
3405.0
 21
517.4999999999999
  0
ACDB_TEXTOBJECTCONTEXTDATA_CLASS
  5
2537
102
{ACAD_REACTORS
330
2536
102
}
330
2536
100
AcDbObjectContextData
 70
     4
290
     1
100
AcDbAnnotScaleObjectContextData
340
1823
 70
     1
 50
0.0
 10
3759.917512690356
 20
498.7499999999999
 11
3930.0
 21
517.4999999999999
  0
XRECORD
  5
312B
102
{ACAD_REACTORS
330
236
102
}
330
236
100
AcDbXrecord
280
     1
102
DISPLAYNAME
  1
Metric50
102
FLAGS
 90
        0
  0
XRECORD
  5
1FA
102
{ACAD_REACTORS
330
1F9
102
}
330
1F9
100
AcDbXrecord
280
     1
 70
     1
 90
429727718
  1
D62C5603-E3A1-4AEA-B7FB-FE5D8D0755AF
310
504B03040A0000080000CC70623B3DEE336E79000000790000001B0000006175746F6465736B2D64657369676E2D7061636B6167652E786D6C3C3F786D6C2076657273696F6E3D22312E302220656E636F64696E673D227574662D3822203F3E3C666F726D6174733E3C666F726D61743E687474703A2F2F736368656D612E
310
6175746F6465736B2E636F6D2F64657369676E2D7061636B6167652F323030393C2F666F726D61743E3C2F666F726D6174733E504B0304140006080800CC70623BD486FD9CA0000000F4000000130000005B436F6E74656E745F54797065735D2E786D6C7D8EC10E82300C865F65E91D8A1E8C310C0EEA1BF002731658846E
310
D98AC1B77784ABF1D8FE5FBFBF75BBCE937A534CCEB38643598122B6FEE978D0B0485F9C41B54DDD7D022595594E1A469170414C76A4D9A4D207E29CF43ECE46F218070CC6BECC4078ACAA135ACF422C856C0E68EA1BF5669944DDD7BCDE7B1F8E415D77AECB980613C2E4AC91FC167A2B244592486606FC29C8FD7F045B9A
310
EF7053A7E60B504B0304140006080800CC70623B853B8169EB0000007C01000008000000636F72652E786D6C8D90416EC3201045AF62CDB6C206821CC7C244919D9CA01740401C94182C03558F5F9C3852BBEB6A467FFE9B197D7EFC9E1EC5975982F5AE035262288C535E5B377690E21535501C055FBC8FBF6C503839990E
310
5619041F179FE64D52DE45E362569DD7661365082642A11EB9E920A89B99642953CC8E702F67A9EE7234257977194EC9EAE275C4EABCCF5EAD5940D4AC6F0E35A568B8F43562CD7046CD199FD07E60174276A7BE677B5EADB0E0D14EEFFB6A31321A0D82627C4084204C3F096B71DD52F6819B16635EADF63F509AF53FA164
310
5DDCD1EDDD17164090FCC8732078B56691CB33A85CD7DCC40F504B0304140006080800CC70623B55019EA25F0000007C00000007000000636E782E786D6C4DCB3B0E80201045D1AD90E915ED2CF8AC45050C11660C8261F98AB1B07AC9C97D42D718D865D3E909258CFD00CCE24AC6E326A164D74DC0B4128928FF32603847
310
2BA13128B1252AC747C6BAB984FC68F0B87FE8960A5C09FE86CFB69FBA01504B0304140006080800CC70623BDBABAAF470010000D40300000C0000006662782F636F72652E786D6CC553D16E823014FD95A6AF4B694182CC941A83FA05FB810A9511A125A5257EFE2E82712ECEB8A7F100CD39F7F69E734AF9FADC366850B6
310
AF8DCE7018308C942E4C59EB2AC3DE1D498AD15A706B8CFB56869196ADCAF00863C12B6B7C374385D14E6907A836A59A41D9F7CA615434B0C8705F7CAA5606D23BA8E84F41278B93AC54100640439DE0BDB320004D43C63716C7C399D30917DCFBBA9CD9BA8469F5B156168B24CED3F7248AC8769F27244EB73B92EED8862C
310
B7F13E0C179B3C8F979C8ECD82BBBABDAA2BAC924E9558448CBD9330242CFA08E3154B5651FCC6D215639C8EE5774DBE2B5F6CF2B5768B68963BB5F5588420E442FC700B1139D4CB01F450C1E918227C2E09DF070D8140C84E1E9AAB8F1340832A9CB13130A5F1376A908D57309505ECF2A0DF179C4E9D30F5B239B87E3823
310
7A79C6F31DE1A8A5AEC08474B03C7837EAE4938639B44E5932B833D2C6B6B279CDC613877FA26EE21F4A2A4C63EC7F29A2F301D1F9F7A0E37D145F504B0304140006080800CC70623B9C113CC27E0000009D0000000B0000006662782F636E782E786D6C4DCCDF0A83201C86E15B91DFB94BFB330DD428C8FB886521330DA7
310
6397BF1A1DECE883878F57749FCDA1B7892F1BBC047A23808C7F84D9FA55424E0BE6803A256208E9EF06C84F9B91703228B1C690F78B66B34CD9A5439DF5CF0BFBF65E35BCA1B8D6A5C6F540381E886698B5741C695F9503EBA150A2F8958E3DC3EA0B504B0304140006080800CC70623B7DF2F77C2A010000120200003100
310
00006662782F41393633353835312D344632462D344230382D423046372D3739314545314133324237412F636F72652E786D6C8D51DB8EC22014FC15C2939B0D2DB4B45643319AE817EC0F6041255A68B86CFCFC856D4D76DF7CE190393373060EDB3DC707F856CE6B6B7A480A0C81328395DA5C7B18C3057510EC3873D686
310
3F34088C18550F330C39BB3A1BA7051AAC09CA84841A2BD5020AEF55806078A44B0FFD7053A328440C89E1EFC52486BBB8AA8214A99D789CF9E05200300FC927E4FB4D5B375D43103D5527440FB843077C5AA3F5861C8F645F5787F59E95B390B318B55CE45AA638FAA2957BD7248B390B7A7CC51F9C124149C82B8C378810
310
84AB2F42B7B8DD56F413775B8C5999E9FF4471926F8AA236A1AE96B8B3CC434E5839373893369E1FAF30EA395917409EB7F26AF8801C171837A4A6AC9C89E9F9C9B1A58BA30FD6A5EF5DDDCF894B9AD9B6A59C957943A9FCAE2FD5BC4DFE03504B0304140006080800CC70623BAD7543B64E01000033030000300000006662
310
782F41393633353835312D344632462D344230382D423046372D3739314545314133324237412F636E782E786D6CD593CD6EC32010845F0571AD6CE3D48AD20813A9873E410FBD12D82434182C7EAAE6EDBB2424CD25871E7B41D6EC30B3FA84F9E67BB2E40B4234DE8DB46F1925E094D7C6ED479AD3AE5951B2113C789FEE
310
6C943839C1488B4C05DF079FE72A69D8C96C13AAD6B8631503449F83828872B949AC57D26200B826A308D316B4064D6E46FCDA41C05550DC9E483A00797BFD207EFB092A45DE9514C1BBD22178396BD39D891265658C238DEA00936C654E5E433CB65A26D9F6EDB5EBC14EBF49A45CB856E66048291F6939A9A81BB5C89177
310
38143CA680F4AA299D66A042CEB3354A2684DC9D8D178FE0D9B8B41CAAD720F880EE7EF93C0C18769E099ECC04D5A102C8049A8A05632F4DDF376CF1DE0F6BB65C2F8627B65A33C6BB62177CEBBDAD973006829F89F22E814B54F4BC2BE347F8AA8F681390B50FA73F804400B5F542E796F19FF974E7F78DB802FE05E20750
310
4B0304140006080800CC70623BE75B7789680500003C100000340000006662782F41393633353835312D344632462D344230382D423046372D3739314545314133324237412F6F626A656374732E786D6CAD575B8F9B3818FD2B887D06C22499CB8AA1CA655245D5B455A356FB305264C061D8018C6C3393D95FBFC7600890
310
A4CD5EF210B0B1BFEBF98E3F7B1FF6596ABC522E1296DF9BAE3D320D9A872C4AF2F8DE2CE5CEBA358D0FBEC719939D65A691938CDE9B6ADAF4BD98B3B2D05311DD91329583D9D5FC0F438434A7A611A644887B5384CF34233629258BA878B12322891DEFF6B66BD70BFB62634E8AE781D082709A4B588AF91C528CDA28B73F
310
1C998EEF39EABBEFA97FBD6A7C7E9553F9D3D79FE442923C3C523610337627CB87ABE99D359D4CC6D6E4FACAB5E6ABF9D2726FC6A3C5F56271377BB88362213924694B38DD99FE47C48627A1E7D49F5A8BB5E1A74C0A599ED3B0F21F1E56366B89112D681E218F0915D0D6F17AD41FBA2A369DCF6335D62ABBD39779D5DDD1
310
11D4D8DE3CBB96B2E04FB8202E41051754A1AA8E8F76B4C6DFE810B580B1547F4B84911149794252234D024EF8BBE963A95AE27B3D310A9D5C215C7960FAEE415ED75694C6AFB17BCACA5D99A60A9AA65F217B0BFC53292ACB92BF283FAD0D3621576592CB5BED907C2FA8E9DF794E35E97BEA31BED21FEB401ABB94C44839
310
DCACBF0E1C5DA8DA5B2F4DFFD32AD86F543D9E565E7056502E157C00AD2671CD534549AB752FCA9CDA00677A313F04E51B22FF19E57B300579E3C97EB29F682D92935CEC18CF901B7B54FD8C51F362B56FC72FE0B3C1EAE335EDCCBF5AEC39ADB17DC238973F804BA5E6F6BFE7AF1FB32E523BE9F3BD571418E3631DCA4D48
310
5250CF639223210A9446CA30052EDF057BD35F8329C1ECD84552BF0DC8D18BE7BCE23BFE6BD960AB4A7DE79923A103BEBD80F911CBAA2C60DB19B01CF164A5583B772EE6D3FFA56666CBCDA74DC97724A48F9A58967497E489C4D979006FD7A05E227A1EBDD0F737C623387A9C844D3709995625106D157315F8B8392CD4E0
310
A0B9A720C4BE9829CEF37EA1E13111214D53925356365ADA634861B52519DD27A00AEB808EAF0628E6F435519D446F45CF2C9CF5214F0A15B2F6D06B79DA3EE3CBF7F56780D2F4E7EF73A0F5E5B02A38D07DC852C6B7C1FBB6664213E0C39E3EBA7FF4E1AD23EA2829407C85E586727488B751B2DB9502BC7B228A3FD68B6E
310
A65A22397E690AA8D158D7E404EC8CDA235CC3B7D1898680131CEC2CDF2638C65196279577750F15884AEE19F94199155B92B13297978469D4F8D358DF0AEF7631E28DC8F0D9F437D5D39A83B2231A1D52D543813A824EF8D44BCFF2FA6A31BD1E8DAD87F1CCB526B3879935BF59CDADD5C37479BB1CDD4CA7B3556B516589
310
EF352754B706114D9C885EC9131DE6EFEB43D99AFE2391C2F958179413D7CFEF6B1B6DB1E7600F00DE6E5C67454A339A4BA2E0FBA85ED26F045D454F463DBFCE484C2F90F2E5E3666003662ED8F755951A7D1BECD5B30B550B2785C8E7320B7292A4838DDA71BBC863ED7613CAF659337A3354231D4FF4A182A54904C2898C
310
98B28C4AD0CE056CCF332A80986E571EE9DBC305BB5FEB7E509220A58D25CF042D712A806AC0AD0C657FDEF80D2D9CEAA2EE4D1C76F60BFE74219A06527D6F82DF6412526107381E55E353090704D085B52408A8913C4ED159D79BDA71BB4BC506F4831350EB6F975CD22D69BF7AC49B91A2C0A9DDA3D5CA36AD20FC478E37
310
E61844E2352865EBCB61A275A65283CAAA9DD27703B4102F5AF51EF5F573B75CBB5AD38BC845F7A49F82A0966A49C2E3EA5EA0ECD326CD965F1DB402C6FA8B51A4658C5C5E2EC9E214602E55810345408596591009A82E7E7FFACA19EEA299B14A0081A705CB3296EBC14CDF658DCD336EA6D1136881AAEB87B81AB9EE53D5
310
F5EB8BC8362082DA24122F98680A4E7930C01A0079749CEA14382A0783E5EBA5A10F8C098456A03D6A4AEB6BB881E2513747552A5DB22C7EDAF83BD5528081A365F7FF06504B0304140006080000CC70623B000000000000000000000000350000006662782F41393633353835312D344632462D344230382D423046372D37
310
39314545314133324237412F76657274696365732E62696E504B0304140006080800CC70623BF270F1330600000004000000360000006662782F41393633353835312D344632462D344230382D423046372D3739314545314133324237412F747269616E676C65732E62696E636660600000504B0304140006080000CC7062
310
3B000000000000000000000000370000006662782F41393633353835312D344632462D344230382D423046372D3739314545314133324237412F617474726962757465732E62696E504B0304140006080800CC70623B08DA0BD19000000041010000360000006662782F41393633353835312D344632462D344230382D4230
310
46372D3739314545314133324237412F6469726563746F72792E786D6C858F410AC3201045AF22B36F53E9A60B35CBEEBAE80D244E44489C6234F4F835464A48035D0DF398FF9F8AF63D0E6CC63039F212F8F9020C7D47C6792B21C5FE7403D62A1188E2E60C98D7234A5830286103A55745067B9D86B8A3CF9C7F90C11DE6
310
07FB144396D7B6A82D282E9A152AD114D5EF2CB866EEE831B8EEA07A7BB5A8D7D61A2BAAEB7FD5F70921FF497D00504B0304140006080800CC70623BEDD1DC58FD000000A00100003B0000006662782F41393633353835312D344632462D344230382D423046372D3739314545314133324237412F7265736F75726365732F
310
636F72652E786D6C8D504B6E833010BD0A9A6D65B00922041947112427E8052C33A156828DFCA97AFC9A40A576D7CDCCE87D344F8F9FBFE667F689CE6B6B3A6039850C8DB2A336530731DC4903D95970676DF82583CCC8193B5861107C72362E3BA4AC096842428D1D7107A5F7182053CF7474E0D507CE32973124857FE48B
310
540F3961CEF244279DE03EB81420DB9EAC1384436FA353E879B1B182C7A8C75DA3C7F453DF353A1075D537A7BA6464B8F535A99AE14A9A2BBD90E350DD183B5CFABE3AF262350B1EF4FC9351399401471025A527C218A1E53BAB5A5AB765F5469B96525EACF23FA6B88CFF34456DC2A1DCE36E360F82A5202F42F062ED2BAD
310
579969AFDD8A6F504B010214000A0000080000CC70623B3DEE336E79000000790000001B00000000000000000000000000000000006175746F6465736B2D64657369676E2D7061636B6167652E786D6C504B01021400140006080800CC70623BD486FD9CA0000000F40000001300000000000000000000000000B20000005B
310
436F6E74656E745F54797065735D2E786D6C504B01021400140006080800CC70623B853B8169EB0000007C010000080000000000000000000000000083010000636F72652E786D6C504B01021400140006080800CC70623B55019EA25F0000007C000000070000000000000000000000000094020000636E782E786D6C504B
310
01021400140006080800CC70623BDBABAAF470010000D40300000C00000000000000000000000000180300006662782F636F72652E786D6C504B01021400140006080800CC70623B9C113CC27E0000009D0000000B00000000000000000000000000B20400006662782F636E782E786D6C504B01021400140006080800CC70
310
623B7DF2F77C2A010000120200003100000000000000000000000000590500006662782F41393633353835312D344632462D344230382D423046372D3739314545314133324237412F636F72652E786D6C504B01021400140006080800CC70623BAD7543B64E010000330300003000000000000000000000000000D2060000
310
6662782F41393633353835312D344632462D344230382D423046372D3739314545314133324237412F636E782E786D6C504B01021400140006080800CC70623BE75B7789680500003C10000034000000000000000000000000006E0800006662782F41393633353835312D344632462D344230382D423046372D3739314545
310
314133324237412F6F626A656374732E786D6C504B01021400140006080000CC70623B0000000000000000000000003500000000000000000000000000280E00006662782F41393633353835312D344632462D344230382D423046372D3739314545314133324237412F76657274696365732E62696E504B01021400140006
310
080800CC70623BF270F133060000000400000036000000000000000000000000007B0E00006662782F41393633353835312D344632462D344230382D423046372D3739314545314133324237412F747269616E676C65732E62696E504B01021400140006080000CC70623B0000000000000000000000003700000000000000
310
000000000000D50E00006662782F41393633353835312D344632462D344230382D423046372D3739314545314133324237412F617474726962757465732E62696E504B01021400140006080800CC70623B08DA0BD1900000004101000036000000000000000000000000002A0F00006662782F41393633353835312D344632
310
462D344230382D423046372D3739314545314133324237412F6469726563746F72792E786D6C504B01021400140006080800CC70623BEDD1DC58FD000000A00100003B000000000000000000000000000E1000006662782F41393633353835312D344632462D344230382D423046372D3739314545314133324237412F7265
310
736F75726365732F636F72652E786D6C504B0506000000000E000E0080040000641100000000
  0
XRECORD
  5
1F8
102
{ACAD_REACTORS
330
1F7
102
}
330
1F7
100
AcDbXrecord
280
     1
 70
     1
 90
429727718
  1
30362254-06B7-45E0-A893-8CFA70E3D6BC
310
504B03040A0000080000CC70623B3DEE336E79000000790000001B0000006175746F6465736B2D64657369676E2D7061636B6167652E786D6C3C3F786D6C2076657273696F6E3D22312E302220656E636F64696E673D227574662D3822203F3E3C666F726D6174733E3C666F726D61743E687474703A2F2F736368656D612E
310
6175746F6465736B2E636F6D2F64657369676E2D7061636B6167652F323030393C2F666F726D61743E3C2F666F726D6174733E504B0304140006080800CC70623BD486FD9CA0000000F4000000130000005B436F6E74656E745F54797065735D2E786D6C7D8EC10E82300C865F65E91D8A1E8C310C0EEA1BF002731658846E
310
D98AC1B77784ABF1D8FE5FBFBF75BBCE937A534CCEB38643598122B6FEE978D0B0485F9C41B54DDD7D022595594E1A469170414C76A4D9A4D207E29CF43ECE46F218070CC6BECC4078ACAA135ACF422C856C0E68EA1BF5669944DDD7BCDE7B1F8E415D77AECB980613C2E4AC91FC167A2B244592486606FC29C8FD7F045B9A
310
EF7053A7E60B504B0304140006080800CC70623B1EC5D7A3EB0000007C01000008000000636F72652E786D6C8D90416EC3201045AF82665B6103C6756C6122AB4D4ED00B204C5C94182C03558F5F9C3852BBEB6A467FFE9B197D71FC9E6FE8CBACC17AD7032D0820E3B41FAD9B7A48F1820F808E52ACDEC75F36404ECDA687
310
4D0629A6D5A76597B477D1B89855E747B38B2A041301E95B6E7A08FAD3CCAA50296647B8168BD2573599823EBB0CA76447F43862C7BCCF5EAC59410E4DDD9C7973C2755553CCCFA4C603E3040F1565ED3B1FDE4E432BCA0D9622DAF9795FAF464533826484B498524CD807E51D79ED187F21878E10516EF63F505AC67F42C9
310
BA58B1FDDD071640D2FCC87D2045B96591CB3DA85CB7DCE40F504B0304140006080800CC70623B55019EA25F0000007C00000007000000636E782E786D6C4DCB3B0E80201045D1AD90E915ED2CF8AC45050C11660C8261F98AB1B07AC9C97D42D718D865D3E909258CFD00CCE24AC6E326A164D74DC0B4128928FF32603847
310
2BA13128B1252AC747C6BAB984FC68F0B87FE8960A5C09FE86CFB69FBA01504B0304140006080800CC70623B8C9102E971010000D40300000C0000006662782F636F72652E786D6CC5535B6E833010BC8AE5DF0A6C08340F1947A84D4ED00B38C6A128602363A31CBFCB234A53A551FA553EC09AD9F5CE8C31DB9E9B1AF5CA
310
7695D1198E428A91D2D214952E33ECDD315861B4E5CC1AE3BE9561A445A3323CC098B3D21ADFCE9034DA29ED00D5A6503328BA4E398C640D8B0C77F253352214DE4145770A5B214FA2546114020D759C75CE8200340D19DE981F0F6746269C33EFAB6266AB02A655C74A59CCF365BADC27CB5D902ED22848F6340DF238A141
310
BE88E2F57B92BFEDF23523433367AE6A2EEAA455C2A902F398D2751045018D3FA264435F3771F242571B4A1919CA6F9A7C5B3CD9E42BED16F12C776AEB308F40C848FC700B1139D4891EF410CEC810227CC6846F8386402064270EF5C5C709A05E49676C024C61FC95EA45ED154CA5211D1FF4FB8291A913A68E9B83EBBB33
310
E2A7673CDE118E5AE8124C0807CB8377834E366998436B950D7A7746DAD846D4CFD978E0F04FD455FC5D49D2D4C6FE9722321F10997F0F32DC47FE05504B0304140006080800CC70623BFFEA85907E0000009D0000000B0000006662782F636E782E786D6C4DCCD10A83201886E15B91FFDC95D95A811AB6F23E625948A6C3
310
E9D8E5AF46073BFAE0E1E365ED67B3E8ADC3CB78C7815C7240DA3DFC64DCC221C519D7805AC182F7F1EF06C88D9BE6703008B6049F9E274D7A1E938DBB5AE3D6131B2589BA0D3D965551E0B2EA732C9B9A624AAEB41E3A557677029960D9AFB4EF11165F504B0304140006080800CC70623B4FEEA4082C0100001202000031
310
0000006662782F39464131463745442D413632322D343644302D413938332D3331353338454246344243312F636F72652E786D6C8D515B6EC32010BC0AE2AB55850DD871ED0813254D72825EC00192A2C460F1A872FC42ED48ED5F7E00CDCECCCEB26C731F6FE05B39AFADE921293004CA082BB5B9F43086336A21D870E6AC
310
0D7F68109861543DCC30E4ECE26C9C164858139409093556AA051CBC570102714B8F1E7AF1A5C6A11862480C7F2DA6415C878B2A4891CA89C7990F2E050073937C42DE1DB7E4F87ED8A36D4329AA9B3D46DBAEAD504556557BD81DEBDD0761E52CE42C462D17B996298E3E6BE59E35C962CE821E1FF18553435012728A7187
310
0841987E927A8D9B35ADDF70BBC6989599FE4F1427F9A4286A132ABAC49D651EF234CD5CE04CDA78BA3DC2A8FB645D00B9DF8B57E215725C60BCA2A463E54C4CE327C7A65E1C7DB02E7DEFCBF594B864C5CA6CDBD49C957943E9FA5D5FBAF336F90F504B0304140006080800CC70623BAD7543B64E01000033030000300000
310
006662782F39464131463745442D413632322D343644302D413938332D3331353338454246344243312F636E782E786D6CD593CD6EC32010845F0571AD6CE3D48AD20813A9873E410FBD12D82434182C7EAAE6EDBB2424CD25871E7B41D6EC30B3FA84F9E67BB2E40B4234DE8DB46F1925E094D7C6ED479AD3AE5951B2113C
310
789FEE6C943839C1488B4C05DF079FE72A69D8C96C13AAD6B8631503449F83828872B949AC57D26200B826A308D316B4064D6E46FCDA41C05550DC9E483A00797BFD207EFB092A45DE9514C1BBD22178396BD39D891265658C238DEA00936C654E5E433CB65A26D9F6EDB5EBC14EBF49A45CB856E66048291F6939A9A81BB5
310
C8917738143CA680F4AA299D66A042CEB3354A2684DC9D8D178FE0D9B8B41CAAD720F880EE7EF93C0C18769E099ECC04D5A102C8049A8A05632F4DDF376CF1DE0F6BB65C2F8627B65A33C6BB62177CEBBDAD973006829F89F22E814B54F4BC2BE347F8AA8F681390B50FA73F804400B5F542E796F19FF974E7F78DB802FE05
310
E207504B0304140006080800CC70623B16AB87BA640500003C100000340000006662782F39464131463745442D413632322D343644302D413938332D3331353338454246344243312F6F626A656374732E786D6CAD575B6FA33818FD2B887DE6924B3BED8A326A92B68A663B534DD4D13E548A0C38942D60649B369D5FBFC7
310
600890A493BDE42160637FD7F31D7FF63E6FB3D478A55C242CBF3247B66B1A340F5994E4F19559CA8D75611A9F7D8F33263BCB4C232719BD32D5B4E97B316765A1A722BA21652A07B3B7B33F0D11D29C9A46981221AE4C113ED38CD8A4942CA2E2C58E882476BCD9DA23BB5ED8171B73523C0F841684D35CC252CCE79062D4
310
468DFA43D7747CCF51DF7D4FFDEB5593E3AB9CCA9FBEFE241792E4E19EB28198C968BAB8199F5D5A67D3E9C49A9E8F47D6EC76B6B0469F26EEFC7C3EBFBCBEB98462213924694B38DD98FE1D62C393D073EA4FADC5DAF04326852CCF6958F90F0F2B9BB5C48816348F90C7840A68EB78EDF68723159BCEE7891A6B95DDE9D3
310
BCEAEEE8086A6C6F9E5D4B59F0175C10A7A0820BAA5055C7473B5AE3CFDD452D602CD5DF12616444529E90D448938013FE6EFA58AA96F85E4F8C42275708571E98FE6827AF6B2B4AE3D7D83D64E5A64C53054DD3AF90BD06FEA9149565C94FCA0F6B834DC85599E4F2423B24DF0B6AFA979E534DFA9E7A4CC6FA631D486393
310
921829879BF5D781A373557BCB85E97FB90DB62B558F8795179C15944B051F40AB495CF35451D26A4727654E6D8033BD98EF82F21D91FF8AF2DD9982BCF1643BDD4EB516C9492E368C67C88DED563FC36D5EACF66DFF057C3658BDBFA69DF9578B3DA735B64F18C7F20770A9D45CFCF7FCF563D6456A277DBEF78A02637CA2
310
43B90A490AEAB94F72244481D24819A6C0E59B606BFA4B3025981DBB48EAB701D97BF19C577CC77F2D1B6C55A9EF3C732474C0B727303F625995056C3B02963D9EAC146BE78EC5FCEC7FA999EBC5EACBAAE41B12D27B4D2C0BBA49F244E2ECDC81B76B502F113D8F5EE8FB1BE3111CDD4FC2AA9B844CAB1288B68AB90A7CDC
310
1C166AB0D3DC5310625FCC14E779BFD0709F8890A629C9292B1B2DED31A4B0DA928CEE135085754027E3018A397D4D5427D15BD1330B677DC8934285AC3DF45A9EB68FF8F2B8FC0A509AFEECFD0FF2DE25CC6047F7214B195F07EFEB9A094D800F7BFAE8FED187B78EA8A3A400F115961BCAD1215E47C966530AF0EE8128FE
310
58CEBB996A8964FFA529A046635D9353B0336A8F700DDF46271A024E70B0B37C9DE01847591E54DED53D54202AB947E4076556AC49C6CA5C9E1226B7F1A7B1BE15DEED62C41B91E1B3E9AFAAA735036547343A925075041DF0A9979E893B391F8FCFA6967B3EFB644DCF6E5CEBFAE272625DCC6FAF3FB93793C5F90CE1EF57
310
407342756B10D1C489E8953CD1617E5CEECAD6F4EF8914CE5D5D504E5C3F1F9736DA62CFC11E00BCDDB8CC8A9466349744C1F75EBDA4DF09BA8A9E8C7A7E9991989E20E5DBDD6A6003664ED8F7A04A8DBE0DF6EAD9B9AA858342E47399053949D2C146EDB85DE4B176BB0965FBAC19BD19AA918E27FA50C1D22402E144464C
310
59462568E704B6E71915404CB72B8FF4EDE184DDAF753F284990D2C6926782963815403548A70C657FDEF80D2D9CEAA2AE4C1C76F60BFE74219A06527D6582DF6412526107381E55E353090704D085B52408D0933C4ED159D79BDA71BB4BC506F4831350EB6F979CD22D69BF7AC49B91A2C0A9DDA3D5CA36AD20FC478E37E6
310
1844E2352865EBCB6EA275A652E3836BE04EFB400BF1A2556F515F1FBB35B2AB35BD889C744FFA1004B5544B121E57F70215746DD2F5E2C1412B602CBF19455AC6C8E5E9922C4E01E65215385004546899059180EAFCF7A707CE7017CD8CDB0410789AB32C63B91E5CEBBBACB17AC6CD347A022D5075FD106377347AAABA7E
310
7D11590744509B44E205134DC1290F06580320F78E537D3D73540E06CB970B431F185308AD40BBD794D6D77003C5A36E8EAA54BA64597CD8F83BD552A080A365F7FF06504B0304140006080000CC70623B000000000000000000000000350000006662782F39464131463745442D413632322D343644302D413938332D3331
310
353338454246344243312F76657274696365732E62696E504B0304140006080800CC70623BF270F1330600000004000000360000006662782F39464131463745442D413632322D343644302D413938332D3331353338454246344243312F747269616E676C65732E62696E636660600000504B0304140006080000CC70623B
310
000000000000000000000000370000006662782F39464131463745442D413632322D343644302D413938332D3331353338454246344243312F617474726962757465732E62696E504B0304140006080800CC70623B08DA0BD19000000041010000360000006662782F39464131463745442D413632322D343644302D413938
310
332D3331353338454246344243312F6469726563746F72792E786D6C858F410AC3201045AF22B36F53E9A60B35CBEEBAE80D244E44489C6234F4F835464A48035D0DF398FF9F8AF63D0E6CC63039F212F8F9020C7D47C6792B21C5FE7403D62A1188E2E60C98D7234A5830286103A55745067B9D86B8A3CF9C7F90C11DE607
310
FB144396D7B6A82D282E9A152AD114D5EF2CB866EEE831B8EEA07A7BB5A8D7D61A2BAAEB7FD5F70921FF497D00504B0304140006080800CC70623B0D6EF93BFE000000A00100003B0000006662782F39464131463745442D413632322D343644302D413938332D3331353338454246344243312F7265736F75726365732F63
310
6F72652E786D6C8D50596E833010BD0A9ADFCA60B334011947A8694ED00B586642AC041B79A97AFC9A40A5F6AF3F33A3B7689E1E3F7DCD8FEC139DD7D6F4C0720A191A65476DA61E62B892236427C19DB5E1970C322367EC618541F0C9D9B8EC90B226A009093576C41D94DE63804C3DD2D18357379C652E63480A7FCF17A9
310
EE72C29CE5894E3AC17D702940B63D59270887DE46A7D0F36263058F518FBB468FE9A7BE6A7420864373B8D4873369AA8691FA421B3294352543C5CAF65C0F6FEF43CB8BD52C78D0F34F46E550061C419494B6843142CB0F5677F4B52BEB177AEC28E5C52AFF638ACBF84F53D42654E51E77B379102C05791282176B5F693D
310
CB4C7BED567C03504B010214000A0000080000CC70623B3DEE336E79000000790000001B00000000000000000000000000000000006175746F6465736B2D64657369676E2D7061636B6167652E786D6C504B01021400140006080800CC70623BD486FD9CA0000000F40000001300000000000000000000000000B20000005B
310
436F6E74656E745F54797065735D2E786D6C504B01021400140006080800CC70623B1EC5D7A3EB0000007C010000080000000000000000000000000083010000636F72652E786D6C504B01021400140006080800CC70623B55019EA25F0000007C000000070000000000000000000000000094020000636E782E786D6C504B
310
01021400140006080800CC70623B8C9102E971010000D40300000C00000000000000000000000000180300006662782F636F72652E786D6C504B01021400140006080800CC70623BFFEA85907E0000009D0000000B00000000000000000000000000B30400006662782F636E782E786D6C504B01021400140006080800CC70
310
623B4FEEA4082C0100001202000031000000000000000000000000005A0500006662782F39464131463745442D413632322D343644302D413938332D3331353338454246344243312F636F72652E786D6C504B01021400140006080800CC70623BAD7543B64E010000330300003000000000000000000000000000D5060000
310
6662782F39464131463745442D413632322D343644302D413938332D3331353338454246344243312F636E782E786D6C504B01021400140006080800CC70623B16AB87BA640500003C1000003400000000000000000000000000710800006662782F39464131463745442D413632322D343644302D413938332D3331353338
310
454246344243312F6F626A656374732E786D6C504B01021400140006080000CC70623B0000000000000000000000003500000000000000000000000000270E00006662782F39464131463745442D413632322D343644302D413938332D3331353338454246344243312F76657274696365732E62696E504B01021400140006
310
080800CC70623BF270F133060000000400000036000000000000000000000000007A0E00006662782F39464131463745442D413632322D343644302D413938332D3331353338454246344243312F747269616E676C65732E62696E504B01021400140006080000CC70623B0000000000000000000000003700000000000000
310
000000000000D40E00006662782F39464131463745442D413632322D343644302D413938332D3331353338454246344243312F617474726962757465732E62696E504B01021400140006080800CC70623B08DA0BD190000000410100003600000000000000000000000000290F00006662782F39464131463745442D413632
310
322D343644302D413938332D3331353338454246344243312F6469726563746F72792E786D6C504B01021400140006080800CC70623B0D6EF93BFE000000A00100003B000000000000000000000000000D1000006662782F39464131463745442D413632322D343644302D413938332D3331353338454246344243312F7265
310
736F75726365732F636F72652E786D6C504B0506000000000E000E0080040000641100000000
  0
XRECORD
  5
175
102
{ACAD_REACTORS
330
173
102
}
330
173
100
AcDbXrecord
280
     1
270
     1
271
     1
  0
XRECORD
  5
174
102
{ACAD_REACTORS
330
173
102
}
330
173
100
AcDbXrecord
280
     1
270
     1
271
     1
  0
XRECORD
  5
1FB
102
{ACAD_REACTORS
330
173
102
}
330
173
100
AcDbXrecord
280
     1
 70
     0
 90
1673772943
  1
ECE7A1D2-D628-4531-984C-D00F80459256
310
504B03040A0000080000CC70623B3DEE336E79000000790000001B0000006175746F6465736B2D64657369676E2D7061636B6167652E786D6C3C3F786D6C2076657273696F6E3D22312E302220656E636F64696E673D227574662D3822203F3E3C666F726D6174733E3C666F726D61743E687474703A2F2F736368656D612E
310
6175746F6465736B2E636F6D2F64657369676E2D7061636B6167652F323030393C2F666F726D61743E3C2F666F726D6174733E504B0304140006080800CC70623BD486FD9CA0000000F4000000130000005B436F6E74656E745F54797065735D2E786D6C7D8EC10E82300C865F65E91D8A1E8C310C0EEA1BF002731658846E
310
D98AC1B77784ABF1D8FE5FBFBF75BBCE937A534CCEB38643598122B6FEE978D0B0485F9C41B54DDD7D022595594E1A469170414C76A4D9A4D207E29CF43ECE46F218070CC6BECC4078ACAA135ACF422C856C0E68EA1BF5669944DDD7BCDE7B1F8E415D77AECB980613C2E4AC91FC167A2B244592486606FC29C8FD7F045B9A
310
EF7053A7E60B504B0304140006080800CC70623BD9DDAED0EC0000007C01000008000000636F72652E786D6C8D90416EC3201045AF82665B61836D9CD8C2444DD39CA01740405C94182C03558F5F9C3852BBEB6A467FFE9B197D7EF89E6EE8CB2CC17A37002D0820E394D7D68D03A478C17B4007C117EFE32F1B20272733C0
310
2A83E0E3E2D3BC49CABB685CCCAAF3DA6CA20CC14440EA969B0182FA34932C648AD911AEC52CD5558EA6A0CF2EC329598D1E47ACCEFBECC59A050463A7EA5833865FEBDD0E37353BE3EE8DBDE3F6786A48D375FBF6CC78B9C282473B3DEFABC5C86834888A900E538A49F5419B9EB47DD5BC907D4F082F57FB1F28CDFA9F50
310
B22ED6D5F6EE030B20687EE43E10BC5CB3C8E51E54AE6B6EE207504B0304140006080800CC70623B55019EA25F0000007C00000007000000636E782E786D6C4DCB3B0E80201045D1AD90E915ED2CF8AC45050C11660C8261F98AB1B07AC9C97D42D718D865D3E909258CFD00CCE24AC6E326A164D74DC0B4128928FF326038
310
472BA13128B1252AC747C6BAB984FC68F0B87FE8960A5C09FE86CFB69FBA01504B0304140006080800CC70623BA24EB22D72010000D40300000C0000006662782F636F72652E786D6CC5535B6E833010BC8AE5DF0A6C5E49888CA3A6694ED00B38E05014B091B1518EDFE511A5A9D228FD2A1F60CDEC7A67C6986DCE4D8D7A
310
69BA4AAB0C073EC548AA5C17952A33ECECD15B61B4E1CC686DBF9561A44423333CC098B3D268D7CE50AE9595CA02AA74216750749DB418E5352C32DCE59FB211BE70162ABA93DF8AFC244AE9073ED050C759670D0840D390E18DF9F1706664C23973AE2A66B62A605A75ACA4C13C4976E1364A12EF355A2EBD384AF65EFA96
310
BC7B8BED2EA6719AAE16FB8491A199335B351775B991C2CA02F390D2D40B028F861F41BCA68B7518BFD0D59A524686F29B26D7164F36B94AD9289CE54E6D1DE6010819891F6E21228B3AD1831EC219194284CF98F06DD01008846CC5A1BEF83801D4CBDC6A1303536877A57A513B0953A94FC707FDBE6064EA84A9E3E6E0FA
310
EE8CF0E9198F7784A316AA0413C2C2F2E0ECA0934D1AE6D05A69BCDE9E91D2A611F573361E38FC1375157F5752AE6B6DFE4B11990F88CCBF0719EE23FF02504B0304140006080800CC70623B408A7D3B7C0000009D0000000B0000006662782F636E782E786D6C4DCCD10A83201886E15B91FFDC552A92A0064DBC8F581632
310
D3703A76F9ABD1C18E3E78F878E5F0D9027ABBFCF2292AE86E2D20171F69F6715550CB827B40839639A5F2770314A7CD293819B45C73AAFB45B35BA61ACAA1C1C7E7855C58C15BC331339661262CC762340413D68D77DA5B42298546CBE6573AF60CEB2F504B0304140006080800CC70623B449FB9BD290100001202000031
310
0000006662782F36394639363044362D344446342D343946362D394244322D3234314243333846323333332F636F72652E786D6C8D515B6EC32010BC0AE22B55850D98B871848994463E412FE002495162B07854397EA176A4F62F3F2C9A9D991D587EB84F37F0AD7D30CEF6905418026DA553C65E7A98E219ED203808EE9D
310
8B7F6810D871D23D2C3014FCE25D9A57483A1BB58D19B54EE9151C43D0110279CB971E06F9A5A7B11A53CC8C70ADE6515EC78BAE4895DB992778883E0700CB907242D17643D7E2538BD869608875438BBAE38922CAC8F1BDD90DB4691A5E2F42C153326A951B95E398B3D1FE599322163C9AE9115F7A3D46ADA0A018778810
310
84E907617BDCEE297BC5BB3DC6BC2EF47FA234AB2745C9D8D8D035EE220B50105E2F0DC1954B9FB747187D9F9D8FA0CCDB042D5FA0C015C65B42DF78BD10F3F3B363CB56C7109DCFDFBBB97E662ED92EB62D13BC2E1BCAE5777DB9966D8A1F504B0304140006080800CC70623BAD7543B64E01000033030000300000006662
310
782F36394639363044362D344446342D343946362D394244322D3234314243333846323333332F636E782E786D6CD593CD6EC32010845F0571AD6CE3D48AD20813A9873E410FBD12D82434182C7EAAE6EDBB2424CD25871E7B41D6EC30B3FA84F9E67BB2E40B4234DE8DB46F1925E094D7C6ED479AD3AE5951B2113C789FEE
310
6C943839C1488B4C05DF079FE72A69D8C96C13AAD6B8631503449F83828872B949AC57D26200B826A308D316B4064D6E46FCDA41C05550DC9E483A00797BFD207EFB092A45DE9514C1BBD22178396BD39D891265658C238DEA00936C654E5E433CB65A26D9F6EDB5EBC14EBF49A45CB856E66048291F6939A9A81BB5C89177
310
38143CA680F4AA299D66A042CEB3354A2684DC9D8D178FE0D9B8B41CAAD720F880EE7EF93C0C18769E099ECC04D5A102C8049A8A05632F4DDF376CF1DE0F6BB65C2F8627B65A33C6BB62177CEBBDAD973006829F89F22E814B54F4BC2BE347F8AA8F681390B50FA73F804400B5F542E796F19FF974E7F78DB802FE05E20750
310
4B0304140006080800CC70623B8D05915C650500003B100000340000006662782F36394639363044362D344446342D343946362D394244322D3234314243333846323333332F6F626A656374732E786D6CAD575B6FA33814FE2B887D06429276DA1565D4266D158D3A339A6846FB502932E050B66023DB74D2FDF5FB190C01
310
9276B2973C046C8ECFF53B17071F77456EBD502133CEAE6CDF9DD81665314F32965ED995DA3A17B6F5310C04E7AA47665B8C14F4CAD6DB7618A48257A5D94AE89654B91AEDDEDDFC61C998326A5B714EA4BCB265FC440BE2924AF184CA6737218AB8E976E7FA6E4338649B0A523E8D98964450A6A029F619B8588D52FE7039
310
B1BD30F0F4F730D0FF866AF6369557DB33949F31A9088B0F848DD8CCFCF9F2767A76E99CCDE733677E3EF59D9BBB9BA5E37F984D16E78BC5E5F5ED25044B25C0C96822E8D60EEFE11B91C581D77CEA34368A1F5329E68CD1B8B61F16D63A1B8E092D294B10C78C4A48EB593D192E7DED9BDEE7995E1B91FDEDD3ACEA9FE831
310
6A756F9F7D4D79F4274C90A7A04248AA51D5F8C718DAE06FB2F75AC4796EBE65D22A88A22223B995679120E2D50E41AA49C260C046A35368846B0BECD0DFF3EBEB8AD4F835768F69B9ADF25C43D30E6B646F807FAA64AD59F61715C7A54127C4AACA98BA3006A9D792DAE165E0D59B61A01FB3A9F9D838D2DAE62445C86166
310
F37564E842E7DE6A69879FEEA2DD5AE7E371E1A5E025154AC307D06A03D73EB5978C58FFA4C8E9033066E0F3BD53BEC1F39F91BE7B55103791EDE6BBB991A2046172CB4581D8B893FA674DDA17A77B3B7C413D1B511FD2743BFF8A38F03A658705E3ADF8015C3A3417FF3D7E439FF591DA0B5F18BC20C1B8981957AE6392A3
310
F43C640C01D1A0B4728E2DD4F26DB4B3C3152A252A3B4E913CEC1C72F012782FF88EFF8637AA552DBEF76408E8A8DE9E50F9E1CB3A2DA0DB1B6039A893B56063DC5B3E3FFB5F72E67AB9FEB4AEC496C4F4C1149625DD662C53E89D7BF0F6151A046260D1337DFDC94502430F83B0EE07A130A224BCAD7DAE1D9FB6CD422FF6
310
920702629C4BB9AE79C12F243C6432A6794E18E5552BA56B431AAB5D91317302B2B071E86C3A42B1A02F999E24061403B5D0EB639195DA655DD3EBEAB4FB862DDF579F014AD0E73C22F99E28DA57FB98E75C6CA2D74D53086D600F4786E0FE3144B771A8A7B900F03594DB8A633CBC49B2EDB69228BB479CF863B5E807AAAB
310
23872F6DFEB4129B949CA33823F58830E86D65621E10047D9DB34D862E8EAC3C2ABC2F7B2C40D67CDFE01F5545B92105AF983AC54D93D69E56FB8E797F88913F898A9FEC705D3F9D1B54EC8426FB500D40A03BD0119B06E1B95DDC7EB8F6975367793EBD70E66733DFB9BC982F9CE564727731999F5D4ECFCE3B8D6A4DC2A0
310
6D50FD148437D110834A64C6CDDF57FBACB5C307A2A477DFE4939736CFEF2B175371E0E10CF0DD1D5C15654E0BCA14D1E87DD02FF93782A162C0A3D95F1524A52770F972BF1EE9809D13CE7DD599467F8ECE9ADD85CE85A34CD45355448C64F9E8A031DC2D596ACC6E5DD93D9B82DE2EF5CAF81363A8E47996A0DE24564A79
310
4115AACE09C55E14540231FDA13C319787134EBF34E3A022514E5B4D9E0826E25C02D5805B15ABE1BEF51B26383D445DD9E875EE33FE4C22DA16427D65A3BCA92CA6D28DD01DF5DC53330704308475351050232CCD31583787BA75774AFB06E5070DD0C8EF484E19968C5D83BA5B90B244D31E54D55A372320FE4786B7EA58
310
44E135AA5467CB7EA333A61683CC6A8C3257034C10CF46F40EF9F5BE59BE5BD30C3C72D235E95D10345C1D45445A5F0BB47E46A5EBE5570F9380B5FA629579952296A773720405982B9DE04011506178964401AA8BDF1FBF0A8EAB6861DD6580C0E38217056766716DAEB2D6FA0917D3E4116581EADB879C4E7CFFB11EFACD
310
3D641311495D92C8676CB409A72D18610D803CE8A626049E8EC1887CB5B44CC39883690DDA8399B4B9855B481E7D71D4A9D22F96E5BB73BF5793020C02137BF837504B0304140006080000CC70623B000000000000000000000000350000006662782F36394639363044362D344446342D343946362D394244322D32343142
310
43333846323333332F76657274696365732E62696E504B0304140006080800CC70623BF270F1330600000004000000360000006662782F36394639363044362D344446342D343946362D394244322D3234314243333846323333332F747269616E676C65732E62696E636660600000504B0304140006080000CC70623B0000
310
00000000000000000000370000006662782F36394639363044362D344446342D343946362D394244322D3234314243333846323333332F617474726962757465732E62696E504B0304140006080800CC70623B08DA0BD19000000041010000360000006662782F36394639363044362D344446342D343946362D394244322D
310
3234314243333846323333332F6469726563746F72792E786D6C858F410AC3201045AF22B36F53E9A60B35CBEEBAE80D244E44489C6234F4F835464A48035D0DF398FF9F8AF63D0E6CC63039F212F8F9020C7D47C6792B21C5FE7403D62A1188E2E60C98D7234A5830286103A55745067B9D86B8A3CF9C7F90C11DE607FB14
310
4396D7B6A82D282E9A152AD114D5EF2CB866EEE831B8EEA07A7BB5A8D7D61A2BAAEB7FD5F70921FF497D00504B0304140006080800CC70623BCA768048FE000000A00100003B0000006662782F36394639363044362D344446342D343946362D394244322D3234314243333846323333332F7265736F75726365732F636F72
310
652E786D6C8D50596E833010BD0A9ADFCA60D600328E9AA639412F609909B1126CE4A5EAF16B0295DABFFECC8CDEA2797AECF8353F924FB44E193D409E5248504B332A3D0D10FC95B4901C39B3C6F85F3248B49871801506CE266BC2B243D2688FDA47549B11775038871E12F988C7004EDE7016A9083E2ADC3D5D84BC8B09
310
D33C8D74D471E6BC8D0192EDC93A815B742658898E651BCB59086ADC356A8C3FD555A1055ED7E7E254D615792D0F075295F585746FF53B694EE78A565DD736979A65AB9933AFE69F8CD2A2F038022F28ED489E135A7CE4554F9BBEA85E68DB53CAB255FEC71496F19FA6A0B42F8B3DEE6673C0F318E4497096AD7DC5F52C33
310
EEB55BFE0D504B010214000A0000080000CC70623B3DEE336E79000000790000001B00000000000000000000000000000000006175746F6465736B2D64657369676E2D7061636B6167652E786D6C504B01021400140006080800CC70623BD486FD9CA0000000F40000001300000000000000000000000000B20000005B436F
310
6E74656E745F54797065735D2E786D6C504B01021400140006080800CC70623BD9DDAED0EC0000007C010000080000000000000000000000000083010000636F72652E786D6C504B01021400140006080800CC70623B55019EA25F0000007C000000070000000000000000000000000095020000636E782E786D6C504B0102
310
1400140006080800CC70623BA24EB22D72010000D40300000C00000000000000000000000000190300006662782F636F72652E786D6C504B01021400140006080800CC70623B408A7D3B7C0000009D0000000B00000000000000000000000000B50400006662782F636E782E786D6C504B01021400140006080800CC70623B
310
449FB9BD290100001202000031000000000000000000000000005A0500006662782F36394639363044362D344446342D343946362D394244322D3234314243333846323333332F636F72652E786D6C504B01021400140006080800CC70623BAD7543B64E010000330300003000000000000000000000000000D20600006662
310
782F36394639363044362D344446342D343946362D394244322D3234314243333846323333332F636E782E786D6C504B01021400140006080800CC70623B8D05915C650500003B10000034000000000000000000000000006E0800006662782F36394639363044362D344446342D343946362D394244322D32343142433338
310
46323333332F6F626A656374732E786D6C504B01021400140006080000CC70623B0000000000000000000000003500000000000000000000000000250E00006662782F36394639363044362D344446342D343946362D394244322D3234314243333846323333332F76657274696365732E62696E504B010214001400060808
310
00CC70623BF270F13306000000040000003600000000000000000000000000780E00006662782F36394639363044362D344446342D343946362D394244322D3234314243333846323333332F747269616E676C65732E62696E504B01021400140006080000CC70623B00000000000000000000000037000000000000000000
310
00000000D20E00006662782F36394639363044362D344446342D343946362D394244322D3234314243333846323333332F617474726962757465732E62696E504B01021400140006080800CC70623B08DA0BD190000000410100003600000000000000000000000000270F00006662782F36394639363044362D344446342D
310
343946362D394244322D3234314243333846323333332F6469726563746F72792E786D6C504B01021400140006080800CC70623BCA768048FE000000A00100003B000000000000000000000000000B1000006662782F36394639363044362D344446342D343946362D394244322D3234314243333846323333332F7265736F
310
75726365732F636F72652E786D6C504B0506000000000E000E0080040000621100000000
  0
XRECORD
  5
176
102
{ACAD_REACTORS
330
173
102
}
330
173
100
AcDbXrecord
280
     1
270
     1
271
     1
  0
XRECORD
  5
177
102
{ACAD_REACTORS
330
173
102
}
330
173
100
AcDbXrecord
280
     1
270
     1
271
     1
  0
XRECORD
  5
312A
102
{ACAD_REACTORS
330
234
102
}
330
234
100
AcDbXrecord
280
     1
102
DISPLAYNAME
  1
Metric50
102
FLAGS
 90
        0
  0
CELLSTYLEMAP
  5
3129
102
{ACAD_REACTORS
330
162
102
}
330
162
100
AcDbCellStyleMap
 90
        3
300
CELLSTYLE
  1
TABLEFORMAT_BEGIN
 90
        5
170
     1
 91
        0
 92
    32768
 62
   257
 93
        1
300
CONTENTFORMAT
  1
CONTENTFORMAT_BEGIN
 90
        0
 91
        0
 92
      512
 93
        0
300

 40
0.0
140
1.0
 94
        5
 62
     0
340
11
144
6.0
309
CONTENTFORMAT_END
171
     1
301
MARGIN
  1
CELLMARGIN_BEGIN
 40
1.5
 40
1.5
 40
1.5
 40
1.5
 40
4.5
 40
4.5
309
CELLMARGIN_END
 94
        6
 95
        1
302
GRIDFORMAT
  1
GRIDFORMAT_BEGIN
 90
        0
 91
        1
 62
     0
 92
       -2
340
14
 93
        0
 40
1.125
309
GRIDFORMAT_END
 95
        2
302
GRIDFORMAT
  1
GRIDFORMAT_BEGIN
 90
        0
 91
        1
 62
     0
 92
       -2
340
14
 93
        0
 40
1.125
309
GRIDFORMAT_END
 95
        4
302
GRIDFORMAT
  1
GRIDFORMAT_BEGIN
 90
        0
 91
        1
 62
     0
 92
       -2
340
14
 93
        0
 40
1.125
309
GRIDFORMAT_END
 95
        8
302
GRIDFORMAT
  1
GRIDFORMAT_BEGIN
 90
        0
 91
        1
 62
     0
 92
       -2
340
14
 93
        0
 40
1.125
309
GRIDFORMAT_END
 95
       16
302
GRIDFORMAT
  1
GRIDFORMAT_BEGIN
 90
        0
 91
        1
 62
     0
 92
       -2
340
14
 93
        0
 40
1.125
309
GRIDFORMAT_END
 95
       32
302
GRIDFORMAT
  1
GRIDFORMAT_BEGIN
 90
        0
 91
        1
 62
     0
 92
       -2
340
14
 93
        0
 40
1.125
309
GRIDFORMAT_END
309
TABLEFORMAT_END
  1
CELLSTYLE_BEGIN
 90
        1
 91
        1
300
_TITLE
309
CELLSTYLE_END
300
CELLSTYLE
  1
TABLEFORMAT_BEGIN
 90
        5
170
     1
 91
        0
 92
        0
 62
   257
 93
        1
300
CONTENTFORMAT
  1
CONTENTFORMAT_BEGIN
 90
        0
 91
        0
 92
      512
 93
        0
300

 40
0.0
140
1.0
 94
        5
 62
     0
340
11
144
4.5
309
CONTENTFORMAT_END
171
     1
301
MARGIN
  1
CELLMARGIN_BEGIN
 40
1.5
 40
1.5
 40
1.5
 40
1.5
 40
4.5
 40
4.5
309
CELLMARGIN_END
 94
        6
 95
        1
302
GRIDFORMAT
  1
GRIDFORMAT_BEGIN
 90
        0
 91
        1
 62
     0
 92
       -2
340
14
 93
        0
 40
1.125
309
GRIDFORMAT_END
 95
        2
302
GRIDFORMAT
  1
GRIDFORMAT_BEGIN
 90
        0
 91
        1
 62
     0
 92
       -2
340
14
 93
        0
 40
1.125
309
GRIDFORMAT_END
 95
        4
302
GRIDFORMAT
  1
GRIDFORMAT_BEGIN
 90
        0
 91
        1
 62
     0
 92
       -2
340
14
 93
        0
 40
1.125
309
GRIDFORMAT_END
 95
        8
302
GRIDFORMAT
  1
GRIDFORMAT_BEGIN
 90
        0
 91
        1
 62
     0
 92
       -2
340
14
 93
        0
 40
1.125
309
GRIDFORMAT_END
 95
       16
302
GRIDFORMAT
  1
GRIDFORMAT_BEGIN
 90
        0
 91
        1
 62
     0
 92
       -2
340
14
 93
        0
 40
1.125
309
GRIDFORMAT_END
 95
       32
302
GRIDFORMAT
  1
GRIDFORMAT_BEGIN
 90
        0
 91
        1
 62
     0
 92
       -2
340
14
 93
        0
 40
1.125
309
GRIDFORMAT_END
309
TABLEFORMAT_END
  1
CELLSTYLE_BEGIN
 90
        2
 91
        1
300
_HEADER
309
CELLSTYLE_END
300
CELLSTYLE
  1
TABLEFORMAT_BEGIN
 90
        5
170
     1
 91
        0
 92
        0
 62
   257
 93
        1
300
CONTENTFORMAT
  1
CONTENTFORMAT_BEGIN
 90
        0
 91
        0
 92
      512
 93
        0
300

 40
0.0
140
1.0
 94
        2
 62
     0
340
11
144
4.5
309
CONTENTFORMAT_END
171
     1
301
MARGIN
  1
CELLMARGIN_BEGIN
 40
1.5
 40
1.5
 40
1.5
 40
1.5
 40
4.5
 40
4.5
309
CELLMARGIN_END
 94
        6
 95
        1
302
GRIDFORMAT
  1
GRIDFORMAT_BEGIN
 90
        0
 91
        1
 62
     0
 92
       -2
340
14
 93
        0
 40
1.125
309
GRIDFORMAT_END
 95
        2
302
GRIDFORMAT
  1
GRIDFORMAT_BEGIN
 90
        0
 91
        1
 62
     0
 92
       -2
340
14
 93
        0
 40
1.125
309
GRIDFORMAT_END
 95
        4
302
GRIDFORMAT
  1
GRIDFORMAT_BEGIN
 90
        0
 91
        1
 62
     0
 92
       -2
340
14
 93
        0
 40
1.125
309
GRIDFORMAT_END
 95
        8
302
GRIDFORMAT
  1
GRIDFORMAT_BEGIN
 90
        0
 91
        1
 62
     0
 92
       -2
340
14
 93
        0
 40
1.125
309
GRIDFORMAT_END
 95
       16
302
GRIDFORMAT
  1
GRIDFORMAT_BEGIN
 90
        0
 91
        1
 62
     0
 92
       -2
340
14
 93
        0
 40
1.125
309
GRIDFORMAT_END
 95
       32
302
GRIDFORMAT
  1
GRIDFORMAT_BEGIN
 90
        0
 91
        1
 62
     0
 92
       -2
340
14
 93
        0
 40
1.125
309
GRIDFORMAT_END
309
TABLEFORMAT_END
  1
CELLSTYLE_BEGIN
 90
        3
 91
        2
300
_DATA
309
CELLSTYLE_END
  0
ENDSEC
  0
SECTION
  2
ACDSDATA
 70
     2
 71
     6
  0
ACDSSCHEMA
 90
        0
  1
AcDb_Thumbnail_Schema
  2
AcDbDs::ID
280
    10
 91
        8
  2
Thumbnail_Data
280
    15
 91
        0
101
ACDSRECORD
 95
        0
 90
        1
  2
AcDbDs::TreatedAsObjectData
280
     1
291
     1
101
ACDSRECORD
 95
        0
 90
        2
  2
AcDbDs::Legacy
280
     1
291
     1
101
ACDSRECORD
  1
AcDbDs::ID
 90
        3
  2
AcDs:Indexable
280
     1
291
     1
101
ACDSRECORD
  1
AcDbDs::ID
 90
        4
  2
AcDbDs::HandleAttribute
280
     7
282
     1
  0
ACDSSCHEMA
 90
        1
  1
AcDbDs::TreatedAsObjectDataSchema
  2
AcDbDs::TreatedAsObjectData
280
     1
 91
        0
  0
ACDSSCHEMA
 90
        2
  1
AcDbDs::LegacySchema
  2
AcDbDs::Legacy
280
     1
 91
        0
  0
ACDSSCHEMA
 90
        3
  1
AcDbDs::IndexedPropertySchema
  2
AcDs:Indexable
280
     1
 91
        0
  0
ACDSSCHEMA
 90
        4
  1
AcDbDs::HandleAttributeSchema
  2
AcDbDs::HandleAttribute
280
     7
 91
        1
284
     1
  0
ACDSRECORD
 90
        0
  2
AcDbDs::ID
280
    10
320
185B
  2
Thumbnail_Data
280
    15
 94
     1158
310
89504E470D0A1A0A0000000D4948445200000100000000B408030000004C80028300000300504C5445FFFFFF000000C8C8C80000000000000000000000000000000000000000000000000000330000660000990000CC0000FF0033000033330033660033990033CC0033FF0066000066330066660066990066CC0066FF0099
310
000099330099660099990099CC0099FF00CC0000CC3300CC6600CC9900CCCC00CCFF00FF0000FF3300FF6600FF9900FFCC00FFFF3300003300333300663300993300CC3300FF3333003333333333663333993333CC3333FF3366003366333366663366993366CC3366FF3399003399333399663399993399CC3399FF33CC00
310
33CC3333CC6633CC9933CCCC33CCFF33FF0033FF3333FF6633FF9933FFCC33FFFF6600006600336600666600996600CC6600FF6633006633336633666633996633CC6633FF6666006666336666666666996666CC6666FF6699006699336699666699996699CC6699FF66CC0066CC3366CC6666CC9966CCCC66CCFF66FF0066
310
FF3366FF6666FF9966FFCC66FFFF9900009900339900669900999900CC9900FF9933009933339933669933999933CC9933FF9966009966339966669966999966CC9966FF9999009999339999669999999999CC9999FF99CC0099CC3399CC6699CC9999CCCC99CCFF99FF0099FF3399FF6699FF9999FFCC99FFFFCC0000CC00
310
33CC0066CC0099CC00CCCC00FFCC3300CC3333CC3366CC3399CC33CCCC33FFCC6600CC6633CC6666CC6699CC66CCCC66FFCC9900CC9933CC9966CC9999CC99CCCC99FFCCCC00CCCC33CCCC66CCCC99CCCCCCCCCCFFCCFF00CCFF33CCFF66CCFF99CCFFCCCCFFFFFF0000FF0033FF0066FF0099FF00CCFF00FFFF3300FF3333
310
FF3366FF3399FF33CCFF33FFFF6600FF6633FF6666FF6699FF66CCFF66FFFF9900FF9933FF9966FF9999FF99CCFF99FFFFCC00FFCC33FFCC66FFCC99FFCCCCFFCCFFFFFF00FFFF33FFFF66FFFF99FFFFCCFFFFFF0000000D0D0D1A1A1A2828283535354343435050505D5D5D6B6B6B787878868686939393A1A1A1AEAEAEBB
310
BBBBC9C9C9D6D6D6E4E4E4F1F1F1FFFFFF000000000000000000000000000000000000000000000000000000000000B0E2D235000001014944415478DAEDD5B10D00210C04C1EBBF46222A79012223FFE0663BF0D8923353DC1A7E8EE20E40EF010000000000000017A0E9FFBF018A360F0000000000000000000000000000
310
00000000000000000000000000000000000000000000000000000000000000000000000000000000000000000000000000000000000000000000000000000000000000000000000000000000000000000000000000000000000000000000000000000000000000000000000000000000000000000000000000000000000000
310
0000000000000000000000000000000000000000000000000000000000000000000000FE0328EA095018000000000000308ADB00296E0354977CD453A18235E0616D0000000049454E44AE4260820000005D005518C0F634945B805A00000070021C3987973C0D5E7DE05A848201B00384F30518E17C01E2F9005E79B19B5D
310
43860C0000000049454E44AE426082
  0
ACDSRECORD
 90
        0
  2
AcDbDs::ID
280
    10
320
22
  2
Thumbnail_Data
280
    15
 94
     2032
310
89504E470D0A1A0A0000000D4948445200000100000000800803000000D36B473800000300504C5445212830000000C8C8C80000000000000000000000000000000000000000000000000000330000660000990000CC0000FF0033000033330033660033990033CC0033FF0066000066330066660066990066CC0066FF0099
310
000099330099660099990099CC0099FF00CC0000CC3300CC6600CC9900CCCC00CCFF00FF0000FF3300FF6600FF9900FFCC00FFFF3300003300333300663300993300CC3300FF3333003333333333663333993333CC3333FF3366003366333366663366993366CC3366FF3399003399333399663399993399CC3399FF33CC00
310
33CC3333CC6633CC9933CCCC33CCFF33FF0033FF3333FF6633FF9933FFCC33FFFF6600006600336600666600996600CC6600FF6633006633336633666633996633CC6633FF6666006666336666666666996666CC6666FF6699006699336699666699996699CC6699FF66CC0066CC3366CC6666CC9966CCCC66CCFF66FF0066
310
FF3366FF6666FF9966FFCC66FFFF9900009900339900669900999900CC9900FF9933009933339933669933999933CC9933FF9966009966339966669966999966CC9966FF9999009999339999669999999999CC9999FF99CC0099CC3399CC6699CC9999CCCC99CCFF99FF0099FF3399FF6699FF9999FFCC99FFFFCC0000CC00
310
33CC0066CC0099CC00CCCC00FFCC3300CC3333CC3366CC3399CC33CCCC33FFCC6600CC6633CC6666CC6699CC66CCCC66FFCC9900CC9933CC9966CC9999CC99CCCC99FFCCCC00CCCC33CCCC66CCCC99CCCCCCCCCCFFCCFF00CCFF33CCFF66CCFF99CCFFCCCCFFFFFF0000FF0033FF0066FF0099FF00CCFF00FFFF3300FF3333
310
FF3366FF3399FF33CCFF33FFFF6600FF6633FF6666FF6699FF66CCFF66FFFF9900FF9933FF9966FF9999FF99CCFF99FFFFCC00FFCC33FFCC66FFCC99FFCCCCFFCCFFFFFF00FFFF33FFFF66FFFF99FFFFCCFFFFFF0000000D0D0D1A1A1A2828283535354343435050505D5D5D6B6B6B787878868686939393A1A1A1AEAEAEBB
310
BBBBC9C9C9D6D6D6E4E4E4F1F1F1FFFFFF000000000000000000000000000000000000000000000000000000000000B21171F60000036D4944415478DAEDDD5196AB200C0660769095B0FFCDB88DBC8FA8085154289621E5E7DE3367F4988EFD4A4091AA31CF65525BCC3BE5ADD7695E0000000000000000000000000080EF
310
BD0E47E593D7AE8DEF0A802B011829000000E805200ABF5162ED87F19A00D2251FA02ABC0380A2D5B91B0240570A1C72D8FD529402E778B401CA5280EED794C703000000E81C203457F3D99CA5F8DC8EACFBF1F02E443CAFF1DB226DE19F2B3401F03FDCC9ACA5787BB2CBDAFBA69CFC51B03B17661FBFC4102F6B2BBA8246
310
00EB1EF2B906CCEF3E0780760023018C3A80F9438F0A9905E0210524804801C9D2358048649E38BC8FA7439A54BC07A83E246ADC06B05D3F30BF3DDBB806D0731BC0513CADAD0A9777270A010C00FC99CF5AD3B7467040802DD7070570FFC571840680B5BFA65B80689BBBF84B80BBF8DE00268EA768CD005301C034D1FC2F
310
2AE456E902A8A901875E60EB1D7B07F85A3748FE0069BCE300DA00A2E3BF9100B66E304E817101C6390EA0730AE802B8381BE4CCB34119BFBF4A5E7C67E3015694F2F10016008AC603FC88908D47842C97038836401B8031566C6F33C70403C0B6B1FF7B3AC604C5A8B098F1B32E3E01C8E643A4C09A069D03745D00000000
310
0000000000000000000000740BF0A5EF8A00401900A30D500BF0D54F5011409D4018F4A99D1EAD34055E9C20AEB70D70F3630CE94B81976AC019E08D9AA02905120034540A502205AA09DA5E17204E9692F68FE5B5C579B1AE596C767578E90FF70B43617BBB5DDBBA8FF75786F830496A9F32320A80490368AA015B99C2F5
310
E11C00739902AA00AC39DC0C60CD7F9B0160C2D5E1F8EFF16EA3A306B8F90036DEDEBAF9029C0DC009005695026E768078038B497E0DE01380BA362091020500C789925C7D76D01EE0980275006CB475830000000000000000000000001806203A4EFF0820FA4E0C00C605B8FADADC306D0000EE01861F0F00004684000000
310
000000000000000000603A7CD6586380B2CFF73701F60BCF61B7AEE66501400900A94E81689AA0957305D7A52780C45D65A7107F9820D1FB0317E5997BD9797CE2BEC274EA013BAC01ED014E6DC0F5EC54003405A8BC3DBE04B888EFBC0D90FB4B95358012CF67E8BE0DB85D2C4E016300700288F25CEC567276FE3F018467
310
841401EC35DEC7A7DA80DE012AEE869DF58C91E19F3C3DFDCF8EF706C08F0500BF0DD03E05D4968C37F707D469DE43B6CAE2A30000000049454E44AE4260823700725800E06200BD7F7CFDAFCB035EFD8C8AF6B661FD0000000049454E44AE4260822014C031FE497704ABF1CB04C0F1B68F0BA0B248E829106229FF3C2ABC
310
01182A07404727A878002C0537AABACEC0E334B9A856EE56265E9F21A18B3D0E0BF839C1771AE3D4208088A3A93DF7F36E6700D682B3BD58CB3A5576F48232E72BE9FDC3C9519BF31FD95E2D1605C00DF7B86A802C005924C807D40F207733080B000011000E4E6EFCAF3D0700000080CF01F03DF411DD0C2A3E0B90D90A00
310
00138073B82FC40902000000009C20E2802C16A03AB2000038B83996979A0000009AF50163151A3EBB737B1620530000000000000000000000001F08A130AA0000000000740CE00FA8778D5C176D10820000000049454E44AE42608208218410420821841042087946FE030CBEA403687DB2BE0000000049454E44AE426082
  0
ENDSEC
  0
EOF
